#VERSION:0.83;
#TITLE:tant pis pour toi;
#SUBTITLE:;
#ARTIST:AKIRA YAMAOKA;
#TITLETRANSLIT:;
#SUBTITLETRANSLIT:;
#ARTISTTRANSLIT:;
#GENRE:;
#CREDIT:;
#MUSIC:tant pis pour toi.ogg;
#BANNER:tant pis pour toi.png;
#BACKGROUND:tant pis pour toi-bg.png;
#CDTITLE:;
#SAMPLESTART:24.675;
#SAMPLELENGTH:15.000;
#SELECTABLE:YES;
#OFFSET:1.394;
#BPMS:0.000=138.000;
#STOPS:;
#BGCHANGES:;
#FGCHANGES:;

//--------------- dance-single - ----------------
#NOTEDATA:;
#STEPSTYPE:dance-single;
#DESCRIPTION:;
#DIFFICULTY:Beginner;
#METER:4;
#RADARVALUES:0,0,0,0,0;
#NOTES:
0000
0000
0000
0000
,
0000
0000
0000
0000
,
0000
0000
0000
0000
,
0000
0000
0000
0000
,
0000
0000
0000
0000
,
0000
0000
0000
0000
,
0000
0000
0000
0000
,
0001
0000
1000
0000
,
0001
0000
0000
0000
,
0100
0000
0010
0000
,
0100
0000
0010
0000
,
1000
0000
0001
0000
,
1000
0000
0001
0000
,
0010
0000
0000
0000
,
0100
0000
0000
0000
,
1000
0000
0001
0000
,
0100
0000
0001
0000
,
1000
0000
0100
0000
,
1000
0000
0001
0000
,
0100
0000
0001
0000
,
1000
0000
0100
0000
,
0010
0000
0001
0000
,
1000
0000
0010
0000
,
1000
0000
0001
0000
,
0010
0000
0001
0000
,
1000
0000
0010
0000
,
1000
0000
0001
0000
,
0010
0000
0000
0000
,
0100
0000
0000
0000
,
1000
1000
1000
0000
,
0001
0001
0001
0000
,
0100
0000
0110
0000
,
0010
0000
0000
0000
,
1000
0000
1001
0000
,
0001
0000
0000
0000
,
0010
0000
0110
0000
,
0100
0000
0000
0000
,
0001
0000
1001
0000
,
1000
1000
1000
0000
,
0010
0000
0100
0000
,
0001
0000
0100
0000
,
0010
0000
0100
0000
,
0001
0000
1000
1000
,
0100
0000
0010
0000
,
0100
0000
1000
0000
,
0100
0000
0010
0000
,
0001
0001
0001
0000
,
0100
0010
1000
0000
,
0100
0010
0001
0000
,
1000
0001
0100
0000
,
0001
1000
0100
0000
,
0010
0001
0100
0000
,
0010
1000
0100
0000
,
1000
0001
0010
0000
,
0001
1000
0010
0000
,
0100
0100
0000
0001
,
0001
0000
0010
0010
,
0000
1000
1000
0000
,
0100
0100
0010
0010
,
1001
0000
0000
0000
;

//--------------- dance-single - ----------------
#NOTEDATA:;
#STEPSTYPE:dance-single;
#DESCRIPTION:;
#DIFFICULTY:Easy;
#METER:7;
#RADARVALUES:0,0,0,0,0;
#NOTES:
0000
0000
0000
0000
,
0000
0000
0000
0000
,
0000
0000
0000
0000
,
0000
0000
0000
0000
,
0000
0000
0000
0000
,
0000
0000
0000
0000
,
0000
0000
0000
0000
,
0001
1000
0010
1000
,
0001
0010
0001
1000
,
0010
0100
0001
0100
,
0010
0000
1000
0000
0010
0000
0100
0001
,
1000
0100
0010
0100
,
1000
0001
0010
0001
,
0200
0301
0200
0301
,
0010
0100
1000
0100
,
0010
0000
0001
1000
0001
0000
0100
0000
,
0110
0000
0010
0000
1000
0000
0100
0010
,
0100
1000
1001
0001
,
0100
0000
0010
1000
0010
0000
0100
0000
,
1001
0000
0001
0000
0010
0000
0100
1000
,
0100
0000
0010
0000
1001
0000
1000
0010
,
1000
0000
0001
0100
0001
0000
0010
0000
,
1100
0000
0001
0000
1000
0000
0010
0100
,
0010
1000
0011
1000
,
0010
0000
0100
0001
0100
0000
0010
0000
,
1100
0000
0001
0000
1000
0000
0100
0010
,
0100
1000
0101
0010
,
2000
0001
0001
0001
,
0100
0100
3100
0000
,
1000
1100
0001
0101
,
1000
1010
0001
0011
,
1000
0000
0001
0000
0100
0010
1000
0000
,
0001
0000
0010
0000
0100
1000
0001
0000
,
0100
0000
0010
0000
1000
0100
0010
0000
,
0001
0000
1000
0000
0010
0100
0001
0000
,
1000
0000
0100
0000
0010
0001
1000
0000
,
0010
0000
0100
0000
0001
1000
0100
0000
,
0010
0000
0001
0000
1000
0010
0100
0000
,
1001
0110
1001
0000
,
0002
0000
0103
0000
0001
1000
0010
0000
,
0200
0000
0301
0000
0100
0010
1000
0000
,
0200
0000
0310
0000
0100
1000
0001
0000
,
0020
0000
0031
0000
0010
0100
1000
1000
,
0002
0000
0103
0000
0010
1000
0001
0000
,
0020
0000
0130
0000
1000
0001
0100
0000
,
0020
0000
1030
0000
0001
0010
0100
0000
,
2000
3002
0203
0320
,
1030
0000
0100
0000
0010
0001
1000
0001
,
0100
0000
0010
0000
1000
0001
0010
0100
,
1000
0000
0001
0000
0100
0010
1000
0010
,
0100
0000
0001
0000
0010
0100
1000
0001
,
0010
0000
0001
0000
1000
0010
0100
0001
,
1000
0000
0100
0000
1000
0010
1000
0100
,
0010
0000
0001
0000
0100
0001
0010
0100
,
1000
0000
0001
0000
0100
0010
1000
0001
,
1000
0100
1000
0100
0000
0000
0010
0001
,
0010
0001
0000
0000
1000
0010
1000
0010
,
0000
0000
0100
0001
0100
0001
0100
0001
,
0010
0010
0100
0100
1000
1000
0001
0001
,
0100
0000
0000
0000
;

//--------------- dance-single - ----------------
#NOTEDATA:;
#STEPSTYPE:dance-single;
#DESCRIPTION:;
#DIFFICULTY:Medium;
#METER:11;
#RADARVALUES:0,0,0,0,0;
#NOTES:
0000
0000
0000
0000
,
0000
0000
0000
0000
,
0000
0000
0000
0000
,
0000
0000
0000
0000
,
0000
0000
0000
0000
,
0000
0000
0000
0000
,
0000
0000
0000
0000
,
1001
0000
0001
0100
0010
0000
1000
0100
,
0010
0000
0001
1000
0010
0000
0010
0000
,
0100
0000
0001
1000
0100
0000
1000
0001
,
0100
0000
0010
1000
0100
0000
0100
0000
,
0010
0001
0010
0000
0100
1000
0100
0000
,
1000
0010
1000
0000
0001
0100
0001
0000
,
0020
1030
0020
0031
,
0100
0000
0000
0100
0010
0000
0000
0000
0100
0000
0000
0100
0010
0000
0000
0000
,
1001
0000
0001
0100
0010
1000
0001
1000
,
0200
0000
0310
0000
1001
0000
1000
0100
,
0010
0001
1000
0001
0200
0000
0310
0000
,
1001
0000
0001
0100
0010
1000
0100
0010
,
0002
0000
0103
0000
1001
0000
1000
0100
,
0010
0001
0100
0010
2000
0000
3100
0100
,
0010
0001
0010
0100
1000
0001
0100
0010
,
2000
0000
3001
0010
0001
0100
0010
1000
,
0001
0010
0100
1000
0002
0000
0103
0010
,
1000
0100
0010
0100
1000
0010
0100
0001
,
0020
0000
0130
1000
0001
0100
0001
1000
,
0010
1000
0001
0010
0200
0000
0310
0000
,
0011
1000
0002
0100
,
1000
0100
1003
0000
,
0101
0101
1010
1010
,
1100
1100
0011
0011
,
1000
0100
0010
0001
0100
0000
0010
0000
,
1000
0000
0001
0000
0010
0000
0100
0000
2000
0000
0000
0000
3010
0000
0000
0100
,
0001
0010
0001
1000
0010
0000
0100
0000
,
0001
0000
0010
0000
0100
0000
1000
0000
0002
0000
0000
0000
0103
0000
0000
0010
,
1000
0100
0010
0001
1000
0000
0010
0000
,
0100
0000
0001
0000
1000
0000
0001
0000
0020
0000
0000
0000
0130
0000
0000
1000
,
0001
0100
0010
1000
0001
0000
0010
0000
,
0101
1100
1001
0000
,
2000
0000
3100
0010
0001
1000
0010
0000
,
0200
0000
0301
1000
0100
1000
0010
0000
,
0200
0000
0301
0010
0100
1000
0020
0000
,
1030
0000
0001
0010
0001
0100
0010
0010
,
1000
0100
0010
0001
0100
0010
1000
0000
,
0001
0010
0100
1000
0001
0100
0010
0000
,
1000
0100
0010
0001
0100
0010
1000
0000
,
0002
0203
0320
2030
,
3001
0000
0010
0000
0100
0000
1000
0000
0001
0000
0000
0001
0100
0000
0000
0100
,
0010
0000
1000
0000
0001
0000
0010
0000
0100
0000
0000
0100
1000
0000
0000
1000
,
0010
0000
0100
0000
0001
0000
1000
0000
0100
0000
0000
0100
0010
0000
0000
0010
,
0001
0000
1000
0000
0001
0000
0100
0000
0010
0000
0000
0010
1000
0000
0000
1000
,
0001
0000
0010
0000
0100
0000
1000
0000
0001
0000
0000
0010
0001
0000
0000
0100
,
0001
0000
0010
0000
0100
0000
1000
0000
0010
0000
0000
1000
0010
0000
0000
0100
,
0010
0000
1000
0000
0001
0000
0010
0000
0100
0000
0000
1000
0100
0000
0000
0010
,
0100
0000
1000
0000
0001
0000
0100
0000
0010
0000
0000
1000
0010
0000
0000
0100
,
0001
0001
0001
0001
0000
0000
1000
1000
,
1000
1000
0000
0000
0010
0010
0010
0010
,
0000
0000
0100
0100
0001
0001
0100
0100
,
0001
0010
1000
0010
0001
0100
1000
0100
,
1001
0000
0000
0000
;

//--------------- dance-single - ----------------
#NOTEDATA:;
#STEPSTYPE:dance-single;
#DESCRIPTION:;
#DIFFICULTY:Hard;
#METER:13;
#RADARVALUES:0,0,0,0,0;
#NOTES:
0000
0000
0000
0000
,
0000
0000
0000
0000
,
0000
0000
0000
0000
,
0000
0000
0000
0000
,
0000
0000
0000
0000
,
0000
0000
0000
0000
,
0000
0000
0000
0000
,
0102
0000
1003
0100
0002
0000
0103
0010
,
0002
0000
1003
0010
0100
0001
1000
0100
,
0020
0000
0031
1000
0020
0000
0130
0001
,
0020
0000
0031
1000
0100
0010
0001
0001
,
0100
0010
1000
0010
0001
0010
0100
0001
,
1000
0100
0001
0100
0010
0100
1000
0001
,
0100
0000
0000
0100
1000
0000
0000
0000
0100
0000
0000
0100
0001
0000
0000
0000
,
1000
0000
0000
0001
0010
0000
0000
0000
0001
0000
0000
1000
0010
0000
0000
0000
,
1000
0001
0000
0000
0100
0000
1000
0000
0100
0000
0001
0000
0010
0000
0100
0000
,
1000
0010
0000
0000
0100
0000
0001
0000
1000
0100
0000
0000
0001
0000
0100
0000
,
0010
0000
0001
0000
0010
0000
0100
0000
1000
0010
0000
0000
0100
0000
0001
0000
,
1000
0100
0000
0000
0010
0000
1000
0000
0010
0000
0001
0000
1000
0000
0010
0000
,
1000
0100
0000
0000
0010
0000
0001
0000
1000
0010
0000
0000
0001
0000
0010
0000
,
0100
0000
0001
0000
1000
0000
0100
0000
0010
0001
0000
0000
0100
0000
0100
0000
,
0010
0001
0000
0000
0010
0000
1000
0000
0100
1000
0100
0000
0010
0000
0001
0000
,
1000
0010
0000
0000
0100
0000
0001
0000
1000
0100
0000
0000
0001
0000
0100
0000
,
1000
0001
1000
0000
0010
0000
0100
0000
0001
0010
0000
0000
0100
0000
1000
0000
,
0001
0100
0000
0000
0010
0000
0001
0000
0010
1000
0010
0000
0100
0000
0001
0000
,
1000
0100
0000
0000
1000
0000
0010
0000
0100
1000
0000
0000
0100
0000
0001
0000
,
0010
0100
0010
0000
0001
0000
1000
0000
0001
0100
0000
0000
0010
0000
0000
0000
,
1100
0000
0101
0000
0010
1000
0010
0001
,
0010
1000
0010
0001
0020
0000
0030
0000
,
0110
0000
1001
0000
0100
1000
0100
0001
,
0100
1000
0100
0001
0100
0000
1001
0000
,
1000
0000
0010
0000
0100
0000
0001
0000
0010
0100
1000
0000
0001
0000
0000
0000
,
0100
0000
0010
0000
1000
0000
0001
0000
0010
0001
1000
0000
0100
1000
0000
0100
,
0010
0000
0001
0000
1000
0000
0010
0000
0100
0001
1000
0000
0010
0000
0000
0000
,
1000
0000
0100
0000
0010
0000
0001
0000
1000
0010
0100
0000
0001
1000
0000
0001
,
0010
0000
0100
0000
1000
0000
0001
0000
1000
0010
0100
0000
0001
0000
0000
0000
,
0010
0000
0100
0000
1000
0000
0001
0000
0100
0010
1000
0000
0001
0010
0000
0100
,
0010
0000
0001
0000
1000
0000
0010
0000
0100
0001
1000
0000
0100
0000
0000
0000
,
0010
0000
0000
0010
0100
0000
0000
0000
2002
0000
0000
0000
3003
0000
0000
0000
,
0002
0000
0100
0000
1003
0000
0001
0000
0010
0100
1000
0000
0001
0000
0000
0000
,
2000
0000
0100
0000
3001
0000
1000
0000
0010
0100
0001
0000
1000
0100
0000
0100
,
0020
0000
0001
0000
0130
0000
0010
0000
0001
1000
0100
0000
1000
0000
0000
0000
,
0020
0000
0100
0000
1030
0000
0010
0000
1000
0001
0100
0000
0001
0010
0000
0010
,
0200
0000
0001
0000
0310
0000
0100
0000
0010
0001
1000
0000
0010
0000
0000
0000
,
0200
0000
1000
0000
0310
0000
0100
0000
0010
1000
0001
0000
0010
0001
0000
0001
,
2000
0000
0010
0000
3100
0000
1000
0000
0001
0100
0010
0000
1000
0000
0000
0000
,
0002
0010
0023
0100
0230
1000
2300
0001
,
3001
0000
0100
0000
0010
0000
1000
0000
0001
0010
0100
0000
1000
0100
0010
0000
,
0001
0000
0100
0000
0001
0000
1000
0000
0100
1000
0001
0000
0100
0001
1000
0000
,
0010
0000
0100
0000
1000
0000
0100
0000
0001
0100
0010
0000
1000
0010
0100
0000
,
0001
0000
0010
0000
0100
0000
1000
0000
0001
1000
0010
0000
1000
0001
0010
0000
,
0100
0000
1000
0000
0001
0000
0100
0000
0001
0010
0001
0010
0100
1000
0100
0000
,
0010
0000
0001
0000
0100
0000
0001
0000
1000
0010
1000
0010
0100
0001
0100
0000
,
0010
0000
1000
0000
0001
0000
0010
0000
0100
1000
0100
0010
0100
0010
0001
0000
,
1000
0000
0100
0000
1000
0000
0001
0000
0100
0001
0100
0010
0100
0010
1000
0000
,
0001
0011
0010
0110
0000
0000
1000
1010
,
0010
0110
0000
0000
0001
0101
0100
0110
,
0000
0000
1000
1100
0100
0110
0010
0011
,
0001
1000
0010
0000
1000
0001
0010
0000
0001
0100
0010
0000
1000
0100
0010
0000
,
1001
0000
0000
0000
;
