#VERSION:0.83;
#TITLE:solips;
#SUBTITLE:;
#ARTIST:rintaro soma;
#TITLETRANSLIT:;
#SUBTITLETRANSLIT:;
#ARTISTTRANSLIT:;
#GENRE:;
#CREDIT:;
#MUSIC:solips.ogg;
#BANNER:solips.png;
#BACKGROUND:solips-bg.png;
#CDTITLE:cdtitle.png;
#SAMPLESTART:78.254;
#SAMPLELENGTH:10.402;
#SELECTABLE:YES;
#OFFSET:-0.013;
#BPMS:0.000=199.000;
#STOPS:;
#SPEEDS:0.000=1.000=0.000=0;
#SCROLLS:0.000=1.000;
#TICKCOUNTS:0.000=4;
#TIMESIGNATURES:0.000=4=4;
#LABELS:64.000=Sudden Appearances,
390.000=Warps with impossible notes,
399.500=Notes coming out from receptor
;
#COMBOS:0.000=1;
#ORIGIN:;
#TAGS:;
#PREVIEWVID:;
#JACKET:solips-jacket.png;
#CDIMAGE:;
#DISCIMAGE:;
#BGCHANGES:0.000=solips.mp4=1.000=0=0=0=StretchNoLoop====,
99999.000=-nosongbg-=1.000=0=0=0=StretchNoLoop====
;
#FGCHANGES:;

//--------------- dance-single - MEGAtive ----------------
#NOTEDATA:;
#STEPSTYPE:dance-single;
#DESCRIPTION:MEGAtive;
#DIFFICULTY:Beginner;
#METER:5;
#RADARVALUES:0.173176,0.319092,0.132955,0.44579,0,155,138,17,57,0,0,0,0,0,0.173176,0.319092,0.132955,0.44579,0,155,138,17,57,0,0,0,0,0;
#CHARTNAME:;
#CHARTHASH:2147483647:;
#BANNER:;
#CHARTSTYLE:;
#METERF:0.000000;
#CREDIT:;
#NOTES:
0000
0000
0000
0000
,
0000
0000
0000
0000
,
0000
0000
0000
0000
,
0000
0000
0000
0000
,
2001
0000
0000
0000
,
0000
0000
0000
0000
,
0000
0000
0000
0000
,
0000
0000
0000
0000
,
3002
0000
0000
0000
,
0000
0000
0000
0000
,
0000
0000
0000
0000
,
0000
0000
0000
0000
,
0013
0000
0000
0000
,
0000
0000
0000
0000
,
0000
0000
0000
0000
,
0000
0000
0000
0000
,
0000
0000
2000
0000
,
3000
0000
0001
0000
,
0001
0000
0200
0000
,
0300
0000
0010
0000
,
0010
0000
2000
0000
,
3000
0000
0100
0000
,
0100
0000
0020
0000
,
0030
0000
0001
0000
,
0001
0000
2002
0000
,
3003
0000
0000
0000
0000
1000
0000
0000
,
1000
0000
0000
0010
0000
0000
0010
0000
,
0000
0100
0000
0000
0100
0000
0000
0001
,
0000
0000
0001
0000
0000
1000
0000
0000
,
1000
0000
0000
0100
0000
0000
0100
0000
,
0000
0020
0000
0000
0000
0000
0000
0000
,
0000
0030
1000
0001
,
0000
1000
0000
0100
,
0010
0000
0010
0000
0001
0000
0000
1000
,
0000
1000
0000
0000
0000
0000
0010
0000
,
0000
0100
0001
1000
,
0000
0001
0000
0100
,
0010
0010
1000
0001
,
0000
0001
0000
0010
,
0000
0100
2000
0000
,
0000
0000
0000
0000
,
0000
0000
0000
0000
,
0000
0000
0002
0000
,
0000
3003
1001
1000
,
0000
0001
0000
0010
,
0100
0100
1000
0001
,
0000
0100
0000
0010
,
0000
0000
1000
0000
2002
0000
0000
3003
,
0000
0000
2002
0000
0000
3003
0000
0000
,
2002
3003
0220
0000
,
0330
0000
0220
0000
0000
0330
0000
0000
,
0220
0000
0330
0000
2002
0000
0000
3003
,
0000
0000
2002
0000
0000
3003
0000
0000
,
2002
3003
2001
0000
,
0000
0000
0000
0000
,
3020
0000
1030
0000
,
0000
0000
0000
0000
,
0000
0000
0000
0000
,
0000
0000
0000
0000
,
0000
0000
0000
0000
,
0000
0000
0000
0000
,
0000
0000
0002
0003
,
0020
0030
0200
0300
,
2000
3000
0002
0000
,
0000
0000
1003
0000
,
0000
0000
0001
0000
,
0010
0000
0001
0001
,
0001
0000
1000
0000
,
0010
0000
1000
1000
,
1000
0000
0002
0000
,
0000
0000
0103
0000
,
0010
0010
0010
0000
,
1000
0000
0001
0001
,
0002
0003
1000
0000
,
0100
0000
0010
0010
,
0010
0000
0001
0000
,
0100
0000
0020
0000
,
0230
0000
0301
0000
,
0001
0000
1000
1000
,
1000
0000
0000
0000
2002
0000
0000
3003
,
0000
0000
0220
0000
0000
0330
0000
0000
,
2002
3003
0002
0000
,
0000
0000
0000
0000
,
0000
0000
0203
0000
,
0000
0000
0000
0000
,
0000
0000
0320
0000
,
0000
0000
0000
0000
,
0000
0000
2030
0000
,
0000
0000
0000
0000
,
0000
0000
3001
0000
,
0001
0000
1000
1000
,
1000
0000
0100
0000
,
0100
0000
0010
0010
,
0010
0000
0002
0000
,
0000
0203
0000
0000
,
0320
0000
2030
0000
,
0000
0000
0000
0002
,
0000
0000
3003
0000
,
2002
0000
0000
0000
,
0000
0000
0000
0000
,
0000
0000
0000
0000
,
0000
0000
0000
0000
,
3003
0000
0000
0000
;

//--------------- dance-single - MEGAtive ----------------
#NOTEDATA:;
#STEPSTYPE:dance-single;
#DESCRIPTION:MEGAtive;
#DIFFICULTY:Easy;
#METER:9;
#RADARVALUES:0.294959,0.518524,0.250268,0.656953,0,264,232,32,84,0,0,0,0,0,0.294959,0.518524,0.250268,0.656953,0,264,232,32,84,0,0,0,0,0;
#CHARTNAME:;
#CHARTHASH:2147483647:;
#BANNER:;
#CHARTSTYLE:;
#METERF:0.000000;
#CREDIT:;
#NOTES:
0000
0000
0000
0000
,
0000
0000
0000
0000
,
0000
0000
0000
0000
,
0000
0000
0000
0000
,
1002
0000
0000
0000
,
0010
0000
0000
0000
,
2003
0000
0000
0000
,
0100
0000
0000
0000
,
3002
0000
0000
0000
,
0010
0000
0000
0000
,
2003
0000
0000
0000
,
0010
0000
0000
0000
,
0002
0000
0000
0000
,
0000
0000
0000
0000
,
0000
0000
0000
0000
,
0000
0000
0000
3003
,
0000
0000
2000
0000
,
3010
0000
0010
0000
,
1000
0000
0002
0000
,
0013
0000
0010
0000
,
0001
0000
2000
0000
,
3100
0000
0100
0000
,
1000
0000
0002
0000
,
0103
0000
0100
0000
,
2002
0000
3003
0000
,
0220
0000
0330
0000
0000
1001
0000
0000
,
0001
0000
0000
0100
0000
0000
1000
0000
,
0000
0100
0000
0000
0010
0000
0000
1000
,
0000
0000
0001
0000
0000
0010
0000
0000
,
1000
0000
0000
0010
0000
0000
0100
0000
,
0000
1000
0000
0000
0002
0000
0000
0000
,
0000
0003
1000
0010
,
0000
0100
0010
0000
0000
1000
0010
0000
,
0100
0000
0100
0000
0001
0000
0010
0100
,
0000
0100
0010
0000
0000
0001
1000
0000
,
0000
0001
0100
0000
0010
0000
1000
0000
,
0000
0100
1000
0000
0000
0001
1000
0000
,
0010
0010
0100
0001
,
0000
0010
0100
0000
0000
0010
0001
0000
,
0000
1000
0100
0000
0020
0000
0000
0000
,
0000
0000
0000
0000
,
0000
0000
0002
0000
,
0000
0033
2002
0000
,
0000
3003
0001
0010
,
0000
0100
0010
0000
0000
0100
1000
0000
,
0001
0001
1000
0010
,
0000
0100
0010
0000
0000
1000
0010
0000
,
0000
1000
0001
0000
0022
0000
0000
0033
,
0000
0000
2002
0000
0000
3003
0000
0000
,
2020
0000
3030
0000
2002
0000
0000
3003
,
0000
0000
0022
0000
0000
0033
0000
0000
,
0220
0000
0330
0000
2200
0000
0000
3300
,
0000
0000
2002
0000
0000
3003
0000
0000
,
0202
0303
0001
1000
,
0001
0010
0001
1000
,
0010
0100
0002
0000
,
0000
0000
0000
0000
,
0000
0000
2003
0000
,
0000
0000
0000
0000
,
0000
0000
3200
0000
,
0000
0000
0000
0000
,
0000
0000
0310
1001
,
0100
1001
0010
1001
,
0100
1001
0002
0000
,
0000
0000
1003
0000
,
0000
0000
1000
0100
,
0010
0001
0100
0010
,
1000
0000
0001
1000
0001
0000
0010
0000
,
0100
0010
0001
1000
,
0001
0000
0100
0000
0020
0000
0030
0200
,
0000
0300
0001
1000
0001
0000
1000
0000
,
0100
0010
0100
0000
1000
0000
0001
0000
,
0100
0010
1000
0001
,
0020
0030
1001
1000
,
0010
0100
0001
1000
,
0001
0000
0010
0100
0010
0000
0001
0000
,
1000
0001
0200
0000
,
0320
0000
1030
1000
,
0001
0001
0010
0010
,
0100
1000
0100
0000
0020
0000
0000
0032
,
0000
0000
2003
0000
0000
3020
0000
0000
,
0200
0000
0330
0000
2002
0000
0000
3003
,
0000
0000
0022
0000
0000
0033
0000
0000
,
2200
0000
3300
0000
2002
0000
0000
3003
,
0000
0000
0202
0000
0000
0303
0000
0000
,
2020
0000
3030
0000
2002
0000
0000
3003
,
0000
0000
0220
0000
0000
0330
0000
0000
,
2002
0000
3003
0000
2200
0000
0000
3300
,
0000
0000
0220
0000
0000
0330
0000
0000
,
0022
0033
0001
0001
,
0100
0100
0010
0010
,
1000
0000
1000
0001
0010
0000
0010
0000
,
0100
0100
0010
0010
,
0001
0001
1000
1000
,
1000
0001
0100
0000
0100
0000
0100
0001
,
0010
0010
0020
0230
,
2300
3002
0203
0320
,
0230
0302
0003
0000
,
2002
0000
0000
0000
,
0000
0000
0000
0000
,
0000
0000
0000
0000
,
0000
0000
0000
0000
,
3003
0000
0000
0000
;

//--------------- dance-single - MEGAtive ----------------
#NOTEDATA:;
#STEPSTYPE:dance-single;
#DESCRIPTION:MEGAtive;
#DIFFICULTY:Medium;
#METER:12;
#RADARVALUES:0.461431,0.598297,0.125134,0.633491,0.113403,413,397,16,81,0,0,0,0,0,0.461431,0.598297,0.125134,0.633491,0.113403,413,397,16,81,0,0,0,0,0;
#OFFSET:-0.013;
#BPMS:0.000=199.000;
#SPEEDS:0.000=1.000=0.000=0;
#SCROLLS:0.000=1.000;
#TICKCOUNTS:0.000=4;
#TIMESIGNATURES:0.000=4=4;
#LABELS:0.000=I am...,
64.000=Sudden Appearances,
390.000=Warps with impossible notes,
399.500=Notes coming out from receptor
;
#COMBOS:0.000=1;
#CHARTNAME:;
#CHARTHASH:934929995:;
#BANNER:;
#CHARTSTYLE:;
#METERF:0.000000;
#CREDIT:;
#NOTES:
0000
0000
0000
0000
,
0000
0000
0000
0000
,
0000
0000
0000
0000
,
0000
0000
0000
0000
,
2001
0000
0000
0000
,
0020
0000
3000
0230
,
0302
0000
0000
0000
,
0020
0000
0003
0230
,
2300
0000
0000
0000
,
0002
0000
3000
0203
,
0320
0000
0000
0000
,
2030
0000
0000
0000
,
0002
0000
0000
0000
,
0000
0000
0000
0000
,
0000
0000
0000
0000
,
0000
0000
0000
3003
,
0000
0000
1002
0100
,
1003
0000
0000
0000
0000
0000
0100
0000
0000
0000
0100
0000
1000
0000
0000
0000
0000
0000
0001
0000
0000
0010
0000
0000
,
0100
2001
3020
0100
,
1030
0000
0001
0000
0000
0001
0000
0000
0010
0000
0100
0000
0010
0000
0000
0000
,
0100
1000
0000
0001
0200
0000
0010
0000
,
0301
0000
0000
0000
0000
0000
1000
0000
0000
0000
1000
0000
0010
0000
0000
0100
0000
0000
0000
0000
0000
0100
0000
0000
,
0001
1000
0000
0001
0020
0000
0100
0000
,
0031
0000
2000
0000
3100
0010
0100
0000
,
1000
0001
1000
0001
0200
0000
0000
0000
,
0310
1000
0001
0000
0000
1100
0000
0000
,
1001
0000
0000
0101
0000
0000
1001
0000
,
0000
1100
0000
0000
0001
0010
0100
1000
,
0001
0000
0101
0000
0000
0100
0010
1000
,
0001
0000
0000
0011
0000
0000
0110
0000
,
0000
1000
0001
0100
0010
1000
0002
0000
,
0000
0000
0003
0000
1000
0000
0010
0100
,
0000
1000
0100
0010
0000
0100
0001
0000
,
1000
0001
1000
0000
1001
0000
0001
0010
,
0000
1000
0000
0010
0100
0000
1000
0000
,
0001
0000
0100
0010
1000
0000
0100
0010
,
0000
1000
0010
0100
0000
1000
0100
0000
,
0010
0001
0100
0000
0110
0000
0010
0100
,
0000
0001
2000
0000
0000
3100
0010
0000
,
0002
0000
0203
0000
0320
0000
0000
2030
,
0000
3200
0000
0000
,
0320
0000
0000
0000
0032
0000
0000
0203
,
0000
0000
0000
0310
0000
0000
1000
0000
1000
0000
0001
0000
,
0001
0000
0000
0000
0010
0000
0000
0000
0010
0000
0000
0000
0100
0000
0000
0000
0000
0000
1000
0000
0000
0010
0000
0000
,
0000
0001
0010
0100
0000
0010
1000
0000
,
0001
1000
0001
0000
0010
0000
0100
0010
,
0000
1000
0010
0000
0100
1000
0001
0000
,
1000
0000
0001
0000
0100
0000
0010
0000
1000
0000
0000
1000
0000
0000
2000
0000
,
0000
0000
0000
0000
3010
0000
0000
0010
0000
0000
0020
0000
0000
0000
0000
0000
,
0130
0000
0001
0000
1000
0000
0000
0000
1001
0000
0000
0001
0000
0000
0002
0000
,
0000
0000
0000
0000
0013
0000
0000
0010
0000
0000
0020
0000
0000
0000
0130
0000
,
2000
0000
0000
0000
0000
0000
0000
0000
3020
0000
0000
0000
0000
0000
0000
0000
0230
0000
0000
0000
0000
0000
0000
0000
0301
0000
0000
0000
0000
0000
0000
0000
0000
0001
0000
0000
0000
0000
0000
0000
0000
0000
0002
0000
0000
0000
0000
0000
,
0000
0000
0000
0000
1003
0000
0000
1000
0000
0000
2000
0000
0000
0000
0000
0000
,
3001
0010
0100
1000
0002
0000
0100
0000
,
2003
0010
3002
0010
,
1003
0100
0010
0001
2000
0000
0000
0000
,
0000
0000
0000
0000
,
0000
0000
3002
0000
,
0000
0000
0000
0000
,
0000
0000
0203
0000
,
0000
0000
0020
0000
,
0000
0000
0330
0000
1000
1000
2000
0000
,
3100
0100
0200
0000
0310
0010
0020
0000
,
0031
0001
0002
0000
2000
0000
0000
0000
,
0000
0000
0000
0000
3003
0000
0000
0001
,
2000
0000
3020
0000
1030
0001
0010
0000
,
0100
0010
0001
0000
1000
0001
0200
0000
,
1000
0000
0310
0100
0001
1000
0001
0000
,
0010
0100
1000
0000
0001
0100
0010
0000
,
1000
0010
1000
0100
0020
0000
1030
0020
,
0000
0031
0010
0100
1000
0000
0001
0000
,
1000
0010
1000
0010
0100
0000
1000
0100
,
0001
0000
2000
0100
0000
0001
0000
3010
,
0200
0000
1000
0000
0301
0100
0010
0000
,
1000
0001
0010
0000
0100
1000
0020
0000
,
0001
0000
0130
0010
1000
0001
0010
0000
,
0100
0000
0000
0010
0000
0000
0001
0000
0000
1000
0000
0000
1000
0000
0000
0000
0010
0000
0000
0000
0100
0000
0000
0000
,
0001
0000
0000
0000
0010
0000
0000
0000
0100
0000
0000
0000
1000
0000
0000
0001
0000
0000
0100
0000
0000
0000
0000
0000
,
0010
1000
0001
0000
0010
0100
1000
0000
,
0001
0100
0010
1000
0001
0000
1000
2000
,
0000
3100
0200
0000
0310
0020
0000
0031
,
0001
0000
1000
0000
0010
0000
0000
0000
1010
0000
0000
1000
0000
0000
2000
0000
,
0000
0000
0000
0000
3001
0000
0000
0001
0000
0000
0002
0000
0000
0000
0000
0000
,
0103
0000
0000
0100
0000
0000
0100
0000
0010
0000
0000
0010
0000
0000
0020
0000
,
0000
0000
0000
0000
1030
0000
0000
1000
0000
0000
2000
0000
0000
0000
0000
0000
,
3001
0000
0010
0000
0200
0000
0000
0000
1300
0000
0000
1000
0000
0000
2000
0000
,
0000
0000
0000
0000
3001
0000
0000
0001
0000
0000
0002
0000
0000
0000
0000
0000
,
0013
0000
0000
0010
0000
0000
0010
0000
0100
0000
0000
0100
0000
0000
0200
0000
,
0000
0000
0000
0000
1300
0000
0000
1000
0000
0000
2000
0000
0000
0000
0000
0000
,
3001
0100
0020
0000
1030
0001
0100
0000
,
0010
1000
0001
0000
0010
0100
1000
0000
,
0100
0010
0001
0000
1000
0010
0100
0000
,
0001
1000
0010
0000
0100
0001
1000
0000
,
0001
0010
0100
0000
1000
0100
1000
0100
,
0010
0000
0001
0100
0001
0100
0010
0000
,
1000
0100
0010
0001
2000
0000
3020
0000
,
0032
2003
3200
0320
,
2030
0002
3003
0000
,
2002
0000
0000
0000
,
0000
0000
0000
0000
,
0000
0000
0000
0000
,
0000
0000
0000
0000
,
3003
0000
0000
0000
;

//--------------- dance-single - MEGAtive ----------------
#NOTEDATA:;
#STEPSTYPE:dance-single;
#DESCRIPTION:MEGAtive;
#DIFFICULTY:Hard;
#METER:15;
#RADARVALUES:0.704996,1.913669,0.26591,0.62567,1.88874,631,597,34,80,0,0,0,0,928,0.704996,1.913669,0.26591,0.62567,1.88874,631,597,34,80,0,0,0,0,928;
#OFFSET:-0.013;
#BPMS:0.000=199.000
,71.000=406.468
,72.000=199.000
,413.000=398.000
,413.167=199.000
,421.167=398.000
,421.333=199.000
,429.333=398.000
,429.500=199.000
,437.500=398.000
,437.667=199.000
,445.667=398.000
,445.833=199.000
,453.833=398.000
,454.000=199.000
,462.000=398.000
,462.167=199.000
,470.167=398.000
,470.333=199.000
,478.333=398.000
,478.500=199.000
;
#STOPS:71.000=0.148
,80.000=0.304
,413.000=0.025
,421.167=0.025
,429.333=0.025
,437.500=0.025
,445.667=0.025
,453.833=0.025
,462.000=0.025
,470.167=0.025
,478.333=0.025
;
#WARPS:63.000=8.000,
72.000=8.000,
405.000=8.000,
413.167=8.000,
421.333=8.000,
429.500=8.000,
437.667=8.000,
445.833=8.000,
454.000=8.000,
462.167=8.000,
470.333=8.000,
478.500=8.000,
494.000=8.000,
502.250=8.000,
510.500=8.000,
518.750=8.000,
527.000=8.000,
535.250=8.000,
543.500=8.000,
551.750=8.000,
560.000=8.000,
568.250=8.000,
576.500=8.000,
584.750=8.000,
593.000=8.000,
601.250=8.000,
609.500=8.000,
617.750=8.000,
626.000=8.000,
634.250=8.000,
642.500=8.000,
650.750=8.000,
659.000=8.000,
667.250=8.000,
675.500=8.000,
683.750=8.000,
692.000=8.000,
700.250=8.000,
708.500=8.000,
716.750=8.000,
725.000=8.000,
733.250=8.000,
741.500=8.000,
749.750=8.000,
758.000=8.000,
766.250=8.000,
774.500=8.000
;
#SPEEDS:0.000=1.000=0.000=0;
#SCROLLS:0.000=1.000,
235.000=0.950,
235.500=0.900,
236.000=0.850,
236.500=0.800,
237.000=0.750,
257.000=0.800,
258.000=0.850,
259.000=0.900,
260.000=0.950,
261.000=1.000
;
#TICKCOUNTS:0.000=4;
#TIMESIGNATURES:0.000=4=4;
#LABELS:0.000=I see you,
64.000=Sudden Appearances,
405.000=The reality is torn apart
;
#COMBOS:0.000=1;
#CHARTNAME:;
#CHARTHASH:1062233575:;
#BANNER:;
#CHARTSTYLE:;
#METERF:0.000000;
#CREDIT:;
#NOTES:
0000
0000
0000
0000
,
0000
0000
0000
0000
,
0000
0000
0000
0000
,
0000
0000
0000
0000
,
1002
0000
0000
0100
0000
0103
0000
0010
,
2000
0000
0000
0000
0000
3010
1000
0001
,
0020
0000
0000
0100
0000
0130
0000
1000
,
0200
0000
0000
0000
0000
0310
0001
1000
,
0020
0000
0000
0100
0000
0130
0000
0001
,
2000
0000
0000
0000
0000
3010
0100
0001
,
2000
0000
0000
0100
0000
3100
0000
0010
,
0002
0000
0000
0000
0000
1003
0100
0010
,
0002
0000
0000
0000
,
0000
0000
0000
0000
,
0000
0000
0000
0000
,
0000
0000
0000
0003
,
0000
0000
0000
0000
1000
0100
0010
0001
1000
0100
0010
0001
1000
0100
0010
0001
,
1000
0100
0010
0001
0000
0000
0000
0000
0000
0000
0000
0000
0000
0000
0000
0000
,
0000
0000
M000
00M0
0M00
000M
00M0
0000
,
0M00
M000
000M
0M00
0000
0000
0000
0000
0000
0000
0000
0000
,
0000
0000
1000
0010
0100
0001
0020
0000
,
0130
0000
1000
0000
0001
0000
0200
0000
0000
0000
0000
0000
1300
0000
0000
0100
0000
0000
0001
0000
0000
0000
0000
0000
,
2010
0000
0000
0000
3001
0000
0010
0000
0100
0000
1000
0000
0010
0000
0100
0001
,
0000
0001
1000
0000
0100
0000
0001
0000
0100
0000
0010
0000
0100
0000
0200
0000
,
0000
1000
1300
0100
0010
0001
0200
0000
,
0310
0000
0000
0000
1000
0000
0000
0000
0001
0000
0000
0000
0020
0000
0000
0000
0000
0000
0000
0000
0000
0100
0000
0000
0000
0000
0000
0000
0000
0000
0031
0000
0000
0000
0000
0000
1000
0000
0000
0000
0000
0000
2000
0000
0000
0000
0000
0000
,
0000
0000
0001
0000
3001
0000
0100
0010
0000
0000
1000
0000
0200
0000
0000
0000
,
0010
0000
1300
0001
0100
0010
1000
1000
,
0001
0000
0001
0000
0020
0000
0000
0000
0000
0000
0000
0000
0130
1000
0100
1000
,
0002
0000
0000
0203
0000
1300
0200
0000
,
0301
0200
0000
1300
0200
0010
0000
0301
,
1000
0001
1000
0000
0200
0000
0010
0000
0000
0000
1300
0000
0200
0000
0000
0000
,
0301
0000
0200
0000
0000
0000
1300
0000
0200
0000
0310
0001
0020
0000
0000
0000
,
1030
0000
0020
0000
0000
0000
0031
0000
0020
0000
0130
0000
1000
0100
1000
0000
,
0001
0001
0100
0100
0020
0000
0000
0000
,
0030
0000
1000
0001
0010
0200
0000
0301
,
0100
1000
0010
0100
0100
0001
1000
0100
,
0001
0000
1100
0000
0001
0020
0000
1000
,
0000
0130
0010
0001
1000
0000
0101
0000
,
1000
0001
0010
0100
1000
0020
0000
0031
,
0010
0000
1000
0000
0100
0000
0010
0000
0010
0000
0100
1000
0100
0000
0010
0000
,
0001
0000
0100
0010
0100
1000
0100
0010
,
1000
0001
0010
0100
1000
0001
1000
0010
,
0100
0001
0020
0000
0000
0230
0000
0000
,
2300
0000
0000
0000
0000
0000
3001
0010
,
0100
1000
0020
0000
0000
0230
0000
0000
,
0302
0000
0000
1003
0000
1010
0000
0010
0000
0110
0000
0100
,
0000
0000
0101
0000
0000
0000
0001
0000
0000
1000
0000
0000
0100
0000
0000
0010
0000
0000
0001
0000
0000
0100
0000
0000
,
0010
0000
1000
0000
0001
0000
0010
0000
0100
0000
1000
0001
1000
0000
0010
0000
,
0020
0000
0130
0001
1000
0100
0010
0100
,
1000
0100
0001
1000
0010
0100
1000
0001
,
0100
0000
0010
0000
1010
0000
0000
0110
0000
0000
2020
0000
0000
0000
3030
0000
,
1001
0000
0000
0110
0000
0000
2002
0000
0000
0000
3003
0000
0001
0000
0001
0000
,
0010
0100
1000
0000
1100
0000
0000
1001
0000
0000
2200
0000
0000
0000
3300
0000
,
1001
0000
0000
0000
0000
0000
0000
0000
0000
0110
0000
0000
0000
0000
0000
0000
0000
0000
2002
0000
0000
0000
0000
0000
3003
0000
0000
0000
0000
0000
1001
0000
0000
0000
0000
0000
0001
0000
0000
0000
0100
0000
0000
0000
0010
0000
0000
0000
,
1000
0000
0000
0000
0001
0000
0000
0000
0010
0000
0000
0000
0100
0000
0000
0000
0000
0000
0000
0000
0000
1100
0000
0000
0000
0000
0000
0000
0000
0000
0220
0000
0000
0000
0000
0000
0000
0000
0000
0000
0000
0000
0330
0000
0000
0000
0000
0000
,
1001
0000
0000
0101
0000
0000
2002
0000
0000
0000
3003
0000
0001
1000
0001
1000
,
0001
1000
0001
1000
0001
0000
0000
0000
0010
0000
0000
0000
1000
0000
0010
0000
,
0001
0000
0000
0000
1000
0000
0010
0000
0100
0000
0001
0000
0010
0000
0100
1000
,
0100
0010
0002
0000
0000
1000
0000
2003
,
0000
3020
0230
0000
0000
0000
0000
1300
,
0100
0010
2000
0000
0000
0001
0000
3002
,
0000
0023
0230
0000
0000
0000
0000
0301
,
0100
0010
0002
0000
0000
1000
0000
2003
,
3020
0032
0000
2003
,
0000
0000
3100
0010
1002
0000
0103
0010
,
2001
0000
3100
0010
1002
0000
0103
0010
,
2001
0000
3100
0010
0001
0100
1000
0001
,
0010
0000
0100
0000
0001
0000
0000
0000
0000
0000
1000
0100
1000
0000
0001
0000
,
1000
0010
0100
0001
0010
0100
0001
0100
,
0010
0001
1000
0100
0001
0100
1000
0001
,
0100
0100
0010
1000
0100
0010
1000
0010
,
0100
0000
1000
0000
0001
0000
0100
0000
1000
0000
0100
0000
0010
0000
0100
0010
,
0100
0000
0001
1000
0001
0010
0001
0010
0001
0000
1000
0010
1000
0010
1000
0000
,
0001
0010
0100
0001
0100
0010
0100
1000
,
0001
1000
0010
0001
0010
0100
0001
0100
,
0010
0000
0001
0000
0010
0000
1000
0000
0100
0000
0010
0000
0001
0010
0100
1000
,
0001
0000
0010
0001
0100
0010
0001
0010
,
0100
0001
1000
0010
0001
0010
1000
0001
,
0010
0010
0100
1000
0010
0100
1000
0100
,
0010
0000
0000
0000
0000
0000
1000
0000
0000
0100
0000
0000
0010
0000
0000
0000
0000
0000
0000
0000
0011
0000
0000
0000
0000
0000
0000
0000
1000
0000
0000
0000
0000
0000
0000
0000
1010
0000
0000
0000
0000
0000
0000
0000
0100
0000
0000
0000
,
0000
0000
0000
0000
0101
0000
0000
0000
0000
0000
0000
0000
0001
0000
0000
0000
0000
0000
0100
0000
0000
0000
0000
0000
1000
0000
0000
0000
0000
0000
0100
0000
0000
0000
0000
0000
0010
0000
0000
0100
0000
0000
0010
0000
0000
0100
0000
0000
,
0001
1000
0100
0001
0100
0010
0100
0001
,
0100
0000
1000
0000
0020
0030
0100
0000
0001
0000
0020
0030
0100
0000
1000
0000
,
0020
0030
0100
0001
0100
0000
0020
0030
1000
0000
0100
0000
0010
0001
0010
0001
,
1000
0000
0000
0000
1200
0000
0000
0010
0000
0000
0010
0000
0000
0000
0000
0000
,
0001
0000
0000
0010
0000
0000
0010
0000
0000
0000
0000
0000
1300
0000
0000
0010
,
0000
0000
1000
0001
0200
0000
0000
0010
0000
0000
0010
0000
0000
0000
0000
0000
,
1000
0000
0000
0010
0000
0000
0010
0000
0000
0000
0000
0000
0301
0000
0100
0000
,
0010
0100
0010
0100
0002
0000
0000
0010
0000
0000
0010
0000
0000
0000
0000
0000
,
1000
0000
0000
0100
0000
0000
0100
0000
0000
0000
0000
0000
1003
0000
0000
0100
,
0000
0000
0010
0001
2000
0000
0000
0100
0000
0000
0100
0000
0000
0000
0000
0000
,
0001
0000
0000
0010
0000
0000
0010
0000
0000
0000
3001
1000
0001
0000
0010
0000
,
0100
1000
0001
0100
1000
0100
0010
0100
,
1000
0100
0001
0100
0010
1000
0001
0010
,
0001
1000
0100
0010
1000
0010
0100
0010
,
0001
0000
1000
0000
0010
0000
0100
0000
0001
0000
1000
0001
1000
0000
0100
0010
,
0100
0000
1000
0001
1000
0000
0010
0100
0010
0100
0010
0000
1000
0000
0001
0000
,
0010
0000
0100
1000
0100
1000
0100
0000
0010
0000
0001
0000
1000
0000
0001
0100
,
0001
0100
0001
0000
1000
0010
1000
0000
0001
0010
0001
0000
1000
0100
1000
0000
,
0001
0100
0001
0000
1000
0000
0100
0000
0001
0000
1000
0000
0010
0000
0100
0000
,
0010
0000
0000
0100
0000
0000
0000
0000
0000
1001
1001
1001
1001
1001
1001
1001
1001
1001
1001
1001
1001
1001
1001
1001
,
1001
1001
1001
1001
1001
1001
1001
1001
1001
1001
0000
0000
0000
0000
0000
0000
0000
0000
0000
0000
0000
0000
0000
0000
,
0000
0000
0000
0000
0000
0000
0000
0000
0000
0000
2002
3003
1001
1001
1001
1001
1001
1001
1001
1001
1001
1001
1001
1001
,
1001
1001
1001
1001
1001
1001
1001
1001
1001
1001
1001
0000
0000
0000
0000
0000
0000
0000
0000
0000
0000
0000
0000
0000
,
0000
0000
0000
0000
0000
0000
0000
0000
0000
0000
0000
2002
0000
3003
1001
1001
1001
1001
1001
1001
1001
1001
1001
1001
,
1001
1001
1001
1001
1001
1001
1001
1001
1001
1001
1001
1001
0000
0000
0000
0000
0000
0000
0000
0000
0000
0000
0000
0000
,
0000
0000
0000
0000
0000
0000
0000
0000
0000
0000
0000
0000
2002
0000
0000
3003
1001
1001
1001
1001
1001
1001
1001
1001
,
1001
1001
1001
1001
1001
1001
1001
1001
1001
1001
1001
1001
1001
0000
0000
0000
0000
0000
0000
0000
0000
0000
0000
0000
,
0000
0000
0000
0000
0000
0000
0000
0000
0000
0000
0000
0000
0000
2002
0000
0000
3003
1001
1001
1001
1001
1001
1001
1001
,
1001
1001
1001
1001
1001
1001
1001
1001
1001
1001
1001
1001
1001
1001
0000
0000
0000
0000
0000
0000
0000
0000
0000
0000
,
0000
0000
0000
0000
0000
0000
0000
0000
0000
0000
0000
0000
0000
0000
2002
0000
0000
0000
0000
3003
1001
1001
1001
1001
,
1001
1001
1001
1001
1001
1001
1001
1001
1001
1001
1001
1001
1001
1001
1001
0000
0000
0000
0000
0000
0000
0000
0000
0000
,
0000
0000
0000
0000
0000
0000
0000
0000
0000
0000
0000
0000
0000
0000
0000
2002
0000
0000
0000
0000
0000
3003
1001
1001
,
1001
1001
1001
1001
1001
1001
1001
1001
1001
1001
1001
1001
1001
1001
1001
1001
0000
0000
0000
0000
0000
0000
0000
0000
,
0000
0000
0000
0000
0000
0000
0000
0000
0000
0000
0000
0000
0000
0000
0000
0000
2002
0000
0000
0000
0000
0000
0000
3003
,
1001
1001
1001
1001
1001
1001
1001
1001
1001
1001
1001
1001
1001
1001
1001
1001
1001
0000
0000
0000
0000
0000
0000
0000
,
0000
0000
0000
0000
0000
0000
0000
0000
0000
0000
0000
0000
0000
0000
0000
0000
0000
2002
0000
0000
0000
0000
0000
0000
,
0000
3003
1001
1001
1001
1001
1001
1001
1001
1001
1001
1001
1001
1001
1001
1001
1001
1001
0000
0000
0000
0000
0000
0000
,
0000
0000
0000
2002
,
0000
0000
0000
3003
1001
1001
1001
1001
1001
1001
1001
1001
1001
1001
1001
1001
1001
1001
1001
0000
0000
0000
0000
0000
,
0000
0000
0000
2002
,
0000
0000
0000
0000
,
0000
0000
0000
0000
0000
0000
0000
0000
0000
0010
0000
0000
0000
0000
0000
0000
,
0000
0000
0000
0000
,
0000
0000
0000
0000
0000
0000
0000
0000
0000
0000
0010
0010
0000
0000
0000
0000
,
0000
0000
0000
0000
,
0000
0000
0000
0000
0000
0000
0000
0000
0000
0000
0000
0010
0010
0010
0000
0000
,
0000
0000
0000
0000
,
0000
0000
0000
0000
0000
0000
0000
0000
0000
0000
0000
0000
0100
0010
0010
0010
,
0000
0000
0000
0000
,
0000
0000
0000
0000
0000
0000
0000
0000
0000
0000
0000
0000
0000
0100
0100
0010
,
0010
0010
0000
0000
0000
0000
0000
0000
0000
0000
0000
0000
0000
0000
0000
0000
,
0000
0000
0000
0000
0000
0000
0000
0000
0000
0000
0000
0000
0000
0000
0100
0100
,
0100
0010
0010
0010
0000
0000
0000
0000
0000
0000
0000
0000
0000
0000
0000
0000
,
0000
0000
0000
0000
0000
0000
0000
0000
0000
0000
0000
0000
0000
0000
0000
0010
,
0100
0100
0100
0010
0010
0010
0000
0000
0000
0000
0000
0000
0000
0000
0000
0000
,
0000
0000
0000
0000
,
0010
0010
0100
0100
0100
0010
0010
0010
0000
0000
0000
0000
0000
0000
0000
0000
,
0000
0000
0000
0000
,
0000
0010
0010
0010
0100
0100
0100
0010
0010
0010
0000
0000
0000
0000
0000
0000
,
0000
0000
0000
0000
,
0000
0000
0100
0010
0010
0010
0100
0100
0100
0010
0010
0010
0000
0000
0000
0000
,
0000
0000
0000
0000
,
0000
0000
0000
0100
0100
0010
0010
0010
0100
0100
0100
0010
0010
0010
0000
0000
,
0000
0000
0000
0000
,
0000
0000
0000
0000
0100
0100
0100
0010
0010
0010
0100
0100
0100
0010
0010
0010
,
0000
0000
0000
0000
,
0000
0000
0000
0000
0000
0010
0100
0100
0100
0010
0010
0010
0100
0100
0100
0010
,
0010
0010
0000
0000
0000
0000
0000
0000
0000
0000
0000
0000
0000
0000
0000
0000
,
0000
0000
0000
0000
0000
0000
0010
0010
0100
0100
0100
0010
0010
0010
0100
0100
,
0100
0010
0010
0010
0000
0000
0000
0000
0000
0000
0000
0000
0000
0000
0000
0000
,
0000
0000
0000
0000
0000
0000
0000
0010
0010
0010
0100
0100
0100
0010
0010
0010
,
0100
0100
0100
0010
0010
0010
0000
0000
0000
0000
0000
0000
0000
0000
0000
0000
,
0000
0000
0000
0000
0000
0000
0000
0000
0100
0010
0010
0010
0100
0100
0100
0010
,
0010
0010
0100
0100
0100
0010
0010
0010
0000
0000
0000
0000
0000
0000
0000
0000
,
0000
0000
0000
0000
0000
0000
0000
0000
0000
0100
0100
0010
0010
0010
0100
0100
,
0100
0010
0010
0010
0100
0100
0100
0010
0010
0010
0000
0000
0000
0000
0000
0000
,
0000
0000
0000
0000
0000
0000
0000
0000
0000
0000
0100
0100
0100
0010
0010
0010
,
0100
0100
0100
0010
0010
0010
0100
0100
0100
0010
0010
0010
0000
0000
0000
0000
,
0000
0000
0000
0000
0000
0000
0000
0000
0000
0000
0000
0010
0100
0100
0100
0010
,
0010
0010
0100
0100
0100
0010
0010
0010
0000
0000
0000
0000
0000
0000
0000
0000
,
0000
0000
0000
0000
0000
0000
0000
0000
0000
0000
0000
0000
0010
0010
0100
0100
,
0100
0010
0010
0010
0100
0100
0100
0010
0010
0010
0000
0000
0000
0000
0000
0000
,
0000
0000
0000
0000
0000
0000
0000
0000
0000
0000
0000
0000
0000
0010
0010
0010
,
0100
0100
0100
0010
0010
0010
0100
0100
0100
0010
0010
0010
0000
0000
0000
0000
,
0000
0000
0000
0000
0000
0000
0000
0000
0000
0000
0000
0000
0000
0000
0100
0010
,
0010
0010
0100
0100
0100
0010
0010
0010
0100
0100
0100
0010
0010
0010
0000
0000
,
0000
0000
0000
0000
0000
0000
0000
0000
0000
0000
0000
0000
0000
0000
0000
0100
,
0100
0010
0010
0010
0100
0100
0100
0010
0010
0010
0100
0100
0100
0010
0010
0010
,
0000
0000
0000
0000
,
0100
0100
0100
0010
0010
0010
0100
0100
0100
0010
0010
0010
0100
0100
0100
0010
,
0010
0010
0000
0000
0000
0000
0000
0000
0000
0000
0000
0000
0000
0000
0000
0000
,
0000
0010
0100
0100
0100
0010
0010
0010
0100
0100
0100
0010
0010
0110
0100
0010
,
0010
0010
0000
0000
0000
0000
0000
0000
0000
0000
0000
0000
0000
0000
0000
0000
,
0000
0000
0010
0010
0100
0100
0100
0010
0010
0010
0100
0100
0100
0010
0010
0110
,
0100
0010
0010
0010
0000
0000
0000
0000
0000
0000
0000
0000
0000
0000
0000
0000
,
0000
0000
0000
0010
0010
0010
0100
0100
0100
0010
0010
0010
0100
0100
0100
0010
,
0010
0010
0000
0000
0000
0000
0000
0000
0000
0000
0000
0000
0000
0000
0000
0000
,
0000
0000
0000
0000
0100
0010
0010
0010
0100
0100
0100
0010
0010
0010
0100
0100
,
0100
0010
0010
0010
0000
0000
0000
0000
0000
0000
0000
0000
0000
0000
0000
0000
,
0000
0000
0000
0000
0000
0100
0100
0010
0010
0010
0100
0100
0100
0010
0010
0010
,
0100
0100
0100
0010
0010
0010
0000
0000
0000
0000
0000
0000
0000
0000
0000
0000
,
0000
0000
0000
0000
0000
0000
0100
0100
0100
0010
0010
0010
0100
0100
0100
0010
,
0010
0010
0100
0100
0100
0010
0010
0010
0000
0000
0000
0000
0000
0000
0000
0000
,
0000
0000
0000
0000
0000
0000
0000
0010
0100
0100
0100
0010
0010
0010
0100
0100
,
0100
0010
0010
0010
0100
0100
0100
0010
0010
0010
0100
0100
0100
0010
0000
0000
,
0000
0000
0000
0000
0000
0000
0000
0000
0010
0010
0100
0100
0100
0010
0010
0010
,
0100
0100
0100
0010
0010
0010
0100
0100
0100
0010
0010
0010
0100
0100
0100
0010
,
0000
0000
0000
0000
0000
0000
0000
0000
0000
0010
0010
0010
0100
0100
0100
0010
,
0010
0010
0100
0100
0100
0010
0010
0010
0100
0100
0100
0010
0010
0010
0100
0100
,
0100
0010
0000
0000
0000
0000
0000
0000
0000
0000
0100
0010
0010
0010
0100
0100
,
0100
0010
0010
0010
0100
0100
0100
0010
0010
0010
0000
0000
0000
0000
0000
0000
,
0000
0000
0000
0000
0000
0000
0000
0000
0000
0000
0000
0100
0100
0010
0010
0010
,
0100
0100
0100
0010
0010
0010
0100
0100
0100
0010
0010
0010
0000
0000
0000
0000
,
0000
0000
0000
3003
;

//--------------- dance-single - MEGAtive ----------------
#NOTEDATA:;
#STEPSTYPE:dance-single;
#DESCRIPTION:MEGAtive;
#DIFFICULTY:Challenge;
#METER:18;
#RADARVALUES:0.871468,2.442653,0.242447,0.594386,2.115546,780,749,31,76,0,0,0,0,815,0.871468,2.442653,0.242447,0.594386,2.115546,780,749,31,76,0,0,0,0,815;
#OFFSET:-0.013;
#BPMS:0.000=199.000
,71.000=398.000
,71.500=199.000
,79.500=398.000
,80.000=199.000
,436.000=398.000
,436.167=199.000
,444.167=398.000
,444.333=199.000
,452.333=398.000
,452.500=199.000
,460.500=398.000
,460.667=199.000
,468.667=398.000
,468.833=199.000
,476.833=398.000
,477.000=199.000
,485.000=398.000
,485.167=199.000
,493.167=398.000
,493.333=199.000
,501.333=398.000
,501.500=199.000
;
#STOPS:71.000=0.075
,79.500=0.075
,88.000=0.302
,156.500=0.151
,297.000=0.297
,436.000=0.025
,444.167=0.025
,452.333=0.025
,460.500=0.025
,468.667=0.025
,476.833=0.025
,485.000=0.025
,493.167=0.025
,501.333=0.025
;
#WARPS:63.000=8.000,
71.500=8.000,
80.000=8.000,
148.000=8.500,
289.000=8.000,
428.000=8.000,
436.167=8.000,
444.333=8.000,
452.500=8.000,
460.667=8.000,
468.833=8.000,
477.000=8.000,
485.167=8.000,
493.333=8.000,
501.500=8.000,
517.000=8.000,
525.250=8.000,
533.500=8.000,
541.750=8.000,
550.000=8.000,
558.250=8.000,
566.500=8.000,
574.750=8.000,
583.000=8.000,
591.250=8.000,
599.500=8.000,
607.750=8.000,
616.000=8.000,
624.250=8.000,
632.500=8.000,
640.750=8.000,
649.000=8.000,
657.250=8.000,
665.500=8.000,
673.750=8.000,
682.000=8.000,
690.250=8.000,
698.500=8.000,
706.750=8.000,
715.000=8.000,
723.250=8.000,
731.500=8.000,
739.750=8.000,
748.000=8.000,
756.250=8.000,
764.500=8.000,
772.750=8.000,
781.000=8.000,
789.250=8.000,
797.500=8.000
;
#SPEEDS:0.000=1.000=0.000=0;
#SCROLLS:0.000=1.000,
187.000=0.950,
187.500=0.900,
188.000=0.850,
188.500=0.800,
189.000=0.750,
198.000=0.800,
198.500=0.850,
199.000=0.900,
199.500=0.950,
200.000=1.000,
251.000=0.950,
251.500=0.900,
252.000=0.850,
252.500=0.800,
253.000=0.750,
272.000=0.850,
274.000=0.950,
276.000=1.000
;
#TICKCOUNTS:0.000=4;
#TIMESIGNATURES:0.000=4=4;
#LABELS:0.000=I see that you are curious,
428.000=Which one is real?,
517.000=Who Are You?
;
#COMBOS:0.000=1;
#CHARTNAME:;
#CHARTHASH:536007294:;
#BANNER:;
#CHARTSTYLE:;
#METERF:0.000000;
#CREDIT:;
#NOTES:
0000
0000
0000
0000
,
0000
0000
0000
0000
,
0000
0000
0000
0000
,
0000
0000
0000
0000
,
2001
0000
0000
0010
0000
3010
0000
0100
,
0002
0000
0000
0000
0000
0000
0000
0000
0000
0000
1003
0000
0010
0000
1000
0001
,
0020
0000
0000
0100
0000
0130
0000
1000
,
0200
0000
0000
0000
0000
0000
0000
0000
0000
0000
0310
0000
0001
0000
1000
0001
,
0200
0000
0000
0010
0000
0310
0000
0100
,
0002
0000
0000
0000
0000
0000
0000
0000
0000
0000
0103
0000
0010
0000
0100
0001
,
2000
0000
0000
0100
0000
3100
0000
0010
,
0002
0000
0000
0000
1003
0001
0100
0020
,
2000
0000
0000
0000
,
0000
0000
0000
0000
,
0000
0000
0000
0000
,
0000
0000
0000
0000
0000
3030
0000
0000
,
0001
0010
1100
0010
0001
0010
1100
0010
0001
0110
1000
0100
0011
0100
1000
0001
,
0110
0000
0000
0000
,
0000
0000
000M
00M0
MM00
00M0
000M
00M0
MM00
00M0
000M
0MM0
M000
0M00
00MM
0M00
,
M000
000M
0MM0
0000
0000
0000
0000
0000
0000
0000
0000
0000
0000
0000
0000
0000
,
0000
0000
000M
00M0
0M00
M000
000M
0000
,
00M0
0000
000M
0000
00M0
0000
0M00
0000
0000
0M00
0000
0000
000M
0000
0000
0M00
0000
0000
M000
0000
0000
0000
0000
0000
,
0000
0000
0001
0010
0100
2000
0001
0000
,
3010
0000
0001
0000
0010
0000
0100
0000
0000
0100
0000
0000
0001
0000
0000
0200
0000
0000
1000
0000
0000
0000
0000
0000
,
0302
0000
0000
0000
1003
0000
0010
0000
0100
0000
0002
0000
1003
0000
0001
0010
,
0000
0100
0010
0000
1000
0000
0010
0000
0001
0000
0200
0000
1000
0000
1000
0000
,
0000
0001
0301
0100
0010
2000
0001
0000
,
3100
0000
0000
0000
0001
0000
0000
0000
0100
0000
0000
0000
0010
0000
0000
0000
0000
0000
0000
0000
0000
0010
0000
0000
0001
0000
0000
0000
0000
0000
0020
0000
0000
0000
0000
0000
1000
0000
0000
0000
0000
0000
1000
0000
0000
0000
0000
0000
,
0000
0000
0001
0000
0031
0000
0010
0100
0000
0000
2000
0000
0001
0000
0000
0000
,
3010
0000
0100
1000
0100
0010
1000
1000
,
0001
0000
0001
0000
1000
0000
0100
0000
0010
0000
0001
0000
1000
0001
1000
0001
,
0200
0300
0010
1020
1030
0001
0020
0130
,
1000
0020
0130
0001
0020
0100
0030
0011
,
0001
1000
0010
0000
0200
0000
0310
0000
1000
0000
0200
0000
0310
0000
0001
1000
,
0200
0000
0310
0000
0001
0000
0200
0000
0310
0000
1000
0001
0020
0000
0130
0000
,
1000
0000
0020
0000
0130
0000
0001
0000
0020
0000
0130
1000
0100
1000
0001
0000
,
0100
0100
0100
0100
0200
0000
0000
0000
,
0300
000M
0M00
00M0
000M
00M0
0M00
0M00
,
00M0
0000
M000
000M
M000
0000
0M00
0000
0000
0000
0000
0000
0000
0000
0000
0000
,
0000
0000
0001
0100
0010
0001
0010
0100
,
0100
0000
0010
0000
1000
0001
1000
0000
0100
0000
0010
0000
0001
0000
0010
0000
,
1000
0000
0000
0000
0011
0000
0001
0000
0100
0000
0020
0030
0100
0000
2000
3000
,
0100
0000
0020
0030
1000
0000
0001
0000
0001
0000
0000
0000
0011
0000
0001
0000
,
1000
0100
0010
0001
1000
0000
0100
0000
0010
0000
1000
0000
0010
0000
0100
0000
,
0100
0000
0010
0000
0001
1000
0001
0000
0100
0000
0010
0000
1000
0000
0001
0000
,
0100
0010
0100
0010
1000
0000
0010
0000
0100
0000
1000
0000
0100
0000
0010
0000
,
0001
0000
0010
0000
1000
0000
0001
1000
0001
0000
0010
0000
0100
0000
0001
0000
,
1000
0010
0002
0000
0000
2003
0000
0000
,
3200
0000
0000
0000
0000
0000
0310
0001
,
0100
1000
0200
0000
0000
0302
0000
0000
,
0103
0000
0000
0001
0000
0000
0101
0000
0000
0000
1001
0000
0000
0000
1100
0000
0000
0000
0110
0000
0000
0000
0011
0000
,
0000
0000
0000
0000
1001
0000
0000
0000
0000
0000
0000
0000
1000
0000
0000
0000
0000
0000
0010
0000
0000
0100
0000
0000
0010
0000
0000
0000
0000
0000
0001
0000
0000
0000
0000
0000
0010
0000
0000
0000
0000
0000
0100
0000
0000
0000
0000
0000
,
0100
0000
0001
1000
0001
0000
0010
0000
0010
0000
0100
1000
0100
0000
0010
0000
,
0011
0000
0000
0000
0001
0000
0010
0100
0010
0000
0001
0000
1000
0000
0010
0000
,
0100
0000
1000
0100
0010
0000
0100
0000
0001
0000
0010
0000
0100
0000
1000
0100
,
1000
0001
0010
0000
0011
0000
0000
0010
0001
0000
1000
0010
1000
0010
1000
0000
,
1010
0000
0000
0010
1000
0000
0001
0010
0001
0010
0001
0000
1000
0000
1000
0000
,
0100
0010
0001
0100
0010
0000
0000
0100
0001
0000
1000
0010
1000
0010
1000
0000
,
1001
0000
0000
0000
0000
0000
0000
0000
0000
0001
0000
0000
1000
0000
0000
0000
0000
0000
0100
0000
0000
1000
0000
0000
0100
0000
0000
1000
0000
0000
0100
0000
0000
0000
0000
0000
0010
0000
0000
0000
0001
0000
0000
0000
1000
0000
0000
0000
,
0010
0000
0000
0000
0100
0000
0000
0000
0001
0000
0000
0000
0101
0000
0000
0000
0000
0000
0000
0000
0000
0100
0000
0000
0001
0000
0000
0000
0000
0000
1000
0000
0000
0100
0000
0000
0010
0000
0000
0100
0000
0000
1000
0000
0000
0000
0000
0000
,
1100
0000
0000
0100
1000
0000
0001
0100
0010
0100
0001
0000
1000
0001
0100
0001
,
1000
0100
0010
0001
1000
0000
0010
0000
0100
0000
0001
0000
0010
0000
0001
0000
,
1000
0000
0010
0000
0100
0001
0100
0000
0010
1000
0010
0000
1000
0100
1000
0100
,
0010
0001
0010
0001
2000
0000
0000
0000
0000
0000
0100
0000
0000
0000
0100
0000
,
0000
3002
0023
0000
0000
0000
0000
0130
,
0001
0000
0100
2000
0100
0000
0000
0000
0000
0000
0010
0000
0000
0000
0010
0000
,
0000
3002
0203
0000
0000
0000
0000
0310
,
0001
0000
0010
2000
0010
0000
0000
0000
0000
0000
0100
0000
0000
0000
0100
0000
,
3200
0302
0203
2300
,
3002
0000
0000
0000
0013
0000
0010
0000
0100
1000
0001
1000
0010
0000
0010
0000
,
0100
0001
1000
0001
0010
0000
0010
0000
0100
1000
0001
1000
0010
0000
0010
0000
,
0100
0001
1000
0001
0010
0100
0010
0100
0010
0100
0010
0100
0010
0100
0010
0100
,
0010
0100
0010
0100
0010
0000
000M
00M0
M000
0000
00M0
0000
0M00
0000
M000
0000
,
MM00
00M0
M000
0000
0000
0000
0000
0000
,
0000
0000
0000
0000
0000
0000
0001
0010
1000
0000
0010
0000
0100
0000
1000
0000
,
1200
0000
0010
0000
1300
0000
0100
1000
0010
0000
0100
0001
0010
0000
1000
0000
,
0010
0000
0100
1000
0010
0000
1000
0100
0010
0000
0001
0100
0010
0000
0010
0000
,
1020
0000
0100
0000
1030
0000
0010
1000
0100
0000
0001
0000
0100
0000
0010
0000
,
0001
0000
0100
0010
1000
0000
0001
0010
0100
0000
0001
0100
1000
0000
0001
0100
,
0010
1000
0010
1000
0100
0000
0010
0001
0010
0001
0100
0000
0010
0000
0110
0000
,
0100
0000
1000
0000
0100
0000
0010
1000
0001
0000
0010
0000
0010
0000
0100
0000
,
0100
0000
0010
0000
0001
0000
0100
0000
2000
3000
0100
0000
0010
0000
0002
0003
,
0010
0000
2000
3000
0100
0000
0010
0001
1000
0100
1000
0100
0010
0000
0000
0000
,
0021
0000
0100
0000
0031
0000
0010
0001
0100
0000
0010
1000
0100
0000
0001
0000
,
0100
0000
0010
0001
0100
0000
0001
0010
0100
0000
1000
0010
0100
0000
0100
0000
,
0201
0000
0010
0000
0301
0000
0100
0001
0010
0000
0100
0000
1000
0000
0001
0100
,
1000
0000
1100
0000
0110
0000
0101
0000
1001
0000
1100
0000
,
0110
0000
0010
0000
0100
0000
0001
0000
0100
0010
0100
1000
0001
0000
0100
0000
,
0010
0001
0010
0100
0010
1000
1000
0100
,
2100
0000
0001
0000
3010
0000
0020
0000
0100
0000
1030
0000
1000
0000
0100
0010
,
0001
0000
0002
0000
1000
0000
0103
0000
0010
1000
0010
1000
0001
0000
0010
0000
,
0021
0000
0000
1000
0000
0000
0100
0000
0130
0000
1000
0000
0020
0000
0000
0001
,
0000
0000
0100
0000
0130
0000
0001
0000
0010
0000
0000
0100
0010
0001
1000
0001
,
0200
0000
0000
1000
0000
0000
0010
0000
0310
0000
1000
0000
0200
0000
0000
0001
,
0000
0000
0010
0000
0310
0000
0001
0000
0100
0000
0100
0000
1000
0100
0010
0200
,
0001
0000
0000
1000
0000
0000
0010
0000
0310
0000
1000
0000
0200
0000
0000
0001
,
0000
0000
0010
0000
0310
0000
0001
0000
0200
0000
0000
1000
0300
0000
0100
0001
,
0020
0000
0000
1000
0000
0000
0100
0000
0130
0000
1000
0000
0020
0000
0000
0001
,
0000
0000
0100
0000
0130
0000
0010
1000
0100
0000
0001
0000
0100
0010
0100
0000
,
2000
0000
0100
0000
3002
0000
0010
0000
1003
0000
0001
0100
0010
0000
0001
0000
,
0010
0100
0001
0100
1000
0100
0010
0100
,
0002
0100
2003
0010
3001
0010
0100
0001
,
0100
0000
0010
0000
1000
0000
0010
0100
0010
0000
0100
1000
0010
0000
0100
0001
,
0010
0100
0010
0100
1000
0001
1000
0001
0100
0010
1000
0000
0001
0100
0001
0100
,
0010
1000
0010
1000
0001
0010
0100
0000
1000
0100
1000
0100
0010
0001
0010
0000
,
0001
0100
0010
0000
1000
0100
0010
0000
0001
0100
0010
0000
1000
0100
0010
0000
,
0100
1000
0100
1000
0001
0100
0001
0100
0010
1000
0010
1000
0001
1000
0001
1000
,
0000
0000
0011
1100
0011
1100
0011
1100
0011
1100
0011
1100
0011
1100
0011
1100
,
0011
0000
0000
0000
,
0000
0000
0000
0000
0000
0000
0000
0000
1001
0000
0000
1100
0000
0000
0011
0000
0000
1100
0000
0000
0011
0000
0000
1100
0000
0000
0011
0000
0000
1100
0000
0000
0011
0000
0000
1100
0000
0000
0011
0000
0000
1100
0000
0000
0011
0000
0000
1100
,
0000
0011
0000
0000
0000
0000
0000
0000
0000
0000
0000
0000
0000
0000
0000
0000
0000
0000
0000
0000
0000
0000
0000
0000
,
0000
0000
0000
0000
0000
0000
0000
0000
0000
0000
2002
0000
0000
0000
3003
0000
0011
0000
0000
1100
0000
0000
0011
0000
0000
1100
0000
0000
0011
0000
0000
1100
0000
0000
0011
0000
0000
1100
0000
0000
0011
0000
0000
1100
0000
0000
0011
0000
,
0000
1100
0000
0000
0011
0000
0000
0000
0000
0000
0000
0000
0000
0000
0000
0000
0000
0000
0000
0000
0000
0000
0000
0000
0000
0000
0000
0000
0000
0000
0000
0000
0000
0000
0000
0000
0000
0000
0000
0000
0000
0000
0000
0000
0000
0000
0000
0000
,
0000
0000
0000
0000
2002
0000
3003
1100
0011
1100
0011
1100
0011
1100
0011
1100
,
0011
1100
0011
0000
0000
0000
0000
0000
0000
0000
0000
0000
0000
0000
0000
0000
,
0000
0000
0000
0000
0000
0000
0000
0000
0000
0000
0000
0000
0000
0000
2002
0000
0000
0000
0000
0000
0000
0000
3003
1100
0000
0000
0011
0000
0000
1100
0000
0000
0011
0000
0000
1100
0000
0000
0011
0000
0000
1100
0000
0000
0011
0000
0000
1100
,
0000
0000
0011
0000
0000
1100
0000
0000
0011
0000
0000
0000
0000
0000
0000
0000
0000
0000
0000
0000
0000
0000
0000
0000
0000
0000
0000
0000
0000
0000
0000
0000
0000
0000
0000
0000
0000
0000
0000
0000
0000
0000
0000
0000
0000
0000
0000
0000
,
0000
0000
0000
0000
0000
0000
0000
0000
0000
0000
0000
0000
0000
0000
0000
0000
2002
0000
0000
0000
0000
0000
0000
0000
0000
0000
3003
0000
0011
0000
0000
1100
0000
0000
0011
0000
0000
1100
0000
0000
0011
0000
0000
1100
0000
0000
0011
0000
,
0000
1100
0000
0000
0011
0000
0000
1100
0000
0000
0011
0000
0000
0000
0000
0000
0000
0000
0000
0000
0000
0000
0000
0000
0000
0000
0000
0000
0000
0000
0000
0000
0000
0000
0000
0000
0000
0000
0000
0000
0000
0000
0000
0000
0000
0000
0000
0000
,
0000
0000
0000
0000
0000
0000
2002
0000
0000
0000
3003
1100
0011
1100
0011
1100
,
0011
1100
0011
1100
0011
0000
0000
0000
0000
0000
0000
0000
0000
0000
0000
0000
,
0000
0000
0000
0000
0000
0000
0000
0000
0000
0000
0000
0000
0000
0000
0000
0000
0000
0000
0000
0000
2002
0000
0000
0000
0000
0000
0000
0000
0000
0000
0000
0000
0000
0000
3003
1100
0000
0000
0011
0000
0000
1100
0000
0000
0011
0000
0000
1100
,
0000
0000
0011
0000
0000
1100
0000
0000
0011
0000
0000
1100
0000
0000
0011
0000
0000
0000
0000
0000
0000
0000
0000
0000
0000
0000
0000
0000
0000
0000
0000
0000
0000
0000
0000
0000
0000
0000
0000
0000
0000
0000
0000
0000
0000
0000
0000
0000
,
0000
0000
0000
0000
0000
0000
0000
0000
0000
0000
0000
0000
0000
0000
0000
0000
0000
0000
0000
0000
0000
0000
2002
0000
0000
0000
0000
0000
0000
0000
0000
0000
0000
0000
0000
0000
0000
0000
3003
0000
0011
0000
0000
1100
0000
0000
0011
0000
,
0000
1100
0000
0000
0011
0000
0000
1100
0000
0000
0011
0000
0000
1100
0000
0000
0011
0000
0000
0000
0000
0000
0000
0000
0000
0000
0000
0000
0000
0000
0000
0000
0000
0000
0000
0000
0000
0000
0000
0000
0000
0000
0000
0000
0000
0000
0000
0000
,
0000
0000
0000
0000
0000
0000
0000
0000
2002
0000
0000
0000
0000
0000
3003
1100
,
0011
1100
0011
1100
0011
1100
0011
0000
0000
0000
0000
0000
0000
0000
0000
0000
,
0000
0000
2002
0000
,
0000
0000
0000
0000
,
0000
0000
0000
0000
0000
0100
0000
0000
0000
0000
0000
0000
0000
0000
0000
0000
,
0000
0000
0000
0000
,
0000
0000
0000
0000
0000
0000
0100
0100
0000
0000
0000
0000
0000
0000
0000
0000
,
0000
0000
0000
0000
,
0000
0000
0000
0000
0000
0000
0000
0100
0100
0100
0000
0000
0000
0000
0000
0000
,
0000
0000
0000
0000
,
0000
0000
0000
0000
0000
0000
0000
0000
0010
0100
0100
0100
0000
0000
0000
0000
,
0000
0000
0000
0000
,
0000
0000
0000
0000
0000
0000
0000
0000
0000
0010
0010
0100
0100
0100
0000
0000
,
0000
0000
0000
0000
,
0000
0000
0000
0000
0000
0000
0000
0000
0000
0000
0010
0010
0010
0100
0100
0100
,
0000
0000
0000
0000
,
0000
0000
0000
0000
0000
0000
0000
0000
0000
0000
0000
0100
0010
0010
0010
0100
,
0100
0100
0000
0000
0000
0000
0000
0000
0000
0000
0000
0000
0000
0000
0000
0000
,
0000
0000
0000
0000
0000
0000
0000
0000
0000
0000
0000
0000
0100
0100
0010
0010
,
0010
0100
0100
0100
0000
0000
0000
0000
0000
0000
0000
0000
0000
0000
0000
0000
,
0000
0000
0000
0000
0000
0000
0000
0000
0000
0000
0000
0000
0000
0100
0100
0100
,
0010
0010
0010
0100
0100
0100
0000
0000
0000
0000
0000
0000
0000
0000
0000
0000
,
0000
0000
0000
0000
0000
0000
0000
0000
0000
0000
0000
0000
0000
0000
0010
0100
,
0100
0100
0010
0010
0010
0100
0100
0100
0000
0000
0000
0000
0000
0000
0000
0000
,
0000
0000
0000
0000
0000
0000
0000
0000
0000
0000
0000
0000
0000
0000
0000
0010
,
0010
0100
0100
0100
0010
0010
0010
0100
0100
0100
0000
0000
0000
0000
0000
0000
,
0000
0000
0000
0000
,
0010
0010
0010
0100
0100
0100
0010
0010
0010
0100
0100
0100
0000
0000
0000
0000
,
0000
0000
0000
0000
,
0000
0100
0010
0010
0010
0100
0100
0100
0010
0010
0010
0100
0100
0100
0000
0000
,
0000
0000
0000
0000
,
0000
0000
0100
0100
0010
0010
0010
0100
0100
0100
0010
0010
0010
0100
0100
0100
,
0000
0000
0000
0000
,
0000
0000
0000
0100
0100
0100
0010
0010
0010
0100
0100
0100
0010
0010
0010
0100
,
0100
0100
0000
0000
0000
0000
0000
0000
0000
0000
0000
0000
0000
0000
0000
0000
,
0000
0000
0000
0000
0010
0100
0100
0100
0010
0010
0010
0100
0100
0100
0010
0010
,
0010
0100
0100
0100
0000
0000
0000
0000
0000
0000
0000
0000
0000
0000
0000
0000
,
0000
0000
0000
0000
0000
0010
0010
0100
0100
0100
0010
0010
0010
0100
0100
0100
,
0010
0010
0010
0100
0100
0100
0000
0000
0000
0000
0000
0000
0000
0000
0000
0000
,
0000
0000
0000
0000
0000
0000
0010
0010
0010
0100
0100
0100
0010
0010
0010
0100
,
0100
0100
0010
0010
0010
0100
0100
0100
0000
0000
0000
0000
0000
0000
0000
0000
,
0000
0000
0000
0000
0000
0000
0000
0100
0010
0010
0010
0100
0100
0100
0010
0010
,
0010
0100
0100
0100
0000
0000
0000
0000
0000
0000
0000
0000
0000
0000
0000
0000
,
0000
0000
0000
0000
0000
0000
0000
0000
0100
0100
0010
0010
0010
0100
0100
0100
,
0010
0010
0010
0100
0100
0100
0000
0000
0000
0000
0000
0000
0000
0000
0000
0000
,
0000
0000
0000
0000
0000
0000
0000
0000
0000
0100
0100
0100
0010
0010
0010
0100
,
0100
0100
0010
0010
0010
0100
0100
0100
0000
0000
0000
0000
0000
0000
0000
0000
,
0000
0000
0000
0000
0000
0000
0000
0000
0000
0000
0010
0100
0100
0100
0010
0010
,
0010
0100
0100
0100
0010
0010
0010
0100
0100
0100
0000
0000
0000
0000
0000
0000
,
0000
0000
0000
0000
0000
0000
0000
0000
0000
0000
0000
0010
0010
0100
0100
0100
,
0010
0010
0010
0100
0100
0100
0010
0010
0010
0100
0100
0100
0000
0000
0000
0000
,
0000
0000
0000
0000
0000
0000
0000
0000
0000
0000
0000
0000
0010
0010
0010
0100
,
0100
0100
0010
0010
0010
0100
0100
0100
0010
0010
0010
0100
0100
0100
0000
0000
,
0000
0000
0000
0000
0000
0000
0000
0000
0000
0000
0000
0000
0000
0100
0010
0010
,
0010
0100
0100
0100
0010
0010
0010
0100
0100
0110
0010
0100
0100
0100
0000
0000
,
0000
0000
0000
0000
0000
0000
0000
0000
0000
0000
0000
0000
0000
0000
0100
0100
,
0010
0010
0010
0100
0100
0100
0010
0010
0010
0100
0100
0110
0010
0100
0100
0100
,
0000
0000
0000
0000
0000
0000
0000
0000
0000
0000
0000
0000
0000
0000
0000
0100
,
0100
0100
0010
0010
0010
0100
0100
0100
0010
0010
0010
0100
0100
0100
0000
0000
,
0000
0000
0000
0000
,
0010
0100
0100
0100
0010
0010
0010
0100
0100
0100
0010
0010
0010
0100
0100
0100
,
0000
0000
0000
0000
,
0000
0010
0010
0100
0100
0100
0010
0010
0010
0100
0100
0100
0010
0010
0010
0100
,
0100
0100
0000
0000
0000
0000
0000
0000
0000
0000
0000
0000
0000
0000
0000
0000
,
0000
0000
0010
0010
0010
0100
0100
0100
0010
0010
0010
0100
0100
0100
0010
0010
,
0010
0100
0100
0100
0000
0000
0000
0000
0000
0000
0000
0000
0000
0000
0000
0000
,
0000
0000
0000
0100
0010
0010
0010
0100
0100
0100
0010
0010
0010
0100
0100
0100
,
0010
0010
0010
0100
0100
0100
0010
0010
0010
0100
0000
0000
0000
0000
0000
0000
,
0000
0000
0000
0000
0100
0100
0010
0010
0010
0100
0100
0100
0010
0010
0010
0100
,
0100
0100
0010
0010
0010
0100
0100
0100
0010
0010
0010
0100
0000
0000
0000
0000
,
0000
0000
0000
0000
0000
0100
0100
0100
0010
0010
0010
0100
0100
0100
0010
0010
,
0010
0100
0100
0100
0010
0010
0010
0100
0100
0100
0010
0010
0010
0100
0000
0000
,
0000
0000
0000
0000
0000
0000
0010
0100
0100
0100
0010
0010
0010
0100
0100
0100
,
0010
0010
0010
0100
0100
0100
0000
0000
0000
0000
0000
0000
0000
0000
0000
0000
,
0000
0000
0000
0000
0000
0000
0000
0010
0010
0100
0100
0100
0010
0010
0010
0100
,
0100
0100
0010
0010
0010
0100
0100
0100
0000
0000
0000
0000
0000
0000
0000
0000
,
0000
0000
3003
0000
;
