#VERSION:0.83;
#TITLE:siberite;
#SUBTITLE:;
#ARTIST:Captain KING;
#TITLETRANSLIT:;
#SUBTITLETRANSLIT:;
#ARTISTTRANSLIT:;
#GENRE:;
#ORIGIN:;
#CREDIT:;
#BANNER:siberite.png;
#BACKGROUND:siberite-bg.png;
#PREVIEWVID:;
#JACKET:siberite-jacket.png;
#CDIMAGE:;
#DISCIMAGE:;
#LYRICSPATH:;
#CDTITLE:;
#MUSIC:siberite.ogg;
#OFFSET:0.000000;
#SAMPLESTART:80.433998;
#SAMPLELENGTH:15.000000;
#SELECTABLE:YES;
#BPMS:0.000=128.000;
#STOPS:;
#DELAYS:;
#WARPS:;
#TIMESIGNATURES:0.000=4=4;
#TICKCOUNTS:0.000=4;
#COMBOS:0.000=1;
#SPEEDS:0.000=1.000=0.000=0;
#SCROLLS:0.000=1.000;
#FAKES:;
#LABELS:0.000=Song Start;
#BGCHANGES:;
#KEYSOUNDS:;
#ATTACKS:
;

//---------------dance-single - ----------------
#NOTEDATA:;
#CHARTNAME:;
#STEPSTYPE:dance-single;
#DESCRIPTION:;
#CHARTSTYLE:;
#DIFFICULTY:Hard;
#METER:15;
#RADARVALUES:0.656182,0.799952,0.309659,0.060211,0.520399,534.000000,498.000000,36.000000,7.000000,0.000000,0.000000,0.000000,0.000000,0.000000,0.656182,0.799952,0.309659,0.060211,0.520399,534.000000,498.000000,36.000000,7.000000,0.000000,0.000000,0.000000,0.000000,0.000000;
#CREDIT:ZSL;
#NOTES:
0000
0000
0000
0000
,
0000
0000
0000
0000
,
0000
0000
0000
0000
,
0000
0000
0000
0000
,
0000
0000
0000
0000
,
0001
0100
0010
0100
0001
1000
0100
0000
,
1000
0100
0010
0100
1000
0001
0100
0000
,
0010
1000
0100
0001
0100
1000
0010
0000
,
0100
0000
0001
0000
1000
0010
0000
0010
0100
1000
0100
0001
0010
0100
1000
0000
,
0001
0000
1000
0000
0010
0100
0001
0100
0010
0000
1000
0000
1100
0000
0000
0000
,
0100
0000
0010
0000
0001
1000
0100
1000
0010
0000
0100
0000
0001
1000
0001
0000
,
0100
0000
0010
0000
1000
0100
0010
0001
1000
0000
0001
0000
0100
0000
0000
0000
,
0101
0000
0100
0010
0000
0010
1000
0000
0100
0000
0010
0000
0001
0000
1000
0000
,
0010
0100
0000
0001
0000
1000
0100
0000
1000
0010
0001
0010
0100
0000
0000
0000
,
0001
0000
1000
0000
0010
0100
0000
0100
0001
0010
0100
0001
0100
1000
0001
0000
,
0100
0000
0010
0000
1000
0000
0001
0000
0010
0001
0100
0010
1000
0000
0010
0000
,
1000
0001
0000
1000
0010
0100
1000
0100
0001
0000
1000
0000
0100
0000
0010
0000
,
0001
0000
1000
0000
1010
0000
0010
0100
0001
0000
1000
0000
1100
0000
0100
0010
,
0001
0000
1000
0000
1010
0000
0010
1000
0100
0000
0010
0000
0011
0000
0001
0100
,
1000
0000
0100
0000
0110
0000
0010
1000
0001
0000
0010
0000
0110
0000
0100
1000
,
0010
0000
1000
0000
1001
0000
0001
0010
1000
0000
0010
0000
0100
0000
0100
0000
,
1000
0000
0001
0000
0011
0000
0010
0100
1000
0000
0001
0000
0101
0000
0100
0010
,
1000
0000
0001
0000
0011
0000
0010
0001
0100
0000
0010
0000
1010
0000
1000
0100
,
0001
0000
0100
0000
0110
0000
0010
0001
1000
0000
0010
0000
0110
0000
0100
0001
,
0010
0000
0001
0000
1001
0000
1000
0010
0001
0000
0010
0000
0100
0000
0100
0000
,
0001
0000
1000
0000
0100
0010
0001
0100
0010
0000
0100
0000
0001
0000
0000
0000
,
1000
0000
0001
0000
0100
0010
1000
0100
0010
0000
0100
0000
1000
0000
0000
0000
,
0001
0000
0010
0000
1000
0010
0001
1000
0010
0000
0100
0000
0001
0000
0000
0000
,
1000
0000
0010
0000
0001
0010
1000
0001
0010
0000
0100
0000
1000
0000
0001
0000
,
0100
0000
0010
0000
0100
0001
0010
0100
0010
0000
0001
0000
1001
0000
1000
0100
,
0010
0000
0001
0000
0010
1000
0010
0100
1000
0000
0001
0000
0101
0000
0100
0001
,
0010
0000
0100
0000
0001
0100
1000
0010
1000
0000
0010
0000
0110
0000
0100
0001
,
1000
0000
0100
0000
0010
0001
0100
0010
1000
0000
0000
0001
0000
0000
0010
0000
,
0100
0000
0000
0000
,
1000
0000
0100
0000
1000
0000
0001
0100
0010
0000
1000
0100
0010
0100
1000
0001
,
0200
0000
0301
0110
2000
0000
3100
0011
,
0200
0000
1300
0110
0001
0000
1000
0000
,
0020
0000
1030
1100
0020
0000
0031
2001
,
0000
3010
0000
0100
0001
1000
0010
0100
,
0101
0001
0010
1100
1000
0001
0100
0110
,
0001
1000
0100
0011
1000
0010
0100
0001
,
1000
0100
1000
0100
0010
0001
0010
0001
1000
0010
1000
0010
0100
0001
0100
0001
,
1000
0000
0100
0000
0010
0000
0001
0000
0100
0001
0010
0001
0100
0010
1000
0000
,
0001
0010
1100
1000
0001
0000
0101
0001
,
1001
1000
0100
0010
0001
0000
1100
0010
,
0001
0000
0101
0010
1000
0000
1001
1000
,
0100
0000
0010
0000
0100
1000
0001
0100
,
0010
1000
0101
0001
0010
0000
1100
1000
,
0010
0000
0100
0001
1000
0100
0001
0100
,
0010
0000
0001
0000
1000
0010
0001
0010
,
1000
0000
0000
0000
0010
0000
0000
0000
1000
0000
0100
0000
0010
0001
0010
0001
,
0100
0000
0001
0010
0000
0100
1000
0000
0010
0100
0000
1000
0100
0001
1000
0000
,
0100
0000
1000
0010
0000
0100
0001
0000
0010
0100
0000
0001
0100
1000
0001
0000
,
0100
0000
1000
0100
0000
0010
1000
0000
0100
0010
0000
1000
0010
0001
1000
0000
,
0001
0000
0000
0100
0000
0000
0010
0000
1000
0000
0000
0000
0001
0000
0010
0000
,
0100
1000
0010
0100
1000
0100
0010
1000
0100
0010
1000
0010
0100
1000
0010
0000
,
0100
0001
0010
0100
0001
0100
0010
0001
0100
0010
0001
0010
0100
0001
0010
0000
,
0100
1000
0001
0100
1000
0100
0001
1000
0100
0001
0100
1000
0001
0100
0010
0000
,
1000
0000
0000
0100
0000
0000
1000
0000
0010
0000
0100
0000
0001
0010
0100
1000
,
0002
0000
0000
0000
,
0003
0000
0000
0000
;
