#TITLE:rainbow rainbow;
#SUBTITLE:;
#ARTIST:Ryu☆;
#TITLETRANSLIT:;
#SUBTITLETRANSLIT:;
#ARTISTTRANSLIT:;
#GENRE:HAPPY HARDCORE;
#CREDIT:Braeden;
#MUSIC:rainbow rainbow.ogg;
#BANNER:SC2023-bn.png;
#BACKGROUND:SC2023-bg.png;
#CDTITLE:;
#SAMPLESTART:56.935;
#SAMPLELENGTH:15.000;
#SELECTABLE:YES;
#OFFSET:0.000;
#BPMS:0.000=176.600
,4.000=177.000
;
#STOPS:96.000=2.373;
#DISPLAYBPM:177.000;
#BGCHANGES:;
#FGCHANGES:;

//--------------- dance-single - ----------------
#NOTES:
     dance-single:
     :
     Beginner:
     4:
     0,0,0,0,0:
0000
0000
0000
0000
,
0000
0000
0000
0000
,
1000
1000
0000
0000
,
0000
0000
0020
0000
,
0130
0100
0000
0000
,
0020
0000
0230
0300
,
1001
0001
0000
0000
,
0000
0000
2000
0000
,
3010
0010
0000
0000
,
0200
0000
0302
0000
,
1003
1000
0000
0000
,
0001
0000
2000
0000
,
3010
0000
0000
0000
,
0100
0000
0000
0001
,
1000
0001
0000
0100
,
0000
0010
0000
1000
,
0000
0001
0000
0010
,
0020
0000
0230
0000
,
2300
0000
3002
0000
,
0203
0000
0302
0000
,
1003
0010
1000
0010
,
0100
0100
0001
0001
,
2000
0000
0000
0000
,
0000
0000
0000
3020
,
0030
0100
0000
0000
,
0000
0010
0000
0000
,
0000
0100
0000
0000
,
0000
0001
0000
0000
,
0000
1000
0000
0000
,
0000
0001
0000
0000
,
0000
0010
0000
0000
,
0000
0010
0000
0000
,
0000
0001
0000
1000
,
0000
0010
0000
0100
,
0000
0001
0000
0010
,
0000
0100
0000
0010
,
0000
0100
0000
1000
,
0000
0001
0000
0100
,
0000
0010
0000
1000
,
0000
0001
1000
0000
,
0001
0000
0001
0000
,
0100
0000
0010
0000
,
1000
0000
0100
0000
,
0010
0000
0100
0000
,
1000
0000
0001
0000
,
0100
0000
0010
0000
,
1000
0000
0001
0000
,
0010
0000
0100
0000
,
1000
0000
0001
0000
,
0100
0000
0001
0000
,
0010
0000
0100
0000
,
1000
0001
0000
0000
,
0100
0100
0000
0010
,
0000
1000
0000
0001
,
0000
0100
0000
0010
,
0000
1000
0000
0001
,
0000
0002
0000
0000
,
0000
0000
0000
0000
,
0000
0000
0000
0000
,
0003
1000
0000
0010
,
0000
0100
0001
0100
,
0001
1000
1000
0010
,
0010
2000
0000
0000
,
3020
0030
0000
0000
,
0000
0001
0001
0000
,
0100
0000
0010
0000
,
1000
0000
0001
0000
,
1000
0000
0001
0000
,
0100
0000
0010
0000
,
1000
0000
0100
0000
,
0100
0000
0010
0000
,
0000
0010
0001
0000
,
2000
3001
0100
0000
,
0010
0000
1000
0000
,
0100
0000
0010
0000
,
0001
0100
0000
0000
,
0010
0000
0100
0000
,
0010
0000
1000
0000
,
0010
0000
0100
0000
,
0010
0000
1000
0000
,
0020
1030
0000
0000
;

//--------------- dance-single - ----------------
#NOTES:
     dance-single:
     :
     Easy:
     10:
     0,0,0,0,0:
0000
0000
0000
0000
,
0000
0000
0000
0000
,
1001
0000
0001
1000
0000
0010
0000
1000
,
0000
0001
0000
1000
0020
0000
0000
0000
,
1030
0000
0001
0010
0000
0100
0000
0010
,
0002
0000
0203
0000
,
0301
0000
1000
0010
0000
1000
0000
0001
,
0000
0010
0000
0001
0200
0000
0000
0300
,
0001
0000
1000
0100
0000
1000
0000
0001
,
2000
0000
3002
0000
,
1003
0000
0001
0100
0000
0001
0000
1000
,
0010
0000
0000
1000
0000
0000
0001
0000
0020
0000
0000
0000
0000
0000
0000
0000
,
0130
0010
0001
1000
0000
0010
0000
1000
,
0001
0000
0000
0100
0000
0000
0001
0000
0000
0100
0000
0000
0020
0000
0000
0000
,
1030
0000
0001
0100
0000
0001
0000
0100
,
0000
0010
0000
1000
0000
0001
0000
1000
,
0000
0100
0000
0010
0000
0100
0000
1000
,
0002
0000
0203
0000
,
0320
0000
2030
0000
,
3002
0000
2003
0000
,
3001
0001
1000
1000
,
0001
0100
0001
0100
0010
1000
0010
1000
,
0002
0000
0000
0000
,
0000
0000
0000
0203
,
M300
0000
0000
0000
0001
0000
1000
0000
0000
0000
0001
0000
0000
1000
0000
0000
,
0010
0000
0000
0000
1000
0000
0000
0000
0000
0000
0001
0000
0000
0010
0000
0000
,
0001
0000
0000
0000
1000
0000
0000
0000
0000
0000
1000
0000
0000
0001
0000
0000
,
0010
0000
0001
0000
0000
1000
0100
0010
,
0001
0000
0000
0000
1000
0000
0010
0000
0000
0000
1000
0000
0000
0001
0000
0000
,
0100
0000
0000
0000
0001
0000
0000
0000
0000
0000
1000
0000
0000
0100
0000
0000
,
1000
0000
0000
0000
0001
0000
0000
0000
0000
0000
0100
0000
0000
0010
0000
0000
,
1000
0000
0001
0000
0000
1000
0000
0000
,
0001
0000
0000
0000
1000
0000
0100
0000
1000
0000
0000
0000
0001
0000
0000
0010
,
0000
0001
1000
0100
1000
0000
0001
0010
,
0001
0000
0000
0000
1000
0000
0010
0000
0100
0000
0000
0000
0001
0000
0000
0100
,
0000
0010
1000
0001
1000
0000
0010
1000
,
0010
0000
0000
0000
1000
0000
0001
0000
1000
0000
0010
0000
1000
0000
0000
0001
,
0000
0000
0000
0000
0100
0000
0010
0000
0100
0000
0001
0000
0100
0000
0000
0010
,
0000
0000
0000
0000
1000
0000
0100
0000
0010
0000
0001
0000
1000
0000
0000
0010
,
0000
1000
0001
1000
,
1001
0000
0000
0000
0001
0000
0010
0000
0001
0000
0000
0000
1000
0000
0000
0100
,
0000
1000
0001
0010
0001
0000
1000
0010
,
1000
0000
0000
0000
0001
0000
0100
0000
0010
0000
0000
0000
1000
0000
0000
0001
,
0000
0000
1000
0010
0100
0000
0001
0010
,
0001
0000
0000
0000
1001
0000
0000
0000
1000
0000
0000
0000
0010
0000
0000
1000
,
0000
0000
0000
0000
0001
0000
0010
0000
0100
0000
0000
0000
1000
0000
0000
0001
,
0000
0000
0000
0000
1000
0000
0010
0000
1000
0000
0000
0000
0001
0000
0000
1000
,
0000
1001
0101
0100
,
0010
0000
0000
0000
1000
0000
0001
0000
1000
0000
0000
0000
0010
0000
0000
1000
,
0000
0001
0010
0100
0010
0000
0001
1000
,
0001
0000
0000
0000
1000
0000
0100
0000
0010
0000
0000
0000
0001
0000
0000
1000
,
0000
0000
0001
0000
0010
0000
0000
0100
0000
0000
1000
0000
0000
0001
0000
0000
,
1000
0000
0000
0000
0001
0000
0010
0000
0001
0000
0000
0000
1000
0000
0000
0010
,
0000
0000
0000
0000
1000
0000
0100
0000
1000
0000
0000
0000
0001
0000
0000
0001
,
0000
0000
0000
0000
1000
0000
0010
0000
1000
0000
0000
0000
0010
0000
0000
0100
,
0000
0000
1001
0000
0001
0000
0000
1000
,
0100
2002
0000
0000
,
0000
0000
0000
0000
,
0000
0000
0000
0000
,
3003
0110
0000
0101
,
0000
1010
1010
0110
,
0110
0000
0100
0001
0100
0001
1000
0010
,
1000
0010
0200
0000
0000
0000
0000
0000
,
0302
0003
0000
0000
,
0000
0000
0000
0000
1001
0000
0000
0000
1000
0000
0000
0000
1000
0000
0000
0001
,
0000
0000
0100
0010
0100
0000
0001
0010
,
0001
0000
0000
0000
1000
0000
0010
0000
1000
0000
0000
0000
0001
0000
0000
0010
,
0000
0000
0100
1000
0001
0000
0100
0010
,
1000
0000
0000
0000
1010
0000
0000
0000
1000
0000
0001
0000
0100
0000
0000
0010
,
0000
0000
0000
0000
1000
0000
0000
0000
0100
0000
0010
0000
0001
0000
0000
1000
,
0000
0000
1001
0000
0001
0100
0001
0000
,
0101
0000
0110
0000
0100
0010
0000
1000
,
0020
0000
0000
0000
1030
0000
0001
0000
1000
0000
0000
0000
0010
0000
0000
1000
,
0000
0001
0100
0010
0100
0000
0001
0010
,
0100
0000
0000
0000
1000
0000
0001
0000
0100
0000
0000
0000
0010
0000
0000
1000
,
0000
0000
0100
0000
1000
0000
0000
0001
0000
0000
1000
0000
0000
0010
0000
0000
,
1000
0000
0000
0000
1001
0000
0000
0000
0001
0000
0100
0000
0010
0000
0000
1000
,
0000
0000
0000
0000
1001
0000
0000
0000
0001
0000
0100
0000
0010
0000
0000
1000
,
0000
1001
0001
0100
,
0010
0000
1000
0001
0100
0010
0000
1000
,
0100
0010
0200
0000
0000
0000
0000
0000
,
0300
0000
0000
0000
;

//--------------- dance-single - XO ----------------
#NOTES:
     dance-single:
     XO:
     Medium:
     13:
     0,0,0,0,0:
0000
0000
0000
0000
,
0000
0000
0000
0000
,
1001
0000
1000
0001
0010
0001
0010
0001
,
0100
0010
1000
0001
2000
0000
0001
0000
,
3100
0010
0100
0001
0010
0100
1000
0100
,
0020
0000
0031
0000
0200
0000
0310
1000
,
0001
0010
0100
1000
0001
0100
0010
0100
,
0001
1000
0100
0010
0002
0000
1000
0000
,
0103
0010
0100
0001
1000
0100
0010
0001
,
2001
3001
2010
3001
,
1000
0100
0010
0001
0010
0100
1000
0001
,
1000
0000
0000
0010
0000
0000
1000
0000
0000
0001
0000
0000
0200
0000
0000
0000
,
0301
0010
0100
1000
0010
0100
0001
1000
,
0001
0000
0000
1000
0000
0000
0010
0000
0000
1000
0000
0000
0001
0000
0000
0000
,
1001
1000
0010
0100
0001
0010
0100
1000
,
0010
0100
0001
1000
0100
0010
0001
0010
,
0100
1000
0001
0100
0020
0000
0030
0000
,
2002
3003
0220
0330
,
2020
3030
0220
0330
,
0202
0303
2002
3003
,
1000
0000
0001
0010
0001
0000
1000
0100
1000
0000
0001
0010
0001
0000
1000
0100
,
1000
1000
0001
0001
0100
0100
0010
0010
,
0100
0001
0100
0001
0100
0001
0100
0001
,
0100
0001
0100
0001
0100
0001
1000
0001
,
00M0
0000
0000
0000
1000
0000
0001
0000
0000
0000
1000
0000
0000
0100
0000
0000
,
0010
0000
0000
0000
0001
0000
1000
0000
0000
0000
0100
0000
0000
0010
0000
0000
,
0001
0000
1000
0000
0100
0000
1000
0000
0000
0000
0001
0000
0000
0010
0000
0000
,
0100
0000
1000
0010
0000
1000
0001
0010
,
0001
0000
1000
0000
0100
0000
1000
0000
0000
0000
0001
0000
0000
0010
0000
0000
,
0100
0000
0000
0000
1000
0000
0001
0000
0000
0000
1000
0000
0000
0100
0000
0000
,
0010
0000
0000
0000
0001
0000
0010
0000
0000
0000
0001
0000
0000
1000
0000
0000
,
0010
0000
0100
0001
0000
0010
0000
0100
,
1000
0000
0001
0000
1000
0000
0100
0000
0010
0000
0001
0000
0010
0000
0000
0100
,
0000
1000
0100
0001
0100
1000
0001
0100
,
0010
0000
1000
0000
0001
0000
0010
0000
1000
0000
0010
0000
0001
0000
0000
0100
,
0000
0001
0100
0010
0001
0010
0100
0001
,
1000
0000
0100
0000
1000
0000
0100
0000
0010
0000
0001
0000
1000
0000
0000
0001
,
0000
0100
0000
0000
0010
0000
1000
0000
0100
0000
0010
0000
0001
0000
0000
1000
,
0000
0010
0000
0000
1000
0000
0001
0000
0010
0000
0001
0000
1000
0000
0010
0000
,
0000
1000
0000
0000
0001
0010
0001
0000
1000
0001
0010
0000
0001
0000
0000
0000
,
1000
0000
0000
0000
1001
0000
0001
0000
0100
0000
1000
0000
0100
0000
0000
0001
,
0000
1000
0010
0100
0001
0010
0001
1000
,
0100
0000
0010
0000
0001
0000
1000
0000
0010
0000
0001
0000
0010
0000
0000
1000
,
0000
0001
1000
0100
1000
0100
0010
0001
,
0010
0000
0010
0000
0100
0000
1000
0000
0100
0000
0001
0000
0100
0000
0000
1000
,
0000
0001
0000
0000
1000
0000
0010
0000
0100
0000
0010
0000
1000
0000
0000
0001
,
0000
0001
0000
0000
1000
0000
0100
0000
0010
0000
0001
0000
1000
0000
0000
0001
,
0000
0001
0000
0000
0101
0000
0000
0000
0110
0000
0000
0000
0010
0000
0000
0000
,
1000
0000
0001
0000
1000
0000
0100
0000
0001
0000
0100
0000
1000
0000
0000
0010
,
0000
1000
0001
0010
0100
1000
0001
0100
,
0010
0000
1000
0000
0100
0000
0010
0000
1000
0000
0010
0000
0100
0000
0000
0010
,
0000
0000
0001
0000
1000
0000
0000
0010
0000
0000
1000
0000
0000
0001
0000
0000
,
0100
0000
0010
0000
1000
0000
0100
0000
0001
0000
0100
0000
1000
0000
0000
0001
,
0000
0010
0000
0000
0001
0000
0010
0000
1000
0000
0010
0000
0001
0000
0000
0100
,
0000
0010
0000
0000
1000
0000
0100
0000
0010
0000
0001
0000
1000
0000
0000
0001
,
0000
0100
0000
0000
1010
0000
0000
0000
1000
0000
0010
0000
0000
0000
1000
0000
,
0100
1000
2002
0000
0000
0000
0000
0000
,
0000
0000
0000
0000
,
0000
0000
0000
0000
,
3003
1001
0000
0101
,
0000
0000
0001
0010
0001
0000
1000
0100
1000
0000
0001
0010
0001
0000
1000
0100
,
1000
0000
0001
0010
0001
0000
0001
0000
1000
0000
1000
0000
0010
0000
0010
0000
,
0100
0100
0001
1000
0001
1000
0001
1000
,
0001
1000
0200
0000
0000
0000
0300
0000
,
1000
0000
0000
0000
0001
0000
0100
0000
0010
0000
0001
0000
0010
0000
0000
0100
,
0000
0001
1000
0010
0100
0010
1000
0010
,
0100
0000
0001
0000
1000
0000
0010
0000
0001
0000
0010
0000
0100
0000
0000
0010
,
0000
1000
0001
0010
0001
0100
0001
0100
,
0010
0000
0010
0000
1000
0000
0100
0000
0001
0000
0100
0000
0010
0000
0000
0100
,
0000
1000
0000
0000
0001
0000
0100
0000
0001
0000
0100
0000
0010
0000
0000
1000
,
0000
0001
0000
0000
1001
0000
0000
0000
1000
0000
0100
0000
0010
0000
0000
0000
,
0011
0000
0001
1000
0010
0100
0000
0001
,
2000
0000
0000
0000
3001
0000
0100
0000
1000
0000
0100
0000
0001
0000
0000
0100
,
0000
0010
1000
0100
0010
0100
1000
0001
,
0100
0000
0010
0000
1000
0000
0100
0000
0001
0000
1000
0000
0010
0000
0000
0001
,
0000
0000
1000
0000
0010
0000
0000
0100
0000
0000
0001
0000
0000
1000
0000
0000
,
0001
0000
0001
0000
1000
0000
0100
0000
0001
0000
1000
0000
0010
0000
0000
0001
,
0000
1000
0000
0000
0001
0000
0010
0000
1000
0000
0001
0000
0100
0000
0000
1000
,
0000
0001
0000
0000
1000
0000
0100
0000
0010
0000
0100
0000
1000
0000
0000
0001
,
0000
0100
0000
0000
0010
0000
1000
0000
0001
0000
0010
0000
0001
0000
0100
0000
,
0010
0010
0200
0000
0000
0000
0000
0000
,
0300
0000
0000
0000
;

//--------------- dance-single - XO FS ----------------
#NOTES:
     dance-single:
     XO FS:
     Hard:
     16:
     0,0,0,0,0:
0000
0000
0000
0000
,
0000
0000
0000
0000
,
1000
0000
0001
0010
0001
0000
1000
0000
0100
0000
0001
0000
0100
0000
1000
0000
,
0100
0010
0100
1000
0002
0000
0100
0000
,
1003
0000
0010
0100
0010
0000
1000
0000
0010
0000
0001
0000
0010
0000
1000
0000
,
0020
0000
1000
0000
0230
0000
0301
0001
,
0101
0000
0100
0010
0100
0000
0001
0000
0100
0000
1000
0000
0100
0000
0001
0000
,
0100
0010
0100
0001
2000
0000
0010
0000
,
3001
0000
1000
0010
1000
0000
0001
0000
0010
0000
1000
0000
0010
0000
0001
0000
,
0012
0103
2010
3001
,
1000
0000
0001
0010
0001
0000
1000
0000
0010
0000
0001
0000
0010
0000
1000
0000
,
0001
0000
0000
0100
0000
0000
0001
0000
2000
0000
0000
0000
0010
0000
0000
0000
,
3001
0000
1000
0010
0100
0000
0001
0000
0010
0000
1000
0000
0010
0000
0001
0000
,
1001
0000
0000
1010
0000
0000
0110
0000
0000
0101
0000
0000
0002
0000
0003
0000
,
1001
0000
1000
0010
1000
0000
0001
0000
0010
0000
1000
0000
0010
0000
0001
0000
,
0010
0100
0010
0001
1000
0010
0100
0001
,
1000
0010
0100
0001
1000
0100
0010
0001
0010
0100
1000
0010
0100
0001
1000
0001
,
2000
0000
3002
1003
,
0220
0330
2002
3003
,
2020
3030
0202
0303
,
1000
0000
0001
0010
0001
0000
1000
0100
1000
0000
0001
0010
0001
0000
1000
0001
,
0100
0100
0010
0010
0100
0100
0010
0010
,
1000
0100
0010
0001
1000
0010
0100
0001
0010
0100
1000
0010
0100
0001
1000
0100
,
0010
0001
1000
0010
1000
0001
0010
0001
0100
0010
1000
0001
0010
0001
1000
0001
,
10M0
0000
0000
0000
1001
0000
0001
0000
0000
0000
1000
0000
0001
0010
0000
0000
,
0100
0000
0000
1000
0100
0000
0010
0000
0000
0000
0001
0000
0000
0100
0000
0000
,
0010
0000
1000
0100
1000
0000
0001
0000
0000
0000
1000
0000
0000
0100
0000
0000
,
0010
0000
0000
0001
0010
0000
0100
0000
0000
0000
1000
0000
0100
0000
0010
0000
,
0001
0000
0010
0000
0100
0000
0010
0000
0000
0000
0001
0000
0000
0100
0000
0000
,
0010
0000
0000
1000
0100
0000
0010
0000
0000
0000
0001
0000
0000
1000
0000
0000
,
0010
0000
1000
0001
1000
0000
0001
0000
0000
0000
0010
0000
0000
0100
0000
0000
,
1000
0000
0000
0010
0100
0000
0001
0000
0000
0000
1000
0000
0100
0000
0010
0000
,
0001
0000
1000
0000
0001
0000
0100
0000
1000
0000
0100
0000
0001
0000
1000
0010
,
0000
0100
0001
0100
0001
0000
0010
0000
0001
0000
0010
0000
0100
0000
1000
0000
,
0001
0000
0100
0000
0001
0000
0100
0000
1000
0000
0100
0000
0001
0000
1000
0010
,
0000
1000
0100
0010
0001
0000
0100
0000
0001
0000
0010
0000
0001
0000
1000
0000
,
0100
0000
0001
0000
0100
0000
0010
0000
0001
0000
1000
0000
0010
0000
1000
0100
,
00M0
0100
0000
0001
1000
0000
0001
0000
1000
0000
0100
0000
0010
0000
0001
0100
,
00M0
0100
0000
1000
0001
0000
0010
0000
0100
0000
1000
0000
0001
0010
0100
1000
,
0001
0100
0010
1000
0001
0100
0001
0000
1000
0010
1000
0000
0001
0000
0100
0000
,
0001
0000
1000
0000
1001
0000
0001
0000
0010
0000
1000
0000
0010
0000
0001
0100
,
0000
0010
1000
0010
1000
0000
0100
0000
0001
0000
0100
0000
1000
0000
0010
0000
,
1000
0000
1000
0000
0001
0000
0010
0000
1000
0000
0010
0000
0100
0000
0010
0001
,
0000
1000
0010
0100
0001
0000
0100
0000
1000
0000
0100
0000
0010
0000
0100
0000
,
0001
0000
1000
0000
1001
0000
0001
0000
1000
0000
0010
0000
1000
0000
0001
0100
,
00M0
0100
0000
1000
0001
0000
1000
0000
0001
0000
0100
0000
0010
0000
1000
0010
,
0M00
0010
0000
0001
1000
0000
0100
0000
0010
0000
0001
0000
1000
0000
0001
0100
,
00M0
0100
0000
1000
0001
0000
0010
0000
0100
0000
1000
0000
0000
0001
0100
0010
,
1000
0000
0010
0000
1010
0000
1000
0000
0100
0000
0001
0000
0100
0000
1000
0001
,
0000
0100
0010
0100
0010
0000
0100
0000
0010
0000
1000
0000
0001
0000
0010
0000
,
1000
0000
0010
0000
0011
0000
0001
0000
1000
0000
0001
0000
0100
0000
0001
0010
,
0000
0100
1000
0100
1000
0000
0000
1001
0000
0000
0101
0000
0000
0110
0000
0000
,
0010
0000
1000
0000
1001
0000
0001
0000
0100
0000
1000
0000
0100
0000
0001
0010
,
0M00
0010
0000
1000
0001
0000
0010
0000
1000
0000
0010
0000
0001
0000
1000
0010
,
0M00
0010
0000
0001
1000
0000
0010
0000
0001
0000
0010
0000
1000
0000
0001
0100
,
00M0
0100
0000
1000
0001
0000
0100
0000
0001
0000
1000
0000
0000
0001
0010
0100
,
1000
0001
2002
0000
0000
0000
0000
0000
,
0000
0000
0000
0000
,
0000
0000
0000
0000
,
3003
0000
1001
0001
0100
0010
0110
0100
,
0001
0000
1000
0100
0010
0000
0001
0010
0100
0000
1000
0010
0100
0000
0001
0100
,
0010
0000
1000
0001
1000
0000
1000
0000
0001
0000
0001
0000
0100
0000
0100
0000
,
0010
0000
0010
0000
1000
0001
1000
0001
0010
0100
0010
0100
1000
0001
0100
0010
,
1000
0100
0010
0001
2000
0000
0000
0000
3001
0000
0000
0000
0200
0000
0000
0000
,
0310
0000
0000
0000
1000
0000
0010
0000
0001
0000
0010
0000
1000
0000
0001
0100
,
0000
0100
0010
1000
0001
0000
0100
0000
0010
0000
0001
0000
0010
0000
0100
0000
,
0001
0000
1000
0000
0001
0000
0100
0010
0100
0000
0001
0000
1000
0000
0001
0010
,
0000
0010
0100
0010
0001
0000
0010
0000
1000
0000
0010
0000
0001
0000
1000
0000
,
0001
0000
1000
0000
1001
0000
0001
0000
0100
0000
0010
1000
0010
0000
1000
0100
,
00M0
0100
0000
0001
1000
0000
0001
0010
0100
0000
1000
0000
0001
0000
1000
0010
,
0M00
0010
0000
0001
0100
0000
0001
0000
1000
0000
0001
0000
0010
0000
0001
0100
,
00M0
0100
0000
1000
0001
0010
0100
1000
0001
0000
0100
0000
0110
0000
0010
1000
,
0001
0010
0100
1000
0001
0000
1000
0100
1000
0000
0001
0000
1000
0000
0001
0010
,
0000
0010
0100
1000
0100
0000
0010
0001
1000
0000
0001
0000
0100
0000
1000
0000
,
0100
0000
0001
0000
1000
0000
0001
0010
0100
0000
1000
0000
0100
0000
0010
0001
,
0000
0001
1000
0010
0100
0000
0000
0101
0000
0000
0011
0000
0000
1001
0000
0000
,
1000
0000
0001
0000
1001
0000
1000
0010
0100
0000
0001
0000
1000
0000
0001
0010
,
0M00
0010
0000
1000
0001
0000
1000
0100
1000
0000
0001
0000
1000
0000
0001
0010
,
0M00
0010
0000
1000
0001
0000
1000
0001
0010
0000
0100
0000
1000
0000
0001
0100
,
00M0
0100
0000
1000
0001
0010
0100
0000
1000
0000
0001
0010
0001
0000
1000
0010
,
0100
0100
0220
0000
0000
0000
0000
0000
,
0330
0000
0000
0000
;

//--------------- dance-single - BU+ XO FS FL ----------------
#NOTES:
     dance-single:
     BU+ XO FS FL:
     Edit:
     19:
     0,0,0,0,0:
0000
0000
0000
0000
,
0000
0000
0000
0000
,
1001
0000
1000
0010
0100
0000
0001
0000
0100
0000
1000
0000
0100
0000
0001
0000
,
0100
0010
0100
0001
2000
0010
0001
0000
,
3001
0000
0100
0010
0100
0000
0001
0000
0010
0000
1000
0000
0010
0000
0001
0000
,
2000
0010
0001
0000
3002
0100
1003
0001
,
1001
0000
1000
0100
0010
0000
0001
0000
0010
0000
1000
0000
0010
0000
0001
0000
,
0010
0100
0010
0001
2000
0100
0001
0000
,
3001
0000
0010
0100
1000
0000
0001
0000
0100
0000
1000
0000
0100
0000
0001
0000
,
0102
1003
2010
3001
,
1001
0000
1000
0100
0010
0000
0001
0000
0010
0000
1000
0000
0010
0000
0001
0000
,
1000
0000
0001
0100
0010
0000
1000
0010
0200
0000
0001
0000
0010
0000
0000
0000
,
0301
0000
1000
0100
0010
0000
0001
0000
0010
0000
1000
0000
0010
0000
0001
0000
,
0011
0000
0000
0110
0000
0000
1100
0000
0000
1001
0000
0000
0002
0000
0003
0000
,
0101
0000
0100
0010
0100
0000
0001
1000
0001
0000
1000
0010
1000
0000
0001
0010
,
0001
0000
1000
0010
0100
0001
0100
0001
1000
0100
0010
0001
0100
0010
1000
0001
,
0010
0000
0000
0100
0000
0000
1000
0000
0000
0001
0000
0000
0100
0000
0000
0010
0000
0000
1000
0000
0000
0001
0000
0000
1000
0000
0100
0000
0010
0000
0001
0000
1000
0000
0010
0000
0100
0000
0001
0000
1000
0000
0100
0000
0010
0000
0001
0000
,
2000
0000
3001
1000
0020
0000
MM00
0000
,
2030
0000
0000
3000
2002
0000
0000
3003
,
0202
0000
0000
0303
2020
0000
0000
3030
,
1000
0000
0001
0010
0100
0000
1000
0100
0010
0000
0001
1000
0010
0000
0100
0001
,
1000
0010
0000
0000
1000
0010
0000
0000
1000
0010
0000
0000
1000
0010
0000
0000
0100
0001
0000
0000
0100
0001
0000
0000
0100
0001
0000
0000
0100
0001
0000
0000
,
1000
0100
0010
0001
1000
0001
0100
0010
1000
0001
0010
0100
1000
0001
0100
0010
1000
0001
0010
0100
1000
0001
0100
0010
,
1000
0100
0010
0001
1000
0010
1000
0001
0010
0100
1000
0001
0100
0010
1000
0100
0010
0001
1000
0010
0100
0001
1000
0100
,
1000
0000
0000
0000
0101
0000
0100
0000
0000
0000
0001
0000
0000
1000
0000
0000
,
0001
0000
0000
0010
0100
0000
1000
0000
0000
0000
0001
0000
1000
0010
0000
0100
,
0001
0000
1000
0100
1000
0000
0001
0000
0010
0100
0010
0000
0100
1000
0000
0001
,
0010
0000
0000
0100
1000
0000
0001
0000
0000
0000
1000
0000
0010
0000
0010
0000
,
0100
0000
0100
0000
0001
0000
0010
0000
0000
0000
0100
0000
1000
0100
0000
0010
,
0001
0000
1000
0001
1000
0000
0001
0000
0000
0010
0100
0000
1000
0100
0000
1000
,
0001
0000
1000
0010
1000
0000
0100
0000
0010
0001
0010
0000
0100
1000
0000
0000
,
0001
0000
0000
1000
0100
0000
0020
0000
0000
0000
0031
0000
1000
0000
0001
0000
,
0100
0000
0001
0000
1000
0000
0010
0000
0001
0000
0010
0000
1000
0000
0001
0010
,
0M00
0010
1000
0001
0100
0000
0010
0000
0100
0000
0010
0000
1000
0000
0010
0100
,
0010
0000
1000
0000
0001
0000
0010
0000
1000
0000
0010
0000
0001
0000
1000
0010
,
0M00
0010
0001
1000
0001
0000
0010
0000
0001
0000
0010
0000
0001
0000
0010
0000
,
1000
0000
0010
0000
0001
0000
0100
0000
1000
0000
0100
0000
0001
0000
1000
0010
,
0M00
0010
0000
0001
1000
0100
0010
0001
1000
0100
1000
0010
1000
0001
0010
0001
,
1000
0000
0000
0010
0000
0000
0100
0000
0000
0001
0000
0000
1000
0000
0000
0100
0000
0000
0010
0000
0000
0001
0000
0000
1000
0000
0000
0010
0000
0000
0100
0000
0000
0010
0000
0000
1000
0000
0100
0000
0010
0000
0001
0000
1000
0000
0010
0000
,
0100
0000
0001
0000
0010
0000
0100
0000
1000
0000
0001
0000
1000
0000
0000
0010
0000
0000
0100
0000
0000
0000
0000
0000
0001
0000
0000
0100
0000
0000
0010
0000
0000
0000
0000
0000
1000
0000
0000
0100
0000
0000
1000
0000
0000
0001
0000
0000
,
1000
0000
0001
0000
1000
0000
0010
0000
0110
0000
0100
0000
0001
0000
1000
0010
,
0M00
0010
0001
1000
0010
0000
0100
0000
1000
0000
0100
0000
0010
0000
1000
0000
,
1001
0000
0001
0000
1000
0000
0010
0000
0001
0000
0010
0000
1000
0000
0001
0100
,
00M0
0100
1000
0001
0100
0000
0010
0000
1000
0000
0010
0000
0100
0000
0010
0001
,
0010
0000
1000
0000
1001
0000
0001
0000
0010
0000
1000
0000
0010
0000
0001
0100
,
00M0
0100
0000
1000
0001
0000
0100
0000
0101
0000
0001
0000
1000
0000
0001
0010
,
0M00
0010
0000
1000
0001
0000
0010
0000
0011
0000
0001
0000
1000
0000
0001
0100
,
00M0
0100
0000
1000
0001
0000
0010
0000
0011
0000
0001
0000
0000
1000
0010
0100
,
0001
0000
1000
0000
1010
0000
0010
0000
0110
0000
0100
0000
0001
0000
1000
0100
,
00M0
0100
0001
1000
0010
0000
0100
0000
0101
0000
0001
0000
1000
0000
0010
0100
,
0010
0000
1000
0000
0001
0000
0010
0100
0010
0000
0100
1000
0001
0000
1000
0010
,
0M00
0010
0001
1000
0001
0000
0000
0101
0000
0000
0110
0000
0000
1010
0000
0000
,
1000
0000
1000
0000
1001
0000
0001
0000
0101
0000
0100
0000
0010
0000
1000
0100
,
00M0
0100
0000
0001
1000
0000
0100
0000
0101
0000
0100
0000
1000
0000
0001
0100
,
00M0
0100
0000
1000
0001
0000
0010
0000
1010
0000
0010
0000
0001
0000
1000
0100
,
00M0
0100
0000
0001
1000
0000
0100
0000
1000
0000
0001
0000
1000
0010
1000
0100
,
1000
0001
2002
0000
0000
0000
0000
0000
,
0000
0000
0000
0000
,
0000
0000
0000
0000
,
3003
0000
0000
0000
0001
0010
0100
1000
0001
0100
0010
1000
0001
0010
0100
1000
,
0001
0100
0010
1000
0010
0000
0100
0001
0100
0000
0001
0010
0001
0000
1000
0100
,
1000
0000
0000
0000
0001
0000
1000
0000
0001
0010
0000
0000
0001
0010
0000
0000
0100
1000
0000
0000
0100
1000
0000
0000
0001
0100
0000
0000
0001
0100
0000
0000
,
0010
0000
0000
1000
0000
0000
0000
0000
0000
0000
0000
0000
0010
0000
0000
0100
0000
0000
0000
0000
0000
0000
0000
0000
0001
0000
0000
0000
0010
0000
0000
0000
0100
0000
0000
0000
1000
0000
0000
0000
0001
0000
0000
0000
0100
0000
0000
0000
0010
0000
0000
0000
1000
0000
0000
0000
0001
0000
0000
0000
0010
0000
0000
0000
0001
0000
0000
0000
1000
0000
0000
0000
0010
0000
0000
0000
0100
0000
0000
0000
0001
0000
0000
0000
0010
0000
0000
0000
0100
0000
0000
0000
1000
0000
0000
0000
,
0001
0000
0100
0000
0010
0000
1000
0000
0001
0000
0010
0000
0001
0000
0000
0000
0000
0000
0000
0000
0000
0000
0000
0000
1000
0000
0000
0000
0000
0000
0001
0000
0000
0010
0000
0000
0100
0000
0000
0000
0000
0000
0000
0000
0000
0000
0000
0000
,
0100
0000
0000
0000
1001
0000
1000
0000
1100
0000
0100
0000
0010
0000
0001
0100
,
0100
1000
0010
0100
0001
0000
0010
0001
0010
0000
0001
0000
1000
0000
0001
0010
,
0100
0000
1000
0000
0001
0010
0100
0010
0100
0000
1000
0001
1000
0000
0001
0010
,
0010
1000
0010
0100
0001
0000
1000
0010
1000
0000
0001
0010
0100
0000
1000
0001
,
1000
0000
0000
0000
0100
0000
0000
0000
0110
0000
0000
0000
0010
0000
0001
0000
1000
0000
0000
0000
0001
0000
0100
0000
0010
0000
0000
0000
1000
0000
0100
00M0
,
0100
0000
0001
0000
0000
0000
0010
0000
0001
0000
0000
0000
0100
0000
0010
0000
0100
0000
0000
0000
0010
0000
1000
0000
0001
0000
0000
0000
1000
0000
0100
00M0
,
0100
0000
0001
0000
0000
0000
1000
0000
1100
0000
0000
0000
0100
0000
0010
0000
0001
0000
0000
0000
0010
0000
0001
0000
1000
0000
0000
0000
0001
0000
0100
00M0
,
0100
1000
0000
0100
1100
0000
1000
0000
1001
0000
0001
0000
0011
0000
0010
0001
,
1000
0000
0010
0000
0100
0000
0001
0000
1000
0000
0100
0000
0010
0000
0000
0000
0000
0000
0001
0000
0000
0100
0000
0000
1000
0000
0000
0000
0000
0000
0100
0000
0000
0010
0000
0000
0100
0000
0000
0000
0000
0000
0001
0000
0000
0100
0000
0000
,
0100
1000
0100
0010
0001
0000
1000
0100
0001
0000
0100
0000
0010
0001
1000
0010
,
1000
0000
0100
0000
1000
0000
0100
0001
0100
0000
0010
0001
1000
0000
0001
0010
,
0010
1000
0001
0010
0100
0000
0000
1100
0000
0000
1010
0000
0000
1001
0000
0000
,
0001
0000
1000
0000
1001
0000
0001
0000
0011
0000
0010
0000
0110
0000
0100
0010
,
000M
0010
0000
1000
1001
0000
0001
0010
0001
0000
1000
0001
0100
0000
0001
0100
,
00M0
0100
0000
1000
1001
0000
0001
0000
0101
0000
0100
0000
1010
0000
1000
0100
,
00M0
0100
0001
1000
0001
0000
0100
0010
1000
0000
0001
0010
0001
0000
1000
0000
,
0001
0010
0001
0000
1000
0100
1000
0000
0020
0000
0000
0000
0000
0000
0000
0000
0000
0000
0000
0000
0000
0000
0000
0000
0000
0000
0000
0000
0000
0000
0000
0000
,
0030
0000
0000
0000
;

//--------------- dance-double - ----------------
#NOTES:
     dance-double:
     :
     Hard:
     16:
     0,0,0,0,0:
00000000
00000000
00000000
00000000
,
00000000
00000000
00000000
00000000
,
00011000
00001000
01000000
00100000
01000000
00100000
00010000
00100000
,
01000000
00010000
10000000
00100000
02000000
00000000
00001000
00000000
,
03010000
00001000
00010000
00000100
00001000
00000100
00000010
00000100
,
00002000
00000000
00000001
00000000
00003020
00000000
00000130
00000001
,
00000100
00000010
00000001
00000010
00001000
00000010
00010000
00000010
,
00001000
00000010
00000100
00000010
00020000
00000000
00031000
00000000
,
00010000
00001000
01000000
00100000
00010000
00100000
01000000
00010000
,
20010000
30100000
02100000
03010000
,
00100000
00010000
00001000
00010000
00100000
00010000
01000000
00010000
,
00100000
00000000
00000000
00010000
00000000
00000000
00100000
00000000
00200000
00000000
00000000
00000000
00301000
00000000
00000000
00000000
,
00010000
00000100
00001000
00010000
00001000
00000100
00001000
00000100
,
00001100
00000000
00000000
00000110
00000000
00000000
00000011
00000000
00000000
00000101
00000000
00000000
00000200
00000000
00000300
00000000
,
00000110
00000010
00001000
00000100
00000010
00000100
00001000
00000100
,
00000010
00000001
00001000
00000100
00001000
00000010
00001000
00000100
,
00001000
00000000
00000001
00000010
00000001
00000000
00001000
00000100
00001000
00000000
00000010
00000100
00000010
00000000
00010000
00001000
,
00020000
00030000
00022000
00033000
,
00202000
00303000
02020000
03030000
,
20200000
30300000
22000000
33000000
,
10000000
00000000
00010000
00100000
00010000
00000000
01000000
00100000
01000000
00000000
00010000
00100000
00010000
00000000
00100000
00001000
,
00100000
00100000
00000010
00000010
00010000
00010000
00000010
00000010
,
00001000
00000100
00000010
00000001
00001000
00000010
00000100
00000001
00000010
00000100
00001000
00000010
00000100
00000001
00001000
00000100
,
00000010
00000001
00001000
00000010
00000100
00000001
00001000
00000100
00000010
00000001
00001000
00000010
00000100
00000001
00001000
00000100
,
00M01000
00000000
00000000
00000000
00001100
00000000
00000100
00000000
00000000
00000000
00100000
00000000
00000000
00001000
00000000
00000000
,
00100000
00000000
00000000
00010000
01000000
00000000
00100000
00000000
00000000
00000000
10000000
00000000
00000000
01000000
00000000
00000000
,
00100000
00000000
00010000
00100000
00010000
00000000
00100000
00000000
00000000
00000000
00001000
00000000
00000000
00010000
00000000
00000000
,
00000100
00000000
00001000
00000100
00000010
00000000
00000100
00000000
00000000
00000000
00001000
00000000
00000100
00000000
00000010
00000000
,
00000001
00000000
00000100
00000000
00000010
00000000
00010000
00000000
00000000
00000000
00000100
00000000
00000000
00000010
00000000
00000000
,
00000001
00000000
00001000
00000100
00001000
00000000
00000010
00000000
00000000
00000000
00100000
00000000
00000000
00010000
00000000
00000000
,
10000000
00000000
00010000
00100000
01000000
00000000
00100000
00000000
00000000
00000000
00010000
00000000
00000000
01000000
00000000
00000000
,
00001000
00000000
00010000
00001000
00000000
00010000
00000000
00000000
,
00001000
00000000
01000000
00000000
00010000
00000000
01000000
00000000
10000000
00000000
01000000
00000000
00010000
00000000
00100000
00001000
,
00000000
00100000
00001000
00100000
00001000
00000000
00010000
00000000
00000010
00000000
00000100
00000000
00000010
00000000
00001000
00000000
,
00000001
00000000
00000010
00000000
00000001
00000000
00000100
00000000
00001000
00000000
00000100
00000000
00000010
00000000
00010000
00001000
,
00000000
00010000
00001000
00100000
00010000
00000000
01000000
00000000
00100000
00000000
01000000
00000000
00010000
00000000
10000000
00000000
,
00001000
00000000
00001000
00000000
01000000
00000000
00100000
00000000
00010000
00000000
00100000
00000000
01000000
00000000
00010000
00100000
,
0M000000
00100000
00000000
10000000
00010000
00000000
01000000
00000000
00100000
00000000
00010000
00000000
00100000
00000000
01000000
00010000
,
00M00000
00010000
00000000
00001000
00010000
00000000
00000010
00000000
00001000
00000000
00000010
00000000
00001000
00000000
00000001
00000100
,
000000M0
00000100
00000000
00001000
00000010
00000100
00000010
00000000
00010000
00000010
00010000
00000000
00000000
00010000
00000010
00001000
,
00000010
00000000
00000100
00000000
00000101
00000000
00000001
00000000
00000100
00000000
00001000
00000000
00000100
00000000
00000010
00001000
,
00000000
00000100
00010000
00000100
00010000
00000000
00001000
00000000
01000000
00000000
00100000
00000000
10000000
00000000
00010000
00000000
,
01000000
00000000
00010000
00000000
01000000
00000000
00100000
00000000
00010000
00000000
00100000
00000000
01000000
00000000
00001000
00010000
,
00000000
00001000
00010000
00000100
00001000
00000000
00000010
00000000
00000100
00000000
00000001
00000000
00000010
00000000
00000100
00000000
,
00001000
00000000
00000100
00000000
00001100
00000000
00001000
00000000
00000100
00000000
00010000
00000000
00001000
00000000
00010000
00001000
,
00000M00
00001000
00000000
00000100
00010000
00000000
00001000
00000000
00100000
00000000
00010000
00000000
10000000
00000000
00010000
01000000
,
00M00000
01000000
00000000
10000000
00010000
00000000
00100000
00000000
00001000
00000000
00100000
00000000
00010000
00000000
00100000
00001000
,
000M0000
00001000
00000000
00000100
00010000
00000000
00000100
00000000
00000010
00000000
00000001
00000000
00000000
00001000
00000100
00000010
,
00000001
00000000
00001000
00000000
00001010
00000000
00000010
00000000
00000100
00000000
00001000
00000000
00000100
00000000
00000010
00001000
,
00000000
00000100
00010000
00000100
00010000
00000000
00001000
00000000
01000000
00000000
00100000
00000000
10000000
00000000
01000000
00000000
,
00100000
00000000
00001000
00000000
00010000
00000000
00001000
00000000
00000100
00000000
00001000
00000000
00100000
00000000
00010000
00100000
,
00000000
00001000
00010000
00001000
00010000
00000000
00000000
00011000
00000000
00000000
00001100
00000000
00000000
00000110
00000000
00000000
,
00000001
00000000
00001000
00000000
00001001
00000000
00000001
00000000
00001000
00000000
00000010
00000000
00000100
00000000
00000001
00000100
,
000000M0
00000100
00000000
00001000
00000001
00000000
00001000
00000000
00000100
00000000
00010000
00000000
00001000
00000000
00010000
00001000
,
00000M00
00001000
00000000
00000100
00010000
00000000
00001000
00000000
01000000
00000000
00100000
00000000
10000000
00000000
00100000
01000000
,
000M0000
01000000
00000000
10000000
00010000
00000000
01000000
00000000
00001000
00000000
00010000
00000000
00000000
00000010
00001000
00000001
,
00001000
00000010
00002002
00000000
00000000
00000000
00000000
00000000
,
00000000
00000000
00000000
00000000
,
00000000
00000000
00000000
00000000
,
00003003
00011000
00000000
10010000
,
00000000
00000000
10000000
00010000
10000000
00000000
01000000
00100000
00010000
00000000
00100000
01000000
10000000
00000000
00100000
01000000
,
00010000
00000000
00100000
00001000
00100000
00000000
00100000
00000000
00000010
00000000
00000010
00000000
00001000
00000000
00001000
00000000
,
00000001
00000000
00000001
00000000
00001000
00000100
00000010
00000001
00001000
00000010
00000100
00000001
00001000
00000100
00000010
00000001
,
00001000
00000010
00000100
00000010
00001000
00000000
00000000
00000000
00000001
00000000
00000000
00000000
00001000
00000000
00000000
00000000
,
00000010
00000000
00000000
00000000
00001000
00000000
00000100
00000000
00000001
00000000
00000100
00000000
00001000
00000000
00000010
00001000
,
00000000
00000001
00000010
00000100
00001000
00000000
00000100
00000000
00010000
00000000
01000000
00000000
00010000
00000000
00001000
00000000
,
01000000
00000000
00100000
00000000
10000000
00000000
00100000
00000000
00010000
00000000
00100000
00000000
01000000
00000000
00010000
00100000
,
00000000
00001000
00010000
00001000
00010000
00000000
00000010
00000000
00000100
00000000
00001000
00000000
00000100
00000000
00000001
00000000
,
00001000
00000000
00000100
00000000
00001100
00000000
00001000
00000000
00000100
00000000
00010000
00000000
00001000
00000000
00010000
00001000
,
00000M00
00001000
00000000
00000100
00010000
00000000
00001000
00000000
01000000
00000000
00100000
00000000
10000000
00000000
00010000
00100000
,
0M000000
00100000
00000000
10000000
00010000
00000000
00100000
00000000
00001000
00000000
00010000
00000000
00000001
00000000
00000100
00000010
,
0000M000
00000010
00000000
00000001
00001000
00000000
00000100
00000000
00001000
00000000
00000010
00000000
00000000
00001000
00000010
00000100
,
00000001
00001000
00000100
00010000
00000100
00000000
00010000
00000000
00100000
00000000
00010000
00000000
00001000
00000000
01000000
00100000
,
00000000
10000000
01000000
00100000
00010000
00000000
01000000
00000000
10000000
00000000
01000000
00000000
00010000
00000000
00001000
00000000
,
00000010
00000000
00000001
00000000
00000010
00000000
00000100
00000000
00000010
00000000
00001000
00000000
00000001
00000000
00001000
00000100
,
00000000
00001000
00000010
00000000
00001010
00000000
00000000
00001100
00000000
00000000
00011000
00000000
00000000
00110000
00000000
00000000
,
00010000
00000000
01000000
00000000
00010000
00000000
10000000
00000000
00100000
00000000
10000000
00000000
00010000
00000000
01000000
00100000
,
000M0000
00100000
00000000
00010000
10000000
00000000
00100000
00000000
01000000
00000000
00010000
00000000
00100000
00000000
00010000
00100000
,
0M000000
00100000
00000000
01000000
00001000
00000000
00010000
00000000
00000010
00000000
00001000
00000000
00000001
00000000
00001000
00000010
,
00000M00
00000010
00000000
00000001
00001000
00000100
00000010
00000000
00000001
00000000
00001000
00000100
00001000
00000000
00000010
00010000
,
00001000
00010000
00220000
00000000
00000000
00000000
00000000
00000000
,
00330000
00000000
00000000
00000000
;
