#TITLE:polygon_girl;
#SUBTITLE:;
#ARTIST:Z-I-v SOUND TEAM "Kaystar";
#TITLETRANSLIT:;
#SUBTITLETRANSLIT:;
#ARTISTTRANSLIT:;
#GENRE:;
#CREDIT:KAYSTAR;
#MUSIC:polygon_girl.ogg;
#BANNER:polygon_girlbn.png;
#BACKGROUND:polygon_girlbg.png;
#CDTITLE:;
#SAMPLESTART:26.833;
#SAMPLELENGTH:10.000;
#SELECTABLE:YES;
#OFFSET:0.000;
#BPMS:0.000=90.000
,20.000=180.000
,92.000=90.000
,108.000=180.000
,124.000=45.000
,125.000=90.000
,126.000=180.000
,128.000=360.000
,136.000=720.000
,152.000=180.000
,286.000=90.000
,294.000=87.157
,294.500=81.530
,295.000=75.903
,295.500=70.275
,296.000=64.647
,296.500=59.018
,297.000=53.388
,297.500=47.757
,298.000=45.000
;
#STOPS:20.000=0.667
,152.000=0.667
;
#DISPLAYBPM:90.000:180.000;
#BGCHANGES:15.938=polygon_girl.avi=1.000=0=0=1===CrossFade_Fastest==,
298.000=polygon_girlbg.png=1.000=0=0=1,
99999.000=-nosongbg-=1.000=0=0=0=StretchNoLoop====
;
#FGCHANGES:;

//--------------- dance-single - KAYSTAR ----------------
#NOTES:
     dance-single:
     KAYSTAR:
     Beginner:
     4:
     0,0,0,0,0:
0000
0000
0000
0000
,
0000
0000
0000
0000
,
0000
1000
0000
0000
,
0001
0000
1000
0000
,
0020
0000
0030
0000
,
0000
0000
0000
0000
,
0000
0000
1000
0000
,
0000
0001
0001
0000
,
0000
0010
0010
0000
,
0000
0001
0000
1000
,
1000
0000
0010
0000
,
0100
0000
0001
0001
,
0000
0010
0000
0001
,
0000
1000
0000
1000
0000
1000
0000
2000
,
0000
0000
3000
1000
,
0000
0001
0001
0001
,
0000
0010
0000
0100
,
0100
0100
0000
1000
,
1000
1000
0001
0001
,
0001
0000
0100
0100
,
0100
0000
0010
0000
,
1000
0000
0000
0001
0000
0001
0000
0001
,
0000
0002
0000
0000
0000
0000
0003
0000
,
0001
0000
0000
0010
,
0010
0000
0000
0001
,
1000
0000
0000
1000
,
0001
0000
0000
0000
0100
0100
0100
0000
,
0000
0010
0010
0010
,
0000
0100
0100
0000
,
0000
0001
0001
0001
,
1000
1000
0000
0000
,
2002
0000
0000
0000
,
0000
0000
0000
0000
,
0000
0000
0000
0000
,
0000
0000
0000
0000
,
0000
0000
0000
0000
,
0000
0000
0000
0000
,
0000
0000
0000
0000
,
3003
0000
0000
0000
,
1000
1000
0001
0001
,
0010
0000
0001
0000
,
0100
0100
0010
0010
,
1000
0100
0010
0001
,
0000
1001
1000
1000
,
0001
0001
1000
0010
,
0100
0000
0001
1000
,
0200
0000
0300
0000
,
1000
0001
0010
0010
,
1000
0001
0100
0100
,
1000
0100
0001
0100
,
1000
0010
0100
0001
,
0010
0100
0010
0001
,
1000
0000
0100
0000
1000
0000
0000
0020
,
0000
0000
0000
0030
0100
0000
0001
0000
,
0010
0100
0000
0000
,
1000
0000
0001
0001
,
1000
0000
0001
0000
,
0010
0000
0100
0100
,
0010
0010
0000
0001
,
0001
0000
0100
0000
,
0010
0010
0000
1000
,
0000
0000
0100
0000
0000
0010
0000
0010
,
0000
0010
0000
0020
0000
0000
0000
0000
,
0030
0010
0000
0100
,
0100
0000
1000
0000
,
0010
0010
0100
0000
,
0001
0000
0000
0000
,
0000
0000
1000
0000
,
0001
0001
0010
0000
,
0100
0000
0000
0000
1000
0000
0000
0010
,
0000
0010
0000
0010
0000
0020
0000
0000
,
0000
0000
0030
0000
,
0000
0000
1000
0000
,
0001
0000
0100
0000
,
0000
0000
0010
0000
;

//--------------- dance-single - KAYSTAR ----------------
#NOTES:
     dance-single:
     KAYSTAR:
     Easy:
     10:
     0,0,0,0,0:
0000
0000
0000
0000
,
0000
0000
0000
0000
,
0000
0000
0001
0000
0000
0000
0010
0100
,
1000
0000
0000
0001
0000
0000
1000
0000
0010
0000
0100
0000
0001
0000
1000
0000
,
0200
0010
0000
0310
,
0000
0000
0000
0000
,
0000
0000
0000
0000
0001
0100
0000
0000
,
0001
0000
1000
0000
0100
1000
0000
0000
,
0001
0000
0100
0000
0010
1000
0000
0000
,
0001
0010
0100
0100
,
0100
0010
0010
0000
,
1001
0001
0010
0100
,
1000
0001
0100
1000
,
0000
0200
0000
0320
0000
2030
0000
0002
,
0000
0000
0000
0000
3003
0000
1000
0001
,
1000
0000
0100
0000
1000
0000
0001
1000
,
0001
0100
0010
2000
,
3200
0320
0032
0103
,
0100
0100
0010
0010
,
1000
0000
0000
0100
0010
0000
0001
0000
,
0200
0320
2030
3002
,
0013
0000
0000
0200
0000
0302
0000
0203
,
0000
0020
0000
0000
0000
0000
0000
0000
,
0330
0000
0000
0000
0000
0001
0100
0010
,
1000
0000
0000
0000
0000
0000
0001
1000
0000
0000
0000
0000
0100
0000
0010
0000
,
0002
0103
2000
3100
,
0001
0100
0010
1000
0100
0001
0100
1000
,
0000
0001
0100
0101
,
1000
1001
0020
0000
,
0030
1000
0100
1100
,
0001
1001
0000
0000
,
2002
0000
0000
0000
,
0000
0000
0000
0000
,
0000
0000
0000
0000
,
0000
0000
0000
0000
,
0000
0000
0000
0000
,
0000
0000
0000
0000
,
0000
0000
0000
0000
,
3003
0000
0000
0000
1000
0100
0010
0001
,
1000
0000
0010
0100
0001
0000
0100
0010
,
1000
0001
1000
0001
1000
0100
0000
0010
,
0001
1000
0000
0010
1000
0001
0000
0010
,
0200
0000
1300
0001
1000
0001
0100
0010
,
1000
0100
1001
0110
,
1001
1001
0110
1001
,
2000
0000
3010
1000
0001
1000
0010
0100
,
0002
0000
0000
0000
0000
0000
0000
0003
,
1000
1000
0001
1000
1000
0001
0100
0000
,
0001
0001
1000
0001
0001
1000
0100
0000
,
0010
0100
0010
0100
0010
0100
0010
0100
,
0010
0001
1000
0010
,
0100
0010
0100
0010
0100
0010
0100
0000
,
0001
1000
0100
1000
0001
0100
0000
0020
,
0000
0000
1030
0100
,
0002
0103
0000
0000
,
1000
0010
0001
0100
,
1000
0010
0001
0000
,
1000
0100
0001
0010
,
0001
1000
0001
1000
0001
0000
1000
0001
,
1000
0001
0000
0000
1000
0000
0100
0000
,
0001
0010
1000
0100
,
0000
0000
1000
0000
0000
0020
0000
0230
,
0000
0302
0000
2000
0000
0000
0000
0000
,
3003
0000
1000
0100
1000
0000
0100
0000
,
1100
0000
1000
0000
1100
0000
0100
1000
,
0001
0100
0101
0001
,
0101
0000
0000
0000
,
0000
0000
1000
1010
,
0010
1000
0001
0000
0010
0000
0011
0000
,
0001
1000
0010
0000
0100
0000
0001
0000
,
0010
1000
0020
0100
,
0100
0100
0130
0000
,
0000
0000
0001
1000
,
0001
1000
0020
0000
,
0000
0000
0200
0000
,
0330
0000
0000
0000
;

//--------------- dance-single - KAYSTAR ----------------
#NOTES:
     dance-single:
     KAYSTAR:
     Medium:
     14:
     0,0,0,0,0:
0000
0000
0000
0000
,
0000
0000
0000
0000
,
0002
0000
0013
0000
0000
0000
0001
1000
,
0010
0000
0000
0100
0000
0000
0001
0000
1000
0100
0010
0000
0001
0000
0100
0000
,
0010
0000
0000
0000
1000
0000
0000
0001
0000
0000
0001
0000
0010
0000
0000
0000
,
MMMM
0000
0000
0000
,
0001
1000
0100
0000
1000
0001
0000
0100
,
0010
1000
0100
0000
1000
0001
0000
1000
,
0100
1000
0020
0000
0130
1000
0000
0100
,
0001
1000
0001
0000
1000
0010
1000
0100
,
1000
0000
0001
0010
0001
0100
0010
1000
,
1001
0000
0001
0010
0100
0000
1000
0001
,
0100
0010
0100
0001
2000
0000
3100
0001
,
0100
0010
0000
0011
0000
1001
0000
2020
,
0000
0000
0000
0000
0030
0000
3001
0100
,
0000
1000
0100
0001
0010
0001
1000
0100
,
1000
0001
0100
0001
0010
1000
0001
0100
,
1000
0010
0100
0001
0020
0000
0031
0100
,
1000
0100
0010
0000
1000
0100
0001
0100
,
0010
0001
0000
1000
0010
0001
2000
0000
,
3100
0001
1000
0100
0010
0001
2000
0000
,
3100
0010
1000
0010
0000
0110
0000
1001
,
0000
0202
0000
0000
0000
0000
0303
0000
,
0120
0000
0000
0000
0000
1030
0100
0010
,
1001
0000
0001
0010
0100
0000
1000
0010
0000
0000
0100
0001
0010
0000
0001
0000
,
2001
0000
0000
0000
0100
0000
0000
0001
0000
0000
3100
0010
0001
0000
0100
0000
,
1002
0000
0103
0000
2001
0000
3100
0000
1001
0000
1000
0001
0001
1000
0010
0100
,
0000
0000
0001
0100
1000
0000
0100
0000
,
0001
0100
1000
0000
0200
0000
0000
0000
,
0301
0000
1000
0100
0001
0000
0100
0000
,
0001
0100
1000
0000
0000
0000
0001
0000
,
0220
0000
0000
0000
,
M000
000M
M000
000M
,
M000
000M
M000
000M
,
M000
000M
M000
000M
,
M000
000M
M000
000M
,
M000
000M
M000
000M
,
M000
000M
M000
000M
,
0330
0000
0000
0000
0000
0000
0000
0000
1000
0001
0100
0000
0010
0100
0010
0100
,
0001
0000
1000
0001
0010
0000
0100
0000
0001
0000
0100
0010
0000
0010
0001
0000
,
1000
0000
0010
0000
0100
0010
1000
0000
0001
0000
0010
0000
0001
0000
0100
0001
,
0000
0001
1000
0000
0100
1000
0000
1000
0001
0000
0100
0010
0000
0010
1000
0000
,
0100
0000
0010
0000
0001
1000
0001
0000
1000
0010
1000
0000
0010
0100
0010
0000
,
0001
0000
0000
0000
0000
0000
0010
0000
0000
0100
0000
0000
0002
0000
0000
0000
0000
0000
0000
0000
0000
0000
0000
0000
1003
0000
0000
0000
0100
0000
0000
0000
1000
0000
0000
0000
0001
0000
0000
0000
0100
0000
0000
0000
0001
0000
0000
0000
,
1000
0010
1000
0001
0100
0010
1000
0001
1000
0100
0010
0001
,
0200
0000
0000
0000
0310
0000
1000
0000
0100
1000
0100
0000
0010
0100
0010
0000
,
0002
1000
1003
0100
1000
0001
1001
0000
,
0001
0000
0010
0100
1000
0000
0001
0000
0010
0100
1000
0000
0001
0000
0100
0010
,
1000
0000
0001
0000
0000
0110
0000
0000
1001
0000
1000
0000
0010
0000
0100
0000
,
0001
0000
1000
0100
0000
0010
0001
0000
1000
0100
0000
0010
0001
0000
1000
0001
,
1000
0000
0010
0000
1000
0000
0100
0000
0001
0000
0100
0000
0010
0000
0001
1000
,
0001
0000
0100
0000
0000
1001
0000
0000
0110
0000
0001
0000
0010
0000
0100
0000
,
1000
0000
0010
1000
0000
0001
0100
0000
0010
0000
1000
0100
0000
0000
0020
0000
,
0000
0000
1000
0000
0000
0000
0130
0010
0100
0000
1000
0000
0001
0000
0100
0010
,
1000
0000
0001
1000
0001
0000
0100
0000
0001
1000
0001
1000
0001
1000
0001
1000
,
0200
0010
1000
0310
,
0012
1000
0103
MMMM
,
0201
0010
1000
0310
,
1000
0001
1000
0001
0010
0000
0001
1000
,
0001
0000
1000
0001
0100
0000
0000
0000
2010
0000
0000
0000
0001
0000
0000
0000
,
3100
0120
1000
0031
,
MMMM
0000
1000
0010
0100
0001
0000
0011
,
0000
1100
0000
2020
0000
0000
0000
0000
,
0030
0000
3001
0100
1000
0100
0010
1000
,
0001
0010
0100
0001
0100
1000
0010
0001
,
1000
0100
0001
0010
0100
0001
0100
1000
,
0020
0130
0000
0000
,
0001
1000
0010
1000
0001
0010
0000
0001
,
0100
1000
0002
0000
0013
1000
0001
1000
,
0100
0010
0002
0000
1003
0010
0100
1000
,
0100
0001
0010
1000
0010
0100
1000
0001
,
0100
0010
1000
0001
0020
0000
0000
0000
,
0000
0000
0000
0000
0000
0000
0000
0000
0130
0000
0000
0000
2000
0000
0000
0100
,
0000
0100
3001
0000
0200
0000
0000
0000
,
0000
0000
0020
0000
,
0330
0000
0000
0000
;

//--------------- dance-single - KAYSTAR ----------------
#NOTES:
     dance-single:
     KAYSTAR:
     Hard:
     17:
     0,0,0,0,0:
0000
0000
0000
0000
,
0000
0000
0000
0000
,
2000
0000
3010
0000
0000
0000
0100
0001
,
0020
0000
0000
0100
0000
0000
0031
0000
0100
0010
1000
0000
0100
0000
0001
0000
,
0200
0000
0000
0000
1300
0000
0001
0200
0000
0000
0010
0000
0301
0000
0000
0000
,
MMMM
0000
0000
0000
,
1000
0000
0001
0000
0100
0010
0100
0000
0001
0000
1000
0000
0000
0000
0100
0010
,
0001
0000
1000
0000
0020
0000
0000
0000
0130
0000
1000
0000
0000
0000
0100
0010
,
1000
0000
0001
0000
0020
0000
0000
0000
0130
0000
0001
0000
0000
0000
0100
0010
,
0001
0000
1000
0100
0020
0000
0000
0000
0031
0000
0100
0000
1000
0000
0100
0000
,
0001
0000
1000
0100
0001
0100
0010
0001
,
1001
0000
1000
0100
0020
0000
1030
0010
,
0100
0000
1000
0100
0010
0000
0001
0000
2000
0000
0000
0000
3010
0000
0001
0000
,
0010
0200
0000
0302
0000
1003
0000
2002
,
0000
0000
0000
0000
0000
0000
0000
0000
3003
0000
0001
0100
0010
0000
1000
0000
,
0000
0000
0001
1000
0100
0000
1000
0001
0010
0000
0001
0000
0100
0000
0010
0000
,
1000
0000
0100
1000
0000
0100
0010
0000
0001
0010
0100
0000
1000
0000
0010
0000
,
0100
0000
0001
0100
0010
0000
0100
0010
1000
0000
0000
0000
0001
0000
0010
0000
,
1000
0010
0100
0000
1000
0010
0001
0010
,
0100
0000
0001
0000
0000
0000
1000
0001
0010
0000
0001
1000
0020
0000
0000
0000
,
0031
0000
0010
0000
1000
0000
0010
0100
0001
0000
1000
0000
0002
0000
0000
0000
,
0013
1000
0010
0200
0000
2300
0000
3020
,
0000
1030
0001
0010
0100
1000
0100
0010
,
0002
0000
1003
0000
0000
0010
0100
0001
,
1001
0000
1000
0100
0010
0000
0100
0001
0000
0000
0100
1000
0001
0000
0110
0000
,
1001
0000
1000
0010
0100
0000
0001
0010
0000
0000
1000
0010
0100
0000
1000
0000
,
1001
0000
0000
0000
0010
0000
0000
0000
1001
0000
0000
0000
0100
0000
0000
0000
1001
0000
0000
0000
1000
0000
0001
0000
0001
0000
1000
0000
0001
0010
0100
1000
,
0000
0000
0001
0100
0110
0000
1001
0000
,
1000
0000
0100
0000
0110
0000
0000
0000
0001
0000
1000
0010
0000
0100
0000
0000
,
0000
0000
0001
0010
0110
0000
1001
0000
,
1000
0010
0110
0000
0000
0000
1000
0000
,
0220
0000
0000
0000
,
M000
000M
M000
000M
,
M000
000M
M000
000M
,
M000
000M
M000
000M
,
M000
000M
M000
000M
,
M000
000M
M000
000M
,
M000
000M
M000
000M
,
0330
0000
0000
0000
0000
0000
0000
0000
0001
1000
0100
1000
0001
0100
0001
1000
,
0010
0000
0100
0001
0010
0000
0100
1000
0010
0000
1000
0001
0000
0100
0010
0100
,
0001
0000
1000
0001
0000
0010
0100
1000
0001
0000
0100
0000
0010
0000
1000
0100
,
0000
1000
0010
1000
0000
0001
0010
0001
0100
0000
0010
1000
0000
0001
1000
0200
,
0000
0000
0301
0000
0100
0010
0001
0000
1000
0010
0100
0000
0001
0010
0001
1000
,
0100
0000
0000
1000
0001
1000
0020
0000
0000
0030
0000
0000
1000
0000
0100
0000
0100
0000
0001
0000
0100
0000
0100
0000
,
1000
0100
0010
0001
0100
0010
1000
0100
0010
1000
0010
0100
,
2000
0000
0000
0000
3001
0000
0100
0000
0010
1000
0001
0010
0100
0010
0001
1000
,
0010
0100
1001
0000
1100
0110
0011
0000
,
0001
0100
0010
0100
0001
0000
1000
0010
0100
0010
1000
0000
0001
1000
0100
0010
,
0001
0000
1000
0001
0100
0000
0001
1000
0100
0000
1000
0001
0000
0100
0001
1000
,
0010
0000
1000
0100
0000
0001
0100
0000
1000
0100
0000
0001
0100
0000
0010
0001
,
1000
0000
0010
0100
0001
0000
1000
0100
0010
0000
0100
1000
0001
0000
0100
0001
,
0010
0000
0000
0000
0000
0000
0000
0000
0000
0000
0000
0000
0000
0000
0000
0000
0000
0000
0000
0000
0000
0000
0000
0000
0100
0000
0000
0000
0000
0000
0000
0000
0000
0000
0000
0000
1000
0000
0000
0000
0000
0000
0000
0000
0000
0000
0000
0000
0000
0000
0000
0000
0000
0000
0000
0000
0000
0000
0000
0000
0001
0000
0000
0000
0000
0000
0000
0000
0000
0000
0000
0000
0100
0000
0000
0000
0000
0000
0000
0000
0000
0000
0000
0000
0000
0000
0000
0000
0000
0000
0000
0000
0000
0000
0000
0000
0001
0000
0000
0000
0000
0000
0000
0000
0000
0000
0100
0000
0000
0000
0000
0000
0000
0000
0000
0010
0000
0000
0000
0000
0000
0000
0000
0000
0000
0100
0000
0000
0000
0000
0000
0000
0000
0000
0010
0000
0000
0000
0000
0000
0000
0000
0000
0000
1000
0000
0000
0000
0000
0000
0000
0000
0000
0000
0000
0000
0000
0000
0000
0000
0000
0000
0000
0000
0000
0000
0000
0000
0010
0000
0000
0000
0000
0000
0000
0000
0000
0000
0000
0000
0100
0000
0000
0000
0000
0000
0000
0000
0000
0000
0000
0000
,
0001
0000
0100
1000
0000
0100
0001
0000
1000
0000
0100
1000
0000
0000
0020
1000
,
0001
0000
0001
1030
0010
0000
0100
0001
1000
0100
1000
0001
0100
0010
1000
0001
,
0020
0000
0031
1000
0010
0100
0001
0010
0100
0010
0100
0010
0100
1000
0010
0100
,
0002
0003
0000
0000
0000
0000
0000
0000
0000
0000
0000
0000
2200
3300
0000
0000
0000
0000
0000
0000
0000
0000
0000
0000
0202
0303
0000
0000
0000
0000
0000
0000
0000
0000
0000
0000
2200
3300
0000
0000
0000
0000
0000
0000
0000
0000
0000
0000
,
0022
0033
0000
0000
0000
0000
0000
0000
0000
0000
0000
0000
2020
3030
0000
0000
0000
0000
0000
0000
0000
0000
0000
0000
0022
0033
0000
0000
0000
0000
0000
0000
0000
0000
0000
0000
MMMM
0000
0000
0000
0000
0000
0000
0000
0000
0000
0000
0000
,
2200
3300
0000
0000
0000
0000
0000
0000
0000
0000
0000
0000
0202
0303
0000
0000
0000
0000
0000
0000
0000
0000
0000
0000
2200
3300
0000
0000
0000
0000
0000
0000
0000
0000
0000
0000
0202
0303
0000
0000
0000
0000
0000
0000
0000
0000
0000
0000
,
1000
0000
0000
0000
0000
0000
0010
0000
0000
0000
0000
0000
0001
0000
0000
0000
0000
0000
0010
0000
0000
0000
0000
0000
0200
0300
0000
0000
0000
0000
0000
0000
0000
0000
0000
0000
0001
0000
0000
0000
0000
0000
0010
0000
0000
0000
0000
0000
,
1000
0000
0000
0000
0000
0000
0010
0000
0000
0100
0000
0000
1000
0000
0000
0000
0000
0000
0000
0000
0000
0000
0000
0000
2200
3300
0000
0000
0000
0000
0000
0000
0000
0000
0000
0000
0202
0303
0000
0000
0000
0000
0000
0000
0000
0000
0000
0000
,
0022
0033
0000
0000
0000
0000
0000
0000
0000
0000
0000
0000
0202
0303
0000
0000
0000
0000
0000
0000
0000
0000
0000
0000
2200
3300
0000
0000
0000
0000
0000
0000
0000
0000
0000
0000
2020
3030
0000
0000
0000
0000
0000
0000
0000
0000
0000
0000
,
MMMM
0000
1000
0001
0100
0020
0000
2030
,
0000
3100
0000
2002
0000
0000
0000
0000
,
3003
0000
1000
0010
0100
0000
0001
0000
0000
0000
1000
0001
0100
0000
0001
1000
,
0010
0000
1000
0000
0100
0000
0001
0000
0100
0000
0010
0001
0000
0001
1000
0000
,
0001
1000
0010
0000
0100
0000
1000
0000
0100
0000
0010
0100
0001
0000
0100
0010
,
1000
0000
0200
0302
0203
2300
3020
0230
,
0302
2003
3100
1000
0010
0100
1001
0000
,
0001
0000
1000
0001
0020
0000
0000
0000
1030
0000
0010
0000
0100
0000
0010
0001
,
1000
0001
0200
0000
1300
0100
0010
2000
,
0000
0000
3002
0000
0000
0000
0023
0000
0000
0000
0130
0000
1000
0001
1000
0000
,
0010
0000
1000
0001
1000
0000
0001
0010
0200
0000
0000
0000
0000
0000
0000
0000
,
0000
0000
0000
0000
0301
0000
0100
0000
2000
0000
0000
0000
0010
0000
0000
0001
,
0000
3001
0010
0000
0200
0000
0000
0000
,
0000
0000
2000
0000
,
3300
0000
0000
0000
;

//--------------- dance-double - KAYSTAR ----------------
#NOTES:
     dance-double:
     KAYSTAR:
     Easy:
     12:
     0,0,0,0,0:
00000000
00000000
00000000
00000000
,
00000000
00000000
00000000
00000000
,
00002000
00000000
00013000
00000000
00000000
00000000
01000000
10000000
,
00020000
00000000
00000000
10000000
00000000
00000000
01030000
00000000
00100000
00000000
10000000
00000000
01000000
00000000
00100000
00000000
,
00002000
00000000
00000000
00000000
00013000
00000000
00001000
00020000
00000000
00000000
00001000
00000000
00031000
00000000
00000000
00000000
,
00000000
00000000
00000000
00000000
,
00000000
00000000
00000000
00000000
00001000
00010000
00000000
00000000
,
00001000
00000000
00100000
00000000
00001000
00010000
00000000
00000000
,
00010000
00000000
00000020
00000000
00001030
00000001
00000000
00000000
,
00000100
00000000
00001000
00000000
00010000
00001000
00010000
00001000
,
01000000
00000000
00001000
00010000
00001000
00010000
00000000
00000000
,
00000100
00000010
00000001
00000100
,
00001000
00010000
00012000
00103000
,
01000000
10000000
00000000
00100000
00000000
00020000
00000000
00002000
,
00000000
00000000
00000000
00000000
00033000
00000000
00010000
00001000
,
00000000
00000000
00000000
00000000
00010000
00000000
00000000
00010000
00000010
00000000
00000000
00000010
00001000
00000000
00000000
00000000
,
00000001
00000001
00000010
00000000
00000100
00000000
00010000
00000000
,
00001000
00000000
00000000
00001000
01000000
00000000
00000000
01000000
00010000
00000000
00000000
00000000
10000000
00000000
01000000
00000000
,
10000000
01000000
10000000
00000000
00010000
01000000
00010000
01000000
,
00001000
00010000
00000100
00000010
,
00000001
00000100
00001000
00021000
,
00030010
00000000
00000100
00000001
00000000
00000010
00000000
00002000
,
00000000
00020000
00000000
00000000
00000000
00000000
00033000
00000000
,
00012000
00000000
01003000
00000000
00000000
00100000
10000000
00010000
,
00100000
00001000
00010000
00000000
00000000
00000010
00001000
00000100
,
00010100
00000000
00011000
00000000
01001000
01000000
00010000
00100000
,
00101000
00000000
00011000
00000000
00010010
00010000
00001000
00100000
,
00000000
00000000
01000000
00100000
01000000
00000000
01100000
00000000
,
00100000
00001000
00010000
00000000
00022000
00000000
00033000
00000000
,
00000000
00000000
00001000
00010000
00000010
00000000
00000110
00000000
,
00000100
00000010
00000100
00000000
00000000
00000000
00002000
00000000
,
00020000
00000000
00000000
00000000
,
00000000
00000000
00000000
00000000
,
00000000
00000000
00000000
00000000
,
00000000
00000000
00000000
00000000
,
00000000
00000000
00000000
00000000
,
00000000
00000000
00000000
00000000
,
00000000
00000000
00000000
00000000
,
00033000
00000000
00000000
00000000
00010000
00001000
00100000
00001000
,
00010000
00000100
00001000
00000001
00000100
00000010
00001000
00000010
,
00010000
00001000
00100000
00010000
10000000
00200000
00000000
00310000
,
00100000
01000000
00001000
00010000
00000100
00001000
00000010
00000200
,
00000000
00001300
00010000
00001000
00100000
01000000
10000000
00100000
,
01000000
00000000
10010000
00000000
00010000
00100000
00001000
00010000
,
00000010
00001000
00000100
00001000
00000010
00000100
00000001
00000010
,
00000200
00000000
00000301
00000100
00001000
00010000
00100000
01000000
,
20000000
00000000
30100000
00000000
01000000
00001000
00010000
00000000
,
00001000
00010000
01000000
00010000
00001000
00010000
01000000
10000000
,
00100000
01000000
00010000
01000000
00001000
00010000
00000100
00000010
,
00000001
00000100
00001000
00000100
00000001
00000100
00001000
00000100
,
00000001
00001000
00000010
00010000
00001000
00100000
01000000
10000000
,
00200000
00000000
01300000
00001000
00010000
00001000
00000010
00001000
,
00010000
00000000
01000000
00000000
10000000
00000000
01000000
00000000
00200000
00000000
00000000
00320000
00000000
00000000
00002000
00000000
,
00000000
00000000
00033000
00010000
00100000
00001000
00010000
00000010
,
00000100
00001000
00000100
00000010
00010000
00001000
00010000
00001000
,
00011000
00011000
00011000
00101000
,
00011000
00011000
00011000
00000000
,
01001000
01001000
00010100
00010100
,
00010000
00001000
00010000
00001000
01000000
00000000
00001000
00010000
,
00001000
00010000
00000000
00000000
00011000
00000000
00101000
00000000
,
00011000
00010010
00011000
00011000
,
00000000
00000000
00010000
00000000
00001000
00100000
00000000
01000000
,
00000000
20000000
00000000
00020000
00000000
00000000
00000000
00000000
,
30030000
00000000
00000000
00000000
10000000
00000000
00010000
00000000
01000000
00000000
00000000
00000000
00001000
00000000
00000000
00001000
,
00010000
00000000
00000000
00010000
00000100
00000000
00001000
00000000
00000001
00000000
00000000
00000000
00000100
00000000
00000010
00000000
,
00001000
00000000
00000000
00000000
00000100
00000000
00000000
00000000
00010000
00000000
00000000
00010000
00001000
00000000
00000000
00001000
,
01000000
00200000
00000000
00300000
,
10000000
00100000
10000000
00010000
00100000
00001000
00000000
00000000
,
00010000
00000000
00000020
00000000
00000130
00000001
00001000
00000000
,
00000100
00001000
00000001
00000000
00000100
00000010
00001000
00000010
,
00000000
00010000
00000000
00001000
00000000
00200000
00000000
00000000
,
00000000
00000000
01300000
00000000
,
00000000
00000000
00020000
00100000
,
10000000
01030000
00002000
00000000
,
00000000
00000000
00020000
00000000
,
00033000
00000000
00000000
00000000
;

//--------------- dance-double - KAYSTAR ----------------
#NOTES:
     dance-double:
     KAYSTAR:
     Medium:
     15:
     0,0,0,0,0:
00000000
00000000
00000000
00000000
,
00000000
00000000
00000000
00000000
,
00002000
00000000
00013000
00000000
00000000
00000000
00000100
00000010
,
00000002
00000000
00000000
00000103
00000000
00000000
00000010
00000000
00001000
00000010
00010000
00000000
00001000
00000000
00100000
00000000
,
02000000
00000000
00000000
00000000
00010000
00000000
00000000
00100000
00000000
00000000
00100000
00000000
13000000
00000000
00000000
00000000
,
MMMMMMMM
00000000
00000000
00000000
,
10000000
01000000
00100000
00000000
00001000
00010000
00000000
00000100
,
00010000
00001000
00000020
00000000
00001030
00010000
00000000
00000100
,
00001000
00010000
00200000
00000000
00301000
00010000
00000000
00001000
,
00100000
01000000
10000000
00000000
00100000
01000000
00010000
01000000
,
00001000
00000000
00010000
00000100
00001000
00000100
00000010
00000001
,
00000100
00000000
00001000
00010000
00200000
00000000
00310000
00001000
,
00100000
00010000
10000000
00100000
02000000
00000000
03010000
00100000
,
01000000
20000000
00000000
30200000
00000000
00320000
00000000
00032000
,
00000000
00000000
00000000
00000000
00000000
00000000
00003010
00000001
,
00000000
00000100
00001000
00000100
00000010
00001000
00000100
00010000
,
00001000
00100000
01000000
10000000
00100000
00010000
00100000
01000000
,
00010000
01000000
00001000
00010000
00000020
00000000
00001030
00000100
,
00000001
00000100
00001000
00000000
00000100
00010000
00001000
00010000
,
00100000
01000000
00000000
00010000
01000000
00001000
00020000
00000000
,
00030100
00000010
00000001
00000100
00000010
00010000
00002000
00000000
,
01003000
10000000
01000000
00200000
00000000
20300000
00000000
32000000
,
00000000
00200000
00000000
00000000
00000000
00000000
03300000
00000000
,
00010000
00000000
00000000
00000000
00000000
00100000
00001000
00010000
,
00000100
00000000
00000010
00000001
00000100
00000000
00000000
00001000
00000000
00000000
00000100
00000010
00001000
00000000
00000010
00000000
,
00011000
00000000
00000000
00000000
00100000
00000000
00000000
11000000
00000000
00000000
01000000
10000000
00100000
00000000
01000000
00000000
,
00011000
00000000
00101000
00000000
00010010
00010000
00101000
00001000
,
00010000
00000000
00000010
00001000
00000100
00000000
00011000
00000000
,
00100000
00010000
01000000
00000000
00002000
00000000
00003000
00000000
,
00000000
00000000
00010000
00000010
00100000
00000000
00011000
00000000
,
01000000
00000100
01000000
00000000
00000000
00000000
00002000
00000000
,
00020000
00000000
00000000
00000000
,
00M00000
00000M00
00M00000
00000M00
,
00M00000
00000M00
00M00000
00000M00
,
00M00000
00000M00
00M00000
00000M00
,
00M00000
00000M00
00M00000
00000M00
,
00M00000
00000M00
00M00000
00000M00
,
00M00000
00000M00
00M00000
00000M00
,
00033000
00000000
00000000
00000000
00000000
00000000
00000000
00000000
00010000
00001000
00010000
00000000
00001000
00100000
00010000
00000000
,
10000000
00000000
00100000
01000000
00010000
00000000
01000000
00100000
10000000
00000000
00010000
00000000
00100000
00000000
00001000
00010000
,
00001000
00000000
01000000
00000000
00001000
00010000
00000100
00000000
00001000
00000000
00000010
00000000
00000100
00000000
00000001
00001000
,
00000000
00000100
00001000
00000000
00000100
00010000
00000000
00001000
01000000
00000000
00010000
00100000
00000000
01000000
10000000
00000000
,
00100000
00000000
01000000
00000000
00010000
01000000
00001000
00000000
00010000
00000100
00001000
00000000
00000010
00001000
00000001
00000000
,
00000100
00000000
00000000
00000000
00000000
00000000
00001000
00000000
00000000
00000100
00000000
00000000
00000010
00000000
00000000
00000000
00000000
00000000
00000000
00000000
00000000
00000000
00000000
00000000
00010000
00000000
00000000
00000000
00001000
00000000
00000000
00000000
00010000
00000000
00000000
00000000
00000100
00000000
00000000
00000000
00010000
00000000
00000000
00000000
00001000
00000000
00000000
00000000
,
00100000
00000000
00010000
00000000
10000000
00000000
01000000
00000000
10000000
00000000
00010000
00000000
00100000
00000000
00010000
00000000
01000000
00000000
00001000
00000000
00000000
00010000
00000000
00000000
,
00000200
00000000
00000000
00000000
00000310
00000000
00000001
00000000
00000100
00000010
00001000
00000000
00000010
00010000
00001000
00000000
,
00200000
00000000
00000000
00000000
00000000
00000000
00000000
00000000
00000000
00000000
00000000
00000000
00010000
00000000
00000000
00000000
00000000
00000000
00000000
00000000
00000000
00000000
00000000
00000000
01000000
00300000
00000000
00000000
00000000
00000000
00000000
00000000
00000000
00000000
00000000
00000000
10000000
00000000
00000000
00000000
00000000
00000000
00000000
00000000
00000000
00000000
00000000
00000000
00200000
00000000
00000000
00000000
00000000
00000000
00000000
00000000
00000000
00000000
00000000
00000000
01000000
00000000
00000000
00000000
00000000
00000000
00000000
00000000
00000000
00000000
00000000
00000000
00310000
00000000
00000000
00000000
00000000
00000000
00000000
00000000
00000000
00000000
00000000
00000000
00000000
00000000
00000000
00000000
00000000
00000000
00000000
00000000
00000000
00000000
00000000
00000000
,
00001000
00000000
00010000
00001000
00100000
00000000
00001000
00000000
00010000
00000010
00001000
00000000
00000100
00000000
00010000
00001000
,
00100000
00000000
01000000
10000000
00010000
00000000
01000000
00010000
10000000
00000000
00100000
00000000
01000000
00000000
00010000
01000000
,
00001000
00000000
00010000
00001000
00000000
00001000
00010000
00000000
00010000
00000100
00000000
00000100
00000010
00000000
00000010
00000001
,
00001000
00000000
00000010
00000000
00010000
00000000
00001000
00000000
00000010
00000000
00001000
00000000
00010000
00000000
00001000
01000000
,
00010000
00000000
10000000
01000000
00100000
00000000
01000000
00100000
00010000
00000000
00100000
00001000
00010000
00000000
00001000
00010000
,
00000010
00000000
00001000
00000010
00000000
00000010
00010000
00000000
00001000
00000000
01000000
00010000
00000000
00000000
00200000
00000000
,
10000000
00000000
00000000
00000000
01300000
00000000
00100000
00001000
00010000
00000000
00001000
00010000
00000100
00000000
00000010
00000001
,
00000200
00000000
00000310
00000000
00001000
00000000
00000010
00010000
00001000
00010000
00001000
00010000
00001000
00010000
00001000
00010000
,
00002000
00003000
00000000
00000000
00000000
00000000
00000000
00000000
00000000
00000000
00000000
00000000
00202000
00303000
00000000
00000000
00000000
00000000
00000000
00000000
00000000
00000000
00000000
00000000
00022000
00033000
00000000
00000000
00000000
00000000
00000000
00000000
00000000
00000000
00000000
00000000
00020020
00030030
00000000
00000000
00000000
00000000
00000000
00000000
00000000
00000000
00000000
00000000
,
00022000
00033000
00000000
00000000
00000000
00000000
00000000
00000000
00000000
00000000
00000000
00000000
02002000
03003000
00000000
00000000
00000000
00000000
00000000
00000000
00000000
00000000
00000000
00000000
00022000
00033000
00000000
00000000
00000000
00000000
00000000
00000000
00000000
00000000
00000000
00000000
MMMMMMMM
00000000
00000000
00000000
00000000
00000000
00000000
00000000
00000000
00000000
00000000
00000000
,
00022000
00033000
00000000
00000000
00000000
00000000
00000000
00000000
00000000
00000000
00000000
00000000
00020200
00030300
00000000
00000000
00000000
00000000
00000000
00000000
00000000
00000000
00000000
00000000
00022000
00033000
00000000
00000000
00000000
00000000
00000000
00000000
00000000
00000000
00000000
00000000
02002000
03003000
00000000
00000000
00000000
00000000
00000000
00000000
00000000
00000000
00000000
00000000
,
01000000
00010000
01000000
00001000
00010000
00000000
00001000
00010000
,
00000100
00000000
00000000
00000000
00000000
00000000
00001000
00000000
00000000
00000100
00000000
00000000
00010000
00000000
00000000
00000000
00000000
00000000
00000000
00000000
00000000
00000000
00000000
00000000
00022000
00033000
00000000
00000000
00000000
00000000
00000000
00000000
00000000
00000000
00000000
00000000
00202000
00303000
00000000
00000000
00000000
00000000
00000000
00000000
00000000
00000000
00000000
00000000
,
00022000
00033000
00000000
00000000
00000000
00000000
00000000
00000000
00000000
00000000
00000000
00000000
00020020
00030030
00000000
00000000
00000000
00000000
00000000
00000000
00000000
00000000
00000000
00000000
00022000
00033000
00000000
00000000
00000000
00000000
00000000
00000000
00000000
00000000
00000000
00000000
02002000
03003000
00000000
00000000
00000000
00000000
00000000
00000000
00000000
00000000
00000000
00000000
,
MMMMMMMM
00000000
10000000
01000000
00100000
00020000
00000000
00032000
,
00000000
00003020
00000000
00000230
00000000
00000000
00000000
00000000
,
00000000
00000000
00000301
00001000
00000100
00000001
00000100
00000010
,
00000001
00000100
00000010
00010000
00001000
00100000
01000000
10000000
,
00100000
01000000
10000000
01000000
00100000
01000000
00001000
00010000
,
00000200
00000000
00000310
00000000
00000000
00000000
00000000
00000100
,
00001000
00000010
00010000
00001000
00100000
00010000
00000000
01000000
,
00001000
00010000
00000020
00000000
00000130
00001000
00010000
00100000
,
01000000
00010000
00200000
00000000
00301000
00000010
00000100
00002000
,
00000000
00023000
00000000
02030000
00000000
03200000
00000000
00000000
,
00000000
00000000
10300000
00000000
,
00000000
00000000
00000000
00000000
01000000
00000000
00100000
00000000
00010000
00000000
00000000
00000000
00100000
00000000
00000000
00001000
,
00000000
00010000
00000010
00000000
00000200
00000000
00000000
00000000
,
00000000
00000000
00000002
00000000
,
00000303
00000000
00000000
00000000
;

//--------------- dance-double - KAYSTAR ----------------
#NOTES:
     dance-double:
     KAYSTAR:
     Hard:
     17:
     0,0,0,0,0:
00000000
00000000
00000000
00000000
,
00000000
00000000
00000000
00000000
,
00020000
00000000
00031000
00000000
00000000
00000000
00100000
01000000
,
20000000
00000000
00000000
30100000
00000000
00000000
10000000
00000000
00010000
00100000
00001000
00000000
00010000
00000000
00000010
00000000
,
00000200
00000000
00000000
00000000
00001000
00000000
00000000
00000010
00000000
00000000
00000010
00000000
00000301
00000000
00000000
00000000
,
MMMMMMMM
00000000
00000000
00000000
,
00001000
00000000
00000100
00000000
00010000
00000000
00000000
00000000
00001000
00000000
01000000
00000000
00000000
00000000
00100000
01000000
,
00010000
00000000
01000000
00000000
00002000
00000000
00000000
00000000
00013000
00000000
00000100
00000000
00000000
00000000
00000010
00000100
,
00001000
00000000
00000100
00000000
00020000
00000000
00000000
00000000
00031000
00000000
01000000
00000000
00000000
00000000
00010000
01000000
,
00001000
00000000
00010000
00000010
00002000
00000000
00000000
00000000
00003010
00000000
00010000
00000000
00001000
00000000
00010000
00000000
,
00000100
00000000
00010000
00001000
00100000
00001000
00010000
01000000
,
10000000
00000000
00100000
00010000
00002000
00000000
00013000
01000000
,
00100000
00000000
00010000
00100000
00001000
00000000
00010000
00000000
00000020
00000000
00000000
00000000
00000130
00000000
00001000
00000000
,
00010000
00200000
00000000
20300000
00000000
32000000
00000000
00200000
,
00000000
00000000
00000000
00000000
00000000
00000000
00000000
00000000
03300000
00000000
00100000
00001000
00010000
00000000
00000100
00000000
,
00000000
00000000
00010000
00001000
00010000
00000000
00001000
00000000
00000010
00000000
00001000
00000000
00010000
00000000
01000000
00000000
,
00010000
00000000
00001000
00000000
01000000
00000000
00100000
00000000
10000000
00100000
10000000
00000000
00010000
00000000
00100000
00000000
,
00001000
00010000
00100000
00010000
00002000
00000000
00003100
00001000
,
00010000
01000000
00010000
00000000
00001000
00010000
00100000
00010000
,
00001000
00000010
00000000
00001000
00010000
00000010
00000200
00000000
,
00001300
00000100
00000010
00010000
00001000
00100000
02000000
00000000
,
03010000
00001000
00010000
00100000
00010000
00000010
00001000
00000100
,
00010000
02000000
00000000
00000000
00000000
00000000
00000000
00000000
,
13000000
00000000
00000000
00000000
00000000
00100000
01000000
00010000
,
00110000
00000000
00001000
00010000
00000010
00000000
00000100
00001000
00000000
00000000
00010000
00001000
00000100
00000000
00000010
00000000
,
00010010
00000000
00010000
00001000
00100000
00000000
01000000
00010000
00000000
00000000
00001000
00010000
01000000
00000000
00100000
00000000
,
00101000
00000000
00001000
00000000
00010010
00000000
00010000
00001000
00100000
00000000
01000000
10000000
00100000
00010000
00001000
00000100
,
00000000
00000000
00000001
00000100
00001000
00000000
00011000
00000000
,
00010000
01000000
10000000
00000000
20020000
00000000
30030000
00000000
,
00000000
00000000
10000000
00100000
00010000
00000000
00011000
00000000
,
00001000
00000100
00000001
00000000
00000000
00000000
00020000
00000000
,
00002000
00000000
00000000
00000000
,
00M00000
00000M00
00M00000
00000M00
,
00M00000
00000M00
00M00000
00000M00
,
00M00000
00000M00
00M00000
00000M00
,
00M00000
00000M00
00M00000
00000M00
,
00M00000
00000M00
00M00000
00000M00
,
00M00000
00000M00
00M00000
00000M00
,
00033000
00000000
00000000
00000000
00000000
00000000
00000000
00000000
10000000
00000000
01000000
10000000
00010000
01000000
00001000
00010000
,
00001000
00000000
00010000
00001000
00100000
00000000
00001000
00010000
00000100
00000000
00001000
00000100
00000000
00001000
00000001
00001000
,
00000010
00000000
00010000
00000000
00001000
01000000
00010000
00000000
01000000
00000000
00100000
00000000
10000000
00000000
01000000
00100000
,
00000000
00001000
00010000
00000100
00000000
00001000
00000001
00000000
00000100
00000000
00000010
00001000
00000000
00000001
00000200
00000000
,
00000000
00000000
00001300
00000000
00000100
00000010
00001000
00000000
00000010
00010000
00001000
00000000
00100000
00010000
10000000
00010000
,
01000000
00000000
00000000
00011000
00000000
00000000
00000001
00000100
00000100
00001000
00000100
00000100
,
00000001
00001000
00000010
00010000
00001000
01000000
00010000
00100000
01000000
00010000
01000000
00100000
,
00002000
00000000
00000000
00000000
00013000
00000000
00100000
00000000
01000000
00010000
10000000
00000000
00010000
00100000
00001000
00010000
,
00000010
00001000
00000200
00000000
00100300
00010000
02000000
00000000
,
03100000
10000000
00010000
00100000
00001000
00000000
00010000
00000010
00001000
00000001
00000010
00000000
00000100
00010000
00001000
01000000
,
00010000
00000000
10000000
00100000
01000000
00000000
00010000
01000000
00001000
00000000
00010000
00000100
00000000
00001000
00000001
00001000
,
00000010
00000000
00000100
00001000
00000000
00000100
00000001
00000000
00000100
00001000
00000000
00000100
00000001
00000000
00001000
00000100
,
00010000
00000000
00001000
00100000
00010000
00000000
10000000
00100000
01000000
00000000
00010000
10000000
01000000
00000000
00100000
00001000
,
00010000
00000000
00000010
00010000
00000000
00001000
01000000
00000000
00100000
10000000
01000000
00100000
00010000
00000000
01000000
00010000
,
10000000
00000000
01000000
00010000
00000000
01000000
10000000
00000000
00010000
00000000
00100000
00001000
00000000
00000000
00000020
00000001
,
00001000
00000000
00001000
00000031
00000010
00000000
00000001
00000100
00000010
00001000
00000001
00000010
00000100
00010000
00001000
00100000
,
00020000
00000000
01030000
00100000
10000000
00010000
00100000
00001000
00010000
00001000
00010000
00001000
00010000
00000100
00001000
00000001
,
00000200
00000300
00000000
00000000
00000000
00000000
00000000
00000000
00000000
00000000
00000000
00000000
00002020
00003030
00000000
00000000
00000000
00000000
00000000
00000000
00000000
00000000
00000000
00000000
00022000
00033000
00000000
00000000
00000000
00000000
00000000
00000000
00000000
00000000
00000000
00000000
00220000
00330000
00000000
00000000
00000000
00000000
00000000
00000000
00000000
00000000
00000000
00000000
,
22000000
33000000
00000000
00000000
00000000
00000000
00000000
00000000
00000000
00000000
00000000
00000000
02020000
03030000
00000000
00000000
00000000
00000000
00000000
00000000
00000000
00000000
00000000
00000000
00022000
00033000
00000000
00000000
00000000
00000000
00000000
00000000
00000000
00000000
00000000
00000000
MMMMMMMM
00000000
00000000
00000000
00000000
00000000
00000000
00000000
00000000
00000000
00000000
00000000
,
00200020
00300030
00000000
00000000
00000000
00000000
00000000
00000000
00000000
00000000
00000000
00000000
00022000
00033000
00000000
00000000
00000000
00000000
00000000
00000000
00000000
00000000
00000000
00000000
02000200
03000300
00000000
00000000
00000000
00000000
00000000
00000000
00000000
00000000
00000000
00000000
00022000
00033000
00000000
00000000
00000000
00000000
00000000
00000000
00000000
00000000
00000000
00000000
,
10000000
00010000
10000000
00010000
00100000
00000010
00001000
00000001
,
00001000
00000000
00000000
00000000
00000000
00000000
00000000
00000000
00000000
00000000
00000000
00000000
00000100
00000000
00000000
00000000
00000000
00000000
00010000
00000000
00000000
00000000
00000000
00000000
00001000
00000000
00000000
00000000
00000000
00000000
00000000
00000000
00000000
00000000
00000000
00000000
00000000
00000000
00000000
00000000
00000000
00000000
00000000
00000000
00000000
00000000
00000000
00000000
02002000
00000000
00000000
03003000
00000000
00000000
00000000
00000000
00000000
00000000
00000000
00000000
00000000
00000000
00000000
00000000
00000000
00000000
00000000
00000000
00000000
00000000
00000000
00000000
20020000
00000000
30030000
00000000
00000000
00000000
00000000
00000000
00000000
00000000
00000000
00000000
00000000
00000000
00000000
00000000
00000000
00000000
00000000
00000000
00000000
00000000
00000000
00000000
,
00202000
00000000
00303000
00000000
00000000
00000000
00000000
00000000
00000000
00000000
00000000
00000000
00000000
00000000
00000000
00000000
00000000
00000000
00000000
00000000
00000000
00000000
00000000
00000000
00020200
00000000
00030000
00000300
00000000
00000000
00000000
00000000
00000000
00000000
00000000
00000000
00000000
00000000
00000000
00000000
00000000
00000000
00000000
00000000
00000000
00000000
00000000
00000000
00022000
00000000
00000000
00033000
00000000
00000000
00000000
00000000
00000000
00000000
00000000
00000000
00000000
00000000
00000000
00000000
00000000
00000000
00000000
00000000
00000000
00000000
00000000
00000000
02002000
00000000
00003000
03000000
00000000
00000000
00000000
00000000
00000000
00000000
00000000
00000000
00000000
00000000
00000000
00000000
00000000
00000000
00000000
00000000
00000000
00000000
00000000
00000000
,
MMMMMMMM
00000000
00001000
00010000
00000100
00000020
00000000
00000032
,
00000000
00000203
00000000
00000020
00000000
00000000
00000000
00000000
,
00000330
00000000
00000010
00010000
00001000
00000000
01000000
00000000
00000000
00000000
00100000
10000000
00010000
00000000
00100000
00000000
,
01000000
00010000
00001000
00000010
00000001
00000100
00000010
00010000
,
00001000
00010000
00001000
00000000
00000010
00000000
00000100
00000000
00001000
00000000
00010000
00000000
00100000
00000000
01000000
00000000
,
10000000
00000000
00200000
02300000
03020000
00032000
00003020
00000230
,
00000301
00000010
00000100
00010000
00001000
00000010
00001000
00010000
,
00100000
01000000
00002000
00000000
00013000
01000000
00010000
00001000
,
00000100
00000010
00020000
00000000
00031000
00010000
00000100
00000010
,
00001000
00100000
00010000
01000000
00001000
00000200
00000010
00000000
,
00000001
00001000
00000301
00000000
,
00000000
00000000
00000000
00000000
00000010
00000000
00000100
00000000
00010000
00000000
00000000
00000000
00001000
00000000
00000000
01000000
,
00000000
00100000
10000000
00000000
02000000
00000000
00000000
00000000
,
00000000
00000000
00200000
00000000
,
03300000
00000000
00000000
00000000
;
