#VERSION:0.83;
#TITLE:philosophy;
#SUBTITLE:[game edit];
#ARTIST:dj kaya*;
#TITLETRANSLIT:;
#SUBTITLETRANSLIT:;
#ARTISTTRANSLIT:;
#GENRE:ORIGINAL;
#CREDIT:;
#MUSIC:philosophy_game_edit.mp3;
#BANNER:philosophybn.png;
#BACKGROUND:philosophy_bg2.png;
#CDTITLE:;
#SAMPLESTART:12.441;
#SAMPLELENGTH:15.000;
#SELECTABLE:YES;
#OFFSET:1.494;
#BPMS:0.000=155.000
,66.000=77.500
,67.000=155.000
,129.000=77.500
,130.000=155.000
,179.000=310.000
,180.000=155.000
,183.000=310.000
,184.000=155.000
,187.000=310.000
,188.000=155.000
,282.500=77.500
,283.250=155.000
,283.500=310.000
,284.000=155.000
,305.000=310.000
,305.500=155.000
,316.000=77.500
;
#STOPS:179.000=0.194
,183.000=0.194
,187.000=0.194
,222.000=0.194
,222.500=0.194
,223.000=0.194
,223.500=0.194
,252.000=0.194
,252.500=0.194
,253.000=0.194
,253.500=0.194
,282.000=0.194
,282.500=0.194
,282.750=0.194
,283.000=0.194
,283.250=0.048
,283.375=0.048
,283.500=0.048
,283.750=0.048
,297.000=0.194
,297.500=0.194
,305.000=0.097
;
#DISPLAYBPM:155.000;
#LASTBEATHINT:1.282369;
#BGCHANGES:0.000=philosophy_bg2.png=1.000=0=0=1,
2.000=philosophy_bg1.png=1.000=0=0=1====#000000=,
4.000=mono2.mp4=0.500=0=0=1=Centered==CrossFade_Fastest==,
12.000=mono2.mp4=0.500=0=0=1=Centered====,
20.000=mono3.mp4=0.500=0=0=1=Kaleidoscope2x2==CrossFade_Fastest==,
28.000=mono3.mp4=0.700=1=0=1===CrossFade=#FF0000=,
32.000=mono1.mp4=0.100=0=0=1,
36.000=hit_it.mp4=1.000=0=0=1====#FF0000=,
66.000=techno1.mp4=1.000=0=0=1,
67.000=wi_red.mp4=1.000=0=0=1,
83.000=wi_pp.mp4=1.000=1=0=1===CrossFade=#FF0000=,
95.000=mono1.mp4=1.000=0=0=1,
96.000=mono2.mp4=1.000=0=0=1,
97.000=mono3.mp4=1.000=0=0=1,
98.000=mono3.mp4=1.000=0=0=1====#FF0000=,
99.000=blue.mp4=1.000=0=0=1====#FF0000=,
107.000=u_wf1.mp4=1.000=0=0=1====#FF0000=,
115.000=blue.mp4=1.000=0=0=1====#FF0000=,
123.000=u_wf1.mp4=1.000=0=0=1=StretchNormal===#FF0000=,
127.000=mono1.mp4=1.000=0=0=1,
128.000=mono2.mp4=1.000=0=0=1,
129.000=techno1.mp4=1.000=0=0=1,
130.000=wi_red.mp4=1.000=0=0=1,
146.000=wi_pp.mp4=1.000=0=0=1===CrossFade_Fastest=#FF0000=,
160.000=blue.mp4=1.000=0=0=1====#FF0000=,
161.000=amimaru2.mp4=1.000=0=0=1====#FF0000=,
162.000=hit_it.mp4=1.000=0=0=1====#FF0000=,
162.500=amimaru.mp4=1.000=0=0=1====#000000=,
163.000=philosophy_bg5.png=1.000=1=0=1===CrossFade==,
164.000=philosophy_bg5.png=1.000=0=0=1=Visualization2File=yellow.mp4=CrossFade_Fastest==#FF0000,
179.000=yellow.mp4=0.100=0=0=1=Visualization2File=philosophy_bg5.png==#FF0000=,
180.000=philosophy_bg5.png=1.000=0=0=1=Visualization2File=mono3.mp4===,
183.000=mono3.mp4=0.100=0=0=1=Visualization2File=philosophy_bg5.png===,
184.000=philosophy_bg5.png=1.000=0=0=1=Visualization2File=hit_it.mp4===#00FF00,
187.000=hit_it.mp4=0.100=0=0=1=Visualization2File=philosophy_bg5.png==#00FF00=,
188.000=blue.mp4=1.000=0=0=1=Visualization2File=philosophy_bg5.png==#0000FF=,
190.000=skybeat2.mp4=1.000=0=0=1=Visualization2File=philosophy_bg5.png==#FF0000=,
191.000=skybeat.mp4=1.000=0=0=1=Visualization2File=philosophy_bg5.png==#00FFFF=,
192.000=skybeat2.mp4=4.000=0=0=1=Visualization2File=philosophy_bg5.png==#FF00FF=,
193.000=skybeat.mp4=4.000=0=0=1=Visualization2File=philosophy_bg5.png==#FFFF00=,
194.000=yellow.mp4=1.000=0=0=1=Visualization2File=philosophy_bg5.png==#FF0000=,
210.000=mono2.mp4=1.000=0=0=1=Visualization2File=philosophy_bg5.png==#FF0000=,
222.000=philosophy_bg1.png=0.100=0=0=1=Checkerboard1File2x2====,
222.500=philosophy_bg2.png=1.000=0=0=1=Checkerboard1File2x2====,
223.000=philosophy_bg4.png=1.000=0=0=1=Checkerboard1File2x2====,
223.500=philosophy_bg3.png=1.000=0=0=1=Checkerboard1File2x2====,
224.000=yellow.mp4=1.000=0=0=1=Checkerboard2File2x2=philosophy_bg1.png==#FF0000=,
240.000=philosophy_bg1.png=1.000=0=0=1=Checkerboard2File2x2=yellow.mp4===#FF0000,
252.000=philosophy_bg1.png=0.100=0=0=1=Checkerboard2File2x2=philosophy_bg4.png===,
252.500=philosophy_bg4.png=1.000=0=0=1=Checkerboard2File2x2=philosophy_bg1.png===,
253.000=philosophy_bg2.png=1.000=0=0=1=Checkerboard2File2x2=philosophy_bg3.png===,
253.500=philosophy_bg3.png=1.000=0=0=1=Checkerboard2File2x2=philosophy_bg2.png===,
254.000=xxx.mp4=1.000=0=0=1=Checkerboard2File2x2=philosophy_bg4.png==#0000FF=,
270.000=philosophy_bg4.png=1.000=0=0=1=Checkerboard2File2x2=xxx.mp4===#0000FF,
278.000=wld.mp4=1.000=0=0=1,
282.000=philosophy_bg4.png=1.000=0=0=1,
282.500=philosophy_bg1.png=1.000=0=0=1,
282.750=philosophy_bg3.png=1.000=0=0=1,
283.000=philosophy_bg2.png=1.000=0=0=1,
283.500=philosophy_bg2.png=1.000=0=0=1,
284.000=techno1.mp4=1.000=0=0=1=Checkerboard2File2x2=philosophy_bg3.png===,
291.000=blue.mp4=1.000=0=0=1=Checkerboard2File2x2=philosophy_bg3.png===,
297.000=wld.mp4=1.000=0=0=1=Centered===#FF0000=,
297.500=wld.mp4=1.000=0=0=1=Centered===#0000FF=,
298.000=philosophy_bg3.png=1.000=0=0=1=Checkerboard2File2x2=techno1.mp4===,
302.000=blue.mp4=1.000=0=0=1=Checkerboard2File2x2=philosophy_bg1.png==#FF0000=,
302.500=blue.mp4=1.000=0=0=1=Checkerboard2File2x2=philosophy_bg2.png==#000000=,
303.000=blue.mp4=1.000=0=0=1=Checkerboard2File2x2=philosophy_bg4.png==#0000FF=,
303.500=blue.mp4=1.000=0=0=1=Checkerboard2File2x2=philosophy_bg2.png==#000000=,
304.000=mono2.mp4=1.000=0=0=1=Checkerboard2File2x2=philosophy_bg3.png===,
304.250=mono2.mp4=1.000=0=0=1=Checkerboard2File2x2=philosophy_bg3.png==#000000=,
304.500=mono2.mp4=1.000=0=0=1=Checkerboard2File2x2=philosophy_bg2.png===,
304.750=mono2.mp4=1.000=0=0=1=Checkerboard2File2x2=philosophy_bg2.png==#000000=,
305.000=boxframe.mp4=1.000=0=0=1=Checkerboard2File2x2=philosophy_bg3.png===,
306.000=philosophy_bg3.png=1.000=0=0=1=Checkerboard2File2x2=blue.mp4===,
312.000=wi_red.mp4=1.000=0=0=1=Visualization2File=philosophy_bg1.png===,
313.000=hit_it.mp4=1.000=0=0=1=Visualization2File=philosophy_bg4.png==#0000FF=,
314.000=mono2.mp4=1.000=0=0=1=Visualization2File=philosophy_bg3.png===,
315.000=wld.mp4=1.000=0=0=1=Visualization2File=philosophy_bg2.png==#0000FF=,
316.000=the_end_of_the_world_unlimited_fear_mix.mp4=1.000=1=0=1=Visualization2File=philosophy_bg5.png=CrossFade==,
99999.000=-nosongbg-=1.000=0=0=0=StretchNoLoop====
;
#FGCHANGES:;

//--------------- dance-single - ----------------
#NOTEDATA:;
#STEPSTYPE:dance-single;
#DESCRIPTION:;
#DIFFICULTY:Beginner;
#METER:3;
#RADARVALUES:0.149184,0.244239,0.089314,0.158017,0,152,139,13,23,0,0,0.149184,0.244239,0.089314,0.158017,0,152,139,13,23,0,0;
#NOTES:
0000
0000
0000
0000
,
0000
0000
0000
0000
,
0000
0000
0000
0000
,
0000
0000
0000
0000
,
0000
0000
0000
0000
,
1000
0000
1000
0000
,
0001
0000
0001
0000
,
0010
0000
0010
0000
,
0200
0000
0300
0000
,
1000
0000
0000
0000
,
1000
0000
0000
0000
,
0001
0000
0000
0000
,
0001
0000
0000
0000
,
0100
0000
0000
0000
,
0100
0000
0000
0000
,
0010
0000
0000
0000
,
0020
0000
0030
0000
,
1000
0000
1000
0000
,
1000
0000
1000
0000
,
0001
0000
0001
0000
,
0001
0000
0001
0000
,
0010
0000
0010
0000
,
0010
0000
0010
0000
,
0100
0000
0100
0200
,
0000
0000
0300
0000
,
1001
0000
1000
0000
,
1000
0000
1000
0000
,
1001
0000
0001
0000
,
0001
0000
0001
0000
,
0110
0000
0010
0000
,
0010
0000
0010
0000
,
0110
0000
0100
0200
,
0000
0300
1000
0000
,
1000
0000
1000
0000
,
0110
0000
0001
0000
,
0001
0000
0001
0000
,
0110
0000
1000
0000
,
1000
0000
1000
0000
,
0110
0000
0001
0000
,
1000
0000
0001
0000
,
0110
0000
0220
0330
,
0100
0100
0001
0100
,
1000
0000
1000
0100
,
0001
0000
0001
0100
,
1000
0000
0002
0000
,
0003
0000
2000
0000
,
3000
0000
0020
0000
,
0030
0000
0200
0000
,
0000
0000
0300
0000
,
0001
0001
0001
0000
,
0100
0100
0100
0000
,
1000
1000
1000
0000
,
0010
0020
0030
0000
,
1000
1000
1000
0000
,
0100
0100
0100
0000
,
0001
0001
0002
0000
,
0003
0000
0001
0001
,
0100
0000
1000
1000
,
0100
0000
0001
0001
,
0100
0000
1000
1000
,
0010
0000
0001
0001
,
0010
0000
1000
1000
,
0020
0000
0000
0000
,
0030
0000
0000
0100
,
0000
0100
0000
0001
,
0000
0001
0000
1000
,
0000
1000
0000
0010
,
0000
0010
0000
1000
,
0000
1000
0000
0100
,
0000
0100
0020
0000
,
0000
0000
0030
0000
,
2002
0000
0000
0000
,
3003
0000
0000
0000
,
0220
0000
0000
0000
,
0330
0000
0000
2002
,
0000
0000
3003
0010
,
0020
0000
0030
2002
,
0000
0000
3003
0000
,
0010
0001
0100
1000
,
0010
0000
0000
0000
;

//--------------- dance-single - ----------------
#NOTEDATA:;
#STEPSTYPE:dance-single;
#DESCRIPTION:;
#DIFFICULTY:Easy;
#METER:7;
#RADARVALUES:0.321923,0.382933,0.185498,0.089314,0,328,301,27,13,0,0,0.321923,0.382933,0.185498,0.089314,0,328,301,27,13,0,0;
#NOTES:
0000
0000
0000
0000
,
0000
0000
0000
0000
,
0000
0000
0000
0000
,
0000
0000
0000
0000
,
0000
0000
0000
0000
,
1000
1000
1000
1000
,
0001
0001
0001
0001
,
0010
0010
0010
0010
,
0000
0000
0000
0000
,
1001
1000
0100
0010
,
1001
0001
0100
0010
,
1001
1000
0100
0010
,
1001
0001
0100
0010
,
1001
0001
0010
0100
,
1001
1000
0010
0100
,
1001
0001
0010
0100
,
1001
0000
0010
0000
0220
0330
1000
0000
,
0001
0000
0100
0010
0000
0000
1000
0000
,
0001
0000
0010
0100
0000
0000
1000
0000
,
0001
0000
0100
0010
0000
0000
1000
0000
,
0001
0000
0010
0200
0000
0300
0100
0000
,
0010
0000
0001
1000
0000
0000
0010
0000
,
0100
0000
0001
1000
0000
0000
0100
0000
,
0010
0000
0001
1000
0000
0000
0110
0000
,
0010
0110
0100
0001
,
1000
0000
0001
0100
0000
0000
0100
0000
,
0100
0000
0001
1000
0000
0000
1000
0000
,
0001
0000
1000
0100
0000
0000
0100
0000
,
0100
0000
1000
0001
0000
0000
0010
0000
,
0100
0000
0010
0100
0000
0000
0100
0000
,
0100
0000
1000
0001
0000
0000
0100
0000
,
0001
0000
1000
0010
0000
0000
1001
0000
,
0010
1001
0001
1000
,
0001
0100
0001
0000
1000
0000
0001
0000
,
1000
0100
1000
0000
0001
0000
1000
0000
,
0001
0100
0001
0000
1000
0000
0001
0000
,
1000
0100
1000
0000
0001
0000
1000
0000
,
0001
0010
0001
0000
1000
0000
0001
0000
,
1000
0010
1000
0000
0001
0000
1000
0000
,
0010
0100
0010
0000
1000
0000
0001
0000
,
0010
0010
0100
0100
,
0010
0100
1000
0000
0001
0000
1000
0000
,
0010
0100
0001
0000
1000
0000
0001
0000
,
0010
0100
1000
0000
0001
0000
1000
0000
,
0010
0100
0001
0000
0000
0000
1001
0000
,
0200
0000
0300
1001
,
0020
0000
0030
1001
,
0200
0300
1000
0010
,
0001
0100
1000
1000
,
0100
0010
0000
0000
0001
0000
0001
0000
,
0100
0010
0000
0000
1000
0000
1000
0000
,
0010
0100
0000
0000
0001
0000
0001
0000
,
0010
0100
0000
0000
0001
0000
0001
0000
,
0100
1000
0000
0000
1000
0000
1000
0000
,
0010
0001
0000
0000
1000
0000
1000
0000
,
0100
0001
0000
0000
0000
0000
0000
0000
,
0001
0000
0001
0000
0010
0100
0010
0000
,
1000
0000
1000
0000
0010
0100
0010
0000
,
0001
0000
0001
0000
0100
0010
0100
0000
,
1000
0000
1000
0000
0100
0010
0100
0000
,
0001
0000
0001
0000
0010
0100
1000
0000
,
1000
0000
1000
0000
0010
0100
0001
0000
,
1000
0000
0001
0000
0100
0010
0100
0000
,
0110
0000
1000
0001
,
1000
0100
1000
0100
1000
0000
0001
0000
,
0100
0001
0100
0001
0100
0000
0010
0000
,
1000
0010
1000
0010
1000
0000
0001
0000
,
0010
0001
0010
0001
0010
0000
0100
0000
,
1000
0100
1000
0000
0010
0000
0100
0000
,
0001
0100
0001
0000
2002
0000
0000
0000
,
3003
0000
0220
0000
,
0330
0000
0000
0000
,
0000
0000
0000
1001
,
1000
0000
0100
1000
0000
0000
0100
0000
,
0100
0000
0200
0300
1001
0000
0001
0000
,
0010
0001
0000
0000
0010
0000
0010
0000
,
0010
0010
0000
0000
0001
0000
1001
0000
,
1000
0010
0000
0000
0100
0000
0100
0000
,
1001
1001
0110
0110
,
2002
0000
0000
0000
0000
3003
0000
0000
;

//--------------- dance-single - ----------------
#NOTEDATA:;
#STEPSTYPE:dance-single;
#DESCRIPTION:;
#DIFFICULTY:Medium;
#METER:11;
#RADARVALUES:0.466199,0.547048,0.364126,0.391607,0.151147,475,422,53,57,0,0,0.466199,0.547048,0.364126,0.391607,0.151147,475,422,53,57,0,0;
#NOTES:
0000
0000
0000
0000
,
0000
0000
0000
0000
,
0000
0000
0000
0000
,
0000
0000
0000
0000
,
0000
0000
0000
0000
,
1000
1000
1000
1000
,
0001
0001
0001
0001
,
0010
0010
0010
0010
,
0220
0000
0000
0330
,
0002
0000
0000
0203
0000
0300
0010
1000
,
0010
1000
0002
0000
0003
0002
0000
0003
,
2000
0000
0000
3200
0000
0000
0310
0001
,
0010
0001
2000
0000
3000
2000
0000
3000
,
0020
0000
0000
0230
0000
0000
0301
1000
,
0001
1000
0200
0000
0300
0200
0000
0300
,
0020
0000
0000
0230
0000
0000
1300
0001
,
1000
0001
0100
0000
0110
0000
0001
0100
,
1000
0000
0001
0010
0000
0010
1000
0100
,
0001
0000
1000
0010
0000
0010
0001
0100
,
0010
0000
0001
0010
0000
0010
1000
0100
,
0010
0000
1000
0010
0000
0010
0001
1000
,
0100
0000
0001
0100
0000
0100
1000
0001
,
0100
0000
1000
0100
0000
0100
0001
0010
,
0100
0000
1000
0010
0000
0100
0101
0000
,
1100
0000
0011
0000
0110
0000
2000
0100
,
3100
0000
0001
0100
0000
0010
0001
0010
,
0001
0000
0100
0010
0000
1000
0002
0100
,
0103
0000
1000
0100
0000
0010
1000
0010
,
1000
0000
0001
0100
0000
0010
2000
0001
,
3001
0000
0010
0100
0000
1000
0100
0001
,
0100
0000
1000
0100
0000
0010
0002
1000
,
1003
0000
0010
0100
0000
0001
0100
1000
,
0100
0000
0001
0000
0010
0000
0000
0000
0100
0000
0000
0001
0000
0000
0100
0000
,
1000
0000
0000
0010
0000
0000
1000
0000
0100
0000
0000
0001
0000
0000
0100
0000
,
1000
0000
1000
0000
0001
0000
0000
0000
0100
0000
0000
1000
0000
0000
0100
0000
,
0001
0000
0000
0010
0000
0000
0001
0000
0100
0000
0000
1000
0000
0000
0100
0000
,
0001
0000
0001
0000
1000
0000
0000
0000
0100
0000
0000
0010
0000
0000
0001
0000
,
1000
0000
0000
0010
0000
0000
0100
0000
0001
0000
0000
0100
0000
0000
0010
0000
,
1000
0000
0001
0000
1000
0000
0000
0000
0001
0000
0000
0010
0000
0000
0100
0000
,
1000
0000
0000
0010
0000
0000
0100
0000
0001
0000
0000
0100
0000
0000
0010
0000
,
1000
0001
1000
0001
0100
0000
0110
0000
,
1000
0001
0000
0000
0000
0000
1000
0000
0100
0000
0010
0000
0100
0000
1000
0000
,
0001
0010
0000
0000
0000
0000
0001
0000
0100
0000
0010
0000
0100
0000
0001
0000
,
1000
0010
0000
0000
0000
0000
1000
0000
0010
0000
0100
0000
0001
0000
1000
0000
,
0001
0010
0000
0000
0000
0000
0100
0000
0100
0000
0000
1000
0001
0000
0000
0000
,
0020
0030
0000
0020
0030
0000
0020
0030
0001
0000
0100
0000
0010
0000
0000
0000
,
0200
0000
0300
0000
0200
0000
0300
0000
0200
0000
0300
0000
1000
0000
0000
0100
0000
0000
0001
0000
0000
0000
0000
0000
,
2000
3000
0000
2000
3000
0000
2000
3000
0100
0000
0010
0000
0001
0000
1000
0000
,
0010
0000
0100
0000
0001
0000
1000
0000
1001
0000
0000
0001
0100
0000
0000
0000
,
0010
0000
0000
2020
0000
3030
0000
0000
1000
0000
0001
0000
0010
0000
0000
0000
,
0100
0000
0000
2200
0000
3300
0000
0000
1000
0000
0000
0100
0010
0000
0000
0000
,
0001
0000
0000
0022
0000
0033
0000
0000
0001
0000
0100
0000
0010
0000
0000
0000
,
1000
0000
0000
1001
0000
1001
0000
0000
0110
0000
0000
1000
0001
0000
0000
0000
,
0010
0100
0000
2200
0000
3300
0000
0000
0001
0000
1000
0000
0010
0000
0000
0000
,
0100
0001
0000
0202
0000
0303
0000
0000
0001
0000
0000
1000
0001
0000
0000
0000
,
0001
0100
0000
2020
0000
3030
0000
0000
0000
0000
0000
0000
0000
0000
0000
0000
,
1100
0000
0000
0101
0000
0000
1100
0000
0000
0000
1000
0000
0100
0000
0010
0000
,
0011
0000
0000
1010
0000
0000
0011
0000
0000
0000
0001
0000
0100
0000
0010
0000
,
1010
0000
0000
0011
0000
0000
1010
0000
0000
0000
1000
0000
0001
0000
0100
0000
,
0101
0000
0000
1100
0000
0000
0101
0000
0000
0000
1000
0000
0001
0000
0010
0000
,
0011
0000
0000
0101
0000
0000
0011
0000
0000
0000
0010
0000
0100
0000
1000
0000
,
1010
0000
0000
1100
0000
0000
1010
0000
0000
0000
1000
0000
0001
0000
0100
0000
,
0010
1000
0010
0100
0001
0010
0100
1000
,
0002
0023
0230
2300
3001
0001
0001
0010
,
0100
0010
0100
1000
0010
0010
0010
0100
,
1000
0100
0001
0000
1000
1000
1000
0010
,
1000
0001
1000
0100
0010
0010
0010
1000
,
0010
0001
0100
0000
0001
0001
0001
0010
,
0001
0100
0010
1000
0100
0100
0100
1000
,
0001
0000
0100
0000
1000
0000
0100
0000
0002
0000
0000
1000
0000
0000
1003
0000
,
0000
0010
0100
0010
2002
0000
3003
0000
,
1100
0000
1000
0100
1000
0000
1100
0000
,
1001
0000
0000
0000
1000
0000
0100
0010
0000
0000
0010
0000
0001
0000
0000
0000
,
0011
0000
0001
0010
0001
0000
0011
0000
,
1001
0000
0000
0000
0022
0033
2200
3300
1000
0000
0000
0000
1010
0000
0000
0000
,
1000
0010
1000
0000
0002
0103
0020
0130
,
2000
3010
0001
0000
0001
0000
0101
0000
,
0001
0100
0001
0000
0101
0000
1001
0000
,
0011
1100
1010
0101
,
2002
0000
0000
0000
0000
3003
0000
0000
;

//--------------- dance-single - ----------------
#NOTEDATA:;
#STEPSTYPE:dance-single;
#DESCRIPTION:;
#DIFFICULTY:Hard;
#METER:15;
#RADARVALUES:0.596735,0.765867,0.281682,0.611457,0.621762,608,567,41,89,0,0,0.596735,0.765867,0.281682,0.611457,0.621762,608,567,41,89,0,0;
#NOTES:
0000
0000
0000
0000
,
0000
0000
0000
0000
,
0000
0000
0000
0000
,
0000
0000
0000
0000
,
0000
0000
0000
0000
,
2000
0000
0000
3002
0000
0103
0010
0100
,
0001
1000
0020
0000
0030
0020
0000
0030
,
2000
0000
0000
3002
0000
0013
0001
1000
,
0100
1000
0100
0000
0010
0100
0010
0000
0001
0010
0001
0000
0010
0100
0010
0000
,
0002
0000
0000
0203
0000
0000
1300
1000
,
0001
0010
2000
0000
0000
3200
0000
0000
,
2300
0000
0000
3200
0000
0000
0301
0001
,
1000
0010
0002
0000
0000
0203
0000
0000
,
0302
0000
0000
0023
0000
0000
1030
1000
,
0001
0100
2000
0000
0000
3020
0000
0000
,
2030
0000
0000
3200
0000
0000
0301
0001
,
1000
0010
0001
0000
1001
0000
1000
0001
,
0100
0000
0000
0010
1000
0010
1000
0000
0000
0000
0001
1000
0001
0000
1000
0000
,
0100
0000
0000
0010
0001
0010
0001
0000
0000
0000
0100
0000
0110
0000
0010
0000
,
1000
0000
0000
0001
1000
0100
1000
0000
0000
0000
0001
1000
0001
0000
1000
0000
,
0100
0000
0000
1000
0001
0200
0002
0000
0303
0000
0000
0000
0001
0000
0010
0000
,
1100
0000
0000
0100
1000
0100
0010
0000
0000
0000
0001
1000
0001
0000
0100
0000
,
0101
0000
0000
0100
0001
0100
0010
0000
0000
0000
0000
0000
1000
0000
0001
0000
,
1001
0000
0000
0001
1000
0100
0010
0000
0000
0000
0001
0000
1100
0000
1000
0000
,
0101
0001
1010
1000
0022
0033
2000
0000
,
0100
0000
3002
0000
0000
0000
0103
0010
0000
1000
0001
0000
1001
0000
1000
0000
,
0002
0000
0100
2003
0000
0010
3002
0000
,
0010
0000
2003
0000
0000
0000
3010
0100
0000
0001
1000
0000
1001
0000
0001
0000
,
2000
0000
0010
3002
0000
0100
2003
0000
,
0010
0000
3002
0000
0000
0000
0013
0100
0000
1000
0001
0000
1001
0000
1000
0000
,
0002
0000
0010
2003
0000
0100
3002
0000
,
0100
0000
2003
0000
0000
0000
3100
0010
0000
0001
1000
0000
1001
0000
0000
0000
,
0110
0000
0000
0000
1001
0000
0000
0000
2000
0000
3100
0010
0000
0010
0000
0000
,
2000
0000
3010
0001
0000
0001
0000
0000
2000
0000
3010
0100
0000
0100
0000
0000
,
2000
0000
3100
0010
1000
0000
0000
0000
0002
0000
0013
0100
0000
0100
0000
0000
,
0002
0000
0103
1000
0000
1000
0000
0000
0002
0000
0103
0010
0000
0010
0000
0000
,
0002
0000
0013
0100
0001
0000
0000
0000
0020
0000
0130
1000
0000
1000
0000
0000
,
0020
0000
1030
0001
0000
0001
0000
0000
0020
0000
0031
0100
0000
0100
0000
0000
,
0020
0000
0031
0010
1000
0000
0000
0000
0200
0000
1300
0010
0000
0010
0000
0000
,
0200
0000
0301
1000
0000
1000
0000
0000
0200
0000
0310
0001
0000
0001
0000
0000
,
0100
0000
0010
1000
0001
0000
0100
0000
0110
0000
0000
0000
0001
0100
0000
0000
,
1000
0100
0000
0001
0000
0000
0010
0001
0100
0000
0001
1000
0100
0000
0000
0000
,
0001
0100
0000
1000
0000
0000
0010
1000
0100
0000
1000
0001
0100
0000
0000
0000
,
1000
0100
0000
0001
0000
0000
0010
0001
0100
0000
0001
1000
0100
0000
0000
0000
,
0001
0100
0000
1000
0000
0000
1000
0010
0100
0000
0000
0001
1000
0000
0000
0000
,
2020
3030
0000
2020
3030
0000
2020
3030
0001
0000
0100
0010
1000
0000
0000
0000
,
0022
0033
0000
0000
0022
0033
0000
0000
0022
0033
0000
0000
1000
0000
0000
0100
0000
0000
0010
0000
0000
0000
0000
0000
,
2002
3003
0000
2002
3003
0000
2002
3003
1000
0000
0001
0100
0010
0000
1000
0100
,
0010
0000
0001
0100
0010
0000
1000
0100
0010
0000
0000
0002
0100
0000
0000
0000
,
1003
0001
0100
0010
0000
0010
0000
0000
1000
0000
0001
2000
0100
0000
0000
0000
,
3001
1000
0100
0010
0000
0010
0000
0000
0001
0000
0000
0002
0010
0000
0000
0000
,
1003
0001
0010
0100
0000
0100
0000
0000
1000
0000
0001
2000
0010
0000
0000
0000
,
3001
1000
0010
0100
0000
0100
0000
0001
1000
0000
0000
0200
0010
0000
0000
0000
,
1300
0010
0100
0001
0000
0001
0000
0000
1000
0000
0001
0200
0010
0000
0000
0000
,
0301
0010
0100
1000
0000
1000
0000
0000
0001
0000
0000
0000
0020
0100
0000
0000
,
0031
0100
0010
1000
0000
1000
0001
0000
0000
0000
0000
0000
0000
0000
0000
0000
,
0001
0000
0010
0001
0000
0010
0001
0000
0100
0010
0100
0000
0001
1000
0001
0000
,
1000
0000
0010
1000
0000
0010
1000
0000
0100
0010
0100
0000
0010
0001
0000
0001
,
1000
0000
0010
1000
0000
0010
1000
0000
0100
0010
0100
0000
1000
0001
1000
0000
,
0001
0000
0100
0010
0000
0100
0010
0000
1000
0100
0010
0001
1000
0001
0100
0010
,
1000
0000
0100
0010
0000
0100
0010
0000
0001
0010
0001
0000
1000
0001
1000
0000
,
0001
0000
0100
0010
0000
0100
0010
0000
1000
0010
1000
0000
0001
1000
0001
0000
,
0100
0000
1000
0100
0000
0001
0010
0000
0100
0010
0100
0000
1000
0001
1000
0001
,
0000
0000
0000
0000
0000
0000
0000
0000
1000
0100
1000
0100
1000
0000
0100
0010
,
0100
0010
0100
0000
0010
0001
1000
0000
0001
0010
0001
0010
0001
0000
0010
0100
,
0010
0100
0010
0000
0100
1000
0001
0000
0001
0100
0001
0100
0001
0000
0100
0010
,
0100
0010
0100
0000
0010
1000
0001
0000
1000
0010
1000
0010
1000
0000
0001
0100
,
0001
0100
0001
0000
1000
0001
1000
0000
1000
0100
0010
0100
1000
0000
0010
0100
,
1000
0100
0001
0000
1000
0001
1000
0000
1000
0010
0100
0010
1000
0000
0100
0010
,
1000
0010
0001
0000
1000
0001
0100
0010
2000
0000
0000
0001
0000
0000
3001
0000
,
0000
0010
0100
0000
1000
0001
1000
0001
0000
0000
0000
0000
0000
0000
0000
0000
,
1100
0000
0000
1200
0000
0000
0001
0000
,
1300
0000
0000
1001
0000
0000
1000
0001
,
0101
0000
0000
0201
0000
0000
1000
0000
,
0301
0000
0000
0000
0000
0000
0000
0000
0220
0330
0000
0000
2002
3003
0000
0000
0001
0000
0000
0000
0100
0000
0000
0000
1010
0000
0000
0000
0000
0000
0000
0000
,
0000
1020
0000
0000
0031
0010
0100
0010
,
1000
0001
1000
0001
0000
0000
0000
0000
1000
0000
0100
0000
0011
0000
0000
0000
,
0000
0021
0000
0000
1000
0000
0031
0000
,
0101
1010
0011
1100
,
2002
0000
0000
0000
0000
3003
0000
0000
;

//--------------- dance-single - ----------------
#NOTEDATA:;
#STEPSTYPE:dance-single;
#DESCRIPTION:;
#DIFFICULTY:Challenge;
#METER:17;
#RADARVALUES:0.705678,0.875277,0.288553,0.851918,0.766039,719,677,42,124,0,0,0.705678,0.875277,0.288553,0.851918,0.766039,719,677,42,124,0,0;
#NOTES:
0000
0000
0000
0000
,
0000
0000
0000
0000
,
0000
0000
0000
0000
,
0000
0000
0000
0000
,
0000
0000
0000
0000
,
2000
0000
0000
3010
0000
0100
0001
1000
,
0010
0100
0002
0000
0003
2000
0000
3000
,
0002
0000
0000
0013
0000
0100
1000
0001
,
1000
0010
1000
0000
0001
0010
0001
0000
1000
0100
1000
0000
0001
0100
0001
0000
,
1002
0000
0103
2000
0000
3001
0001
0010
,
1000
0100
0002
0000
0103
2000
0000
3010
,
2000
0000
3100
0002
0000
1003
1000
0010
,
0001
0100
2000
0000
3100
0002
0000
0013
,
0002
0000
0103
2000
0000
3001
0001
0010
,
1000
0100
0002
0000
0103
2000
0000
3010
,
2000
0000
3100
0002
0000
1003
1000
0010
,
0001
0100
0020
0000
0001
0000
1030
0001
,
0010
0000
0001
1000
0001
0100
0010
0000
1000
0001
1000
0100
0010
0000
0001
1000
,
0002
0000
0100
2003
0000
0000
3001
1000
,
0010
0000
1000
0001
1000
0010
0100
0000
0001
1000
0001
0010
0100
0000
1000
0001
,
2000
0000
0010
3002
0000
0000
0103
0010
,
1000
0000
0001
0010
0100
1000
0001
0000
1000
0010
0100
0001
1000
0000
0010
0100
,
0020
0000
1000
0230
0000
0000
0301
1000
,
0010
0000
0100
0010
1000
0001
0010
0000
0100
1000
0010
1000
0001
0000
0100
0000
,
1010
0100
0011
0100
2002
3003
1200
0001
,
0301
0000
0100
0001
0100
0010
0001
0000
0100
0010
0100
0001
1000
0000
0010
0000
,
0021
0030
0010
1020
0000
0030
0201
1000
,
1300
0000
0100
1000
0100
0010
1000
0000
0010
0100
0010
1000
0001
0000
0010
0000
,
0120
0030
0010
0120
0000
0030
1020
0001
,
0031
0000
0010
0100
0001
0100
1000
0000
0010
0100
0010
1000
0001
0000
0100
0000
,
1200
0300
0100
0201
0000
0300
1020
0001
,
0031
0000
0010
0001
0010
0100
0001
0000
0010
0100
0010
0001
1000
0000
0001
0020
,
0030
0020
0130
0001
1000
0000
0000
0000
0001
0000
1000
0020
0030
0020
0031
0000
,
1000
0000
0001
0020
0030
0020
1030
0000
0001
0000
1000
0020
0030
0020
0031
0000
,
0100
0000
0001
0010
0100
1000
0010
1000
0001
0000
1000
0200
0300
0200
0301
0000
,
0010
0000
0001
0200
0300
0200
1300
0000
0001
0000
1000
0200
0300
0200
0301
0000
,
0010
0000
0001
0100
0010
1000
0100
1000
0001
0000
0100
0020
0030
0020
0031
0000
,
1000
0000
0100
0020
0030
0020
1030
0000
0001
0000
0100
0020
0030
0020
0031
0000
,
1000
0000
0010
0100
0001
0010
0100
1000
0001
0000
0010
0200
0300
0200
0301
0000
,
1000
0000
0010
0200
0300
0200
1300
0000
0001
0000
0010
0200
0300
0200
0301
0000
,
1000
0100
0010
0001
1000
0000
1001
0000
0110
0000
0000
0002
2003
3000
0000
0000
,
0200
0320
0031
1000
0000
0000
0020
0230
1300
0000
0200
0320
1030
0000
0000
0000
,
0200
0320
0031
1000
0000
0000
0200
0320
0031
0000
0020
0230
0301
0000
0000
0000
,
0200
0320
0031
1000
0000
0000
0020
0230
1300
0000
0200
0320
1030
0000
0000
0000
,
0200
0320
0031
1000
0000
0000
0200
0320
0031
0000
0100
2000
3002
0003
0000
0000
,
1000
0000
0100
0000
0000
0000
0100
0000
0001
0000
0000
0000
0001
0000
0010
0000
0001
0000
0000
0000
0001
0000
1000
0000
0200
0300
0000
0000
0000
0000
0000
0000
,
0001
0000
0000
0000
0000
0000
0100
0000
0000
0000
0000
0000
0000
0000
0000
0000
0100
0000
0000
0000
0000
0000
1000
0000
0000
0000
0000
0000
0000
0000
0000
0000
1000
0000
0000
0000
0000
0000
0001
0000
0000
0000
0000
0000
0000
0000
0000
0000
0001
0000
0000
0000
0000
0000
0000
0000
0000
0000
0000
0000
0100
0000
0000
0000
0000
0000
0000
0000
0000
0000
0000
0000
2200
0000
0000
3300
0000
0000
0000
0000
0000
0000
0000
0000
0000
0000
0000
0000
0000
0000
0000
0000
0000
0000
0000
0000
,
1000
0100
0000
0100
0001
0000
0001
1000
0001
0000
0001
0010
0100
0000
1000
0100
,
0010
0000
0001
0010
0100
0000
1000
0100
0010
0000
0000
0020
1000
0000
0000
0000
,
0031
0001
1000
0020
0030
0020
0031
0000
1000
0000
1000
0020
0001
0000
0000
0000
,
1030
1000
0001
0020
0030
0020
1030
0000
0001
0000
0000
0200
1000
0000
0000
0000
,
0301
0001
1000
0200
0300
0200
0301
0000
1000
0000
1000
0200
0001
0000
0000
0000
,
1300
1000
0001
0200
0300
0200
0310
0001
1000
0000
0000
0002
0100
0000
0000
0000
,
0013
0010
0001
0200
0300
0200
1300
0001
0010
0000
0001
2000
0100
0000
0000
0000
,
3010
0010
1000
0200
0300
0200
0301
0000
0010
0000
0000
0002
1000
0000
0000
0000
,
0103
0100
0001
0020
0030
0020
1030
0000
0000
0000
0000
0000
0000
0000
0000
0000
,
0001
0000
0001
0100
0000
0100
1000
0000
1000
0100
0010
0000
1000
0001
1000
0001
,
1000
0000
1000
0100
0000
0100
0001
0000
0001
0100
0010
0000
0001
1000
0010
0100
,
0001
0000
0001
0010
0000
0010
1000
0000
1000
0010
0100
0000
1000
0001
1000
0001
,
1000
0000
1000
0010
0000
0010
0001
0000
0001
0010
0100
0010
1000
0001
0010
0100
,
1000
0000
1000
0100
0000
0100
0001
0000
0001
1000
0010
0000
0001
1000
0001
1000
,
0001
0000
0001
0100
0000
0100
1000
0000
1000
0001
0010
0000
0100
0010
1000
0001
,
1000
0010
1000
0001
0010
0001
1000
0100
1000
0001
0100
0001
1000
0001
0100
0010
,
0000
0000
0000
0000
0000
0000
0000
0000
1000
0100
1000
0100
0001
0000
0100
0010
,
0100
0010
0001
0000
0001
0100
0010
0100
0001
0100
0001
0100
1000
0000
0100
0010
,
0100
0010
1000
0000
1000
0100
0010
0001
1000
0010
1000
0010
0001
0000
0010
0100
,
0010
0100
0001
0000
0001
0010
0100
0010
0001
0010
0001
0010
1000
0000
0010
0100
,
0010
0100
1000
0000
1000
0001
0100
0010
1000
0100
0010
0100
1000
0001
1000
0010
,
0100
0010
1000
0001
1000
0000
0001
1000
0001
0100
0010
0100
0001
1000
0001
0010
,
0100
0010
0001
1000
0001
0000
0100
0010
2000
0000
0000
0001
0000
0000
3001
0000
,
0000
0100
0010
0000
1000
0001
1000
0001
0000
0000
0000
0000
0000
0000
0000
0000
,
1001
0000
0000
1001
0000
0000
1100
0000
,
0101
0000
0000
1001
0000
0000
0101
0100
,
1010
0000
0000
1001
0000
0000
1100
0000
,
0011
0000
0000
0000
1010
0010
0101
0000
,
0000
1001
0000
0001
0011
0010
0110
0100
,
1000
0001
1000
0001
0000
0000
0100
0000
1001
0000
0010
0000
0110
0000
0000
0000
,
0000
1001
0000
0001
0101
0100
0101
0001
,
2020
3030
0000
0000
1000
0000
0000
0000
2200
3300
0000
0000
0010
0000
0000
0000
0202
0303
0000
0000
0001
0000
0000
0000
0022
0033
0000
0000
0100
0000
0000
0000
,
2002
0000
0000
0000
0000
3003
0000
0000
;
