#TITLE:only my railgun;
#SUBTITLE:;
#ARTIST:Starving Trancer feat. MAKI;
#TITLETRANSLIT:;
#SUBTITLETRANSLIT:;
#ARTISTTRANSLIT:;
#GENRE:;
#CREDIT:;
#MUSIC:only my railgun.ogg;
#BANNER:only my railgun.png;
#BACKGROUND:only my railgun-bg.png;
#CDTITLE:;
#SAMPLESTART:61.005;
#SAMPLELENGTH:17.344;
#SELECTABLE:YES;
#OFFSET:-0.015;
#BPMS:0.000=144.000
,80.000=72.000
,88.000=144.000
;
#STOPS:;
#BGCHANGES:;
#FGCHANGES:;

//--------------- dance-single - Cremie ----------------
#NOTES:
     dance-single:
     Cremie:
     Beginner:
     5:
     0,0,0,0,0:
0000
0000
0000
0000
,
0000
0000
0000
0000
,
0000
0000
0000
0000
,
0000
0000
0000
0000
,
1000
0000
1000
0000
,
0001
0000
0001
0000
,
0010
0000
0100
0000
,
2002
0000
0000
3003
,
1000
0100
1000
0000
,
0001
0010
0001
0000
,
0200
0300
0020
0030
,
2000
0001
3001
0000
,
0001
0100
0001
0000
,
1000
0010
1000
0000
,
0200
0300
0010
0001
,
0200
0300
0001
1000
,
0100
0000
0010
0000
,
2002
0000
0000
3003
,
0010
0100
0010
0000
,
1001
0000
0000
0000
,
0002
0003
0020
0030
,
0200
0300
2000
3000
,
0002
0000
0103
0010
,
2000
0000
3100
0010
,
0002
0003
1000
0001
,
0100
0010
1000
0000
,
0100
1000
0010
0000
,
0100
0010
1000
0000
,
0100
0010
0001
0000
,
0100
0010
1000
0000
,
0001
1000
0100
0000
,
0010
0100
1000
0000
,
0001
0100
0010
1000
,
0001
0000
1001
0000
,
0220
0000
0000
0330
0000
0000
0000
0000
,
1000
0010
1000
0010
,
0100
0001
0100
0000
,
0002
0003
0020
0030
,
0100
0100
0100
0000
,
0010
0001
0010
0001
,
0100
0001
0100
0000
,
0020
0000
1030
0001
,
0200
0000
0301
1000
,
0100
0010
0100
0010
,
0001
0010
0001
0000
,
0020
0030
0200
0300
,
1000
1000
1000
0000
,
0001
0100
0001
0100
,
0010
1000
0010
0000
,
2000
0000
3001
0001
,
0002
0000
0103
0100
,
0110
0000
1001
0000
,
0220
0000
0000
0330
,
2002
0000
0000
0000
,
3003
0000
0000
0000
,
1001
0000
0000
0000
;

//--------------- dance-single - Cremie ----------------
#NOTES:
     dance-single:
     Cremie:
     Easy:
     7:
     0,0,0,0,0:
0000
0000
0000
0000
,
0000
0000
0000
0000
,
0000
0000
0000
0000
,
0000
0000
0000
0000
,
0001
0100
0001
0100
,
0010
1000
0010
0000
,
1000
0001
1000
0001
,
2002
0000
0000
3003
,
0002
0000
0103
0000
0001
1000
0001
0000
,
2000
0000
3100
0000
1000
0001
1000
0000
,
0200
2300
3002
2003
,
3001
0001
1001
0000
,
2000
0000
3010
0000
1000
0001
1000
0000
,
0002
0000
0013
0000
0001
0100
0001
0000
,
2000
0000
3000
0000
0010
1000
0010
0000
,
2000
0000
3020
0000
0230
0000
0302
0003
,
0011
0000
1010
0000
,
1002
0100
1000
0013
,
2001
0100
0001
3010
,
1001
0000
0000
0000
,
2000
0000
0000
3000
0200
0000
0000
0300
,
0020
0000
0000
0030
0002
1000
1003
0000
,
2000
3010
0100
0001
,
0200
0301
0011
0000
,
0002
0203
0320
2030
,
3100
0000
0010
0001
1000
0000
1001
0000
,
0001
0000
0010
0100
0000
0010
0100
0000
,
1000
0001
1001
0000
,
1000
0000
0001
0010
0001
0000
0100
0000
,
0020
1000
1030
0000
,
1000
0000
0010
0100
0000
0010
0100
0000
,
0001
1000
1001
0000
,
0001
0000
1000
0000
0010
0100
0010
0000
,
2000
0001
3002
1003
,
1001
0000
0000
1001
0000
0000
0000
0000
,
2000
0000
0010
0000
3100
0010
0001
0000
,
0002
0000
0100
0000
0013
0100
1000
0000
,
0020
0230
0320
2030
,
3100
0010
1001
0000
,
0002
0000
0100
0000
0013
0100
1000
0000
,
2000
0000
0100
0000
3010
0100
0001
0000
,
0020
0000
0130
0000
1000
0001
1000
0000
,
0002
0203
0310
1001
,
2000
0000
0100
0000
3002
0100
1003
0000
,
2000
0000
0010
0000
3002
0010
1003
0000
,
0200
2300
3002
0013
,
0011
1100
1001
0000
,
0002
0000
0100
0000
2003
0010
3001
0000
,
0002
0000
0010
0000
2003
0100
3001
0000
,
0012
0000
1000
1003
,
2100
0000
0001
3001
,
0101
0000
1010
0000
,
2001
0100
0001
3010
,
0100
0010
0100
0000
0010
0100
0010
0000
,
2002
0000
0000
0000
,
3003
0000
0000
0000
;

//--------------- dance-single - Cremie ----------------
#NOTES:
     dance-single:
     Cremie:
     Medium:
     10:
     0,0,0,0,0:
0000
0000
0000
0000
,
0000
0000
0000
0000
,
0000
0000
0000
0000
,
0000
0000
0000
0000
,
0001
0010
0100
1100
,
1000
0010
0100
0101
,
0001
1000
0110
0001
,
2002
0000
0000
3003
,
0001
0100
0000
0001
0010
1000
0000
1000
,
0010
0001
0000
0001
0100
0010
1000
0100
,
2100
3010
0102
0013
,
0001
0000
0000
1000
0000
0000
1001
0000
0000
0000
1000
0000
0100
0000
0010
0000
,
0001
0100
0000
1000
0100
0001
0000
1000
,
0100
0001
0000
0001
0100
1000
0001
1000
,
0020
0000
0030
0000
0100
0001
0010
0100
,
2000
3020
0230
0302
,
1003
0001
0100
0000
1000
0100
0001
0000
,
2001
0000
0100
0000
0100
0000
0100
3000
,
0001
0100
0001
0000
1000
0100
1000
0000
,
2002
0000
0000
3003
,
2000
0000
0000
3010
0020
0000
0000
0030
,
0200
0000
0000
0300
1001
1001
1001
0000
,
2000
0000
3100
0000
1000
0001
1000
0001
,
0100
0000
0110
0000
0010
1000
0001
1000
,
0002
0000
0023
0000
0130
1000
0100
0010
,
0002
0000
0000
0203
0020
0330
0110
0000
,
0001
0000
0000
0010
0000
0000
0001
0000
0000
0000
0010
0000
1000
0000
0010
0000
,
0002
0000
0103
0010
2000
0000
3001
0000
,
0001
0100
0010
0000
1000
0100
0010
0000
,
0001
0000
0000
0100
0000
0000
0010
0000
1000
0000
0000
0000
1001
0000
0000
0000
,
1000
0000
0000
0100
0000
0000
1000
0000
0000
0000
0100
0000
0001
0000
0100
0000
,
2000
0000
3010
0100
0002
0000
1003
0000
,
1000
0010
0100
0000
0001
0010
0100
0000
,
1000
0001
1000
0001
0100
0010
0100
0000
,
0001
0000
0000
1000
0000
0000
0001
0000
0000
0000
0000
0000
0000
0000
0000
0000
,
1000
0100
0001
0000
1000
0010
0001
0000
,
1000
0010
0001
0000
1000
0100
0001
0100
,
1002
0013
2001
3010
,
1000
0000
0000
0001
0000
0000
0110
0000
0000
0000
1000
0000
0001
0000
1000
0000
,
0001
0010
1000
0000
0001
0100
1000
0000
,
0001
0100
1000
0000
0001
0010
1000
0100
,
0001
0000
0101
0000
0001
0100
1000
0010
,
0001
0000
0000
0010
0000
0000
1000
0000
0000
0000
0001
0000
0010
0000
0100
0000
,
1000
0100
0001
0000
0010
1000
0100
0000
,
0001
0010
1000
0000
0100
0010
0001
1000
,
1002
0203
0320
2030
,
3001
0000
0000
0010
0000
0000
0100
0000
1000
0000
0000
0000
1001
0000
0000
0000
,
0010
0001
0100
0000
1000
0010
0001
0000
,
0100
1000
0010
0000
0001
0100
0010
1000
,
0200
0000
0310
0000
0100
1000
0010
0100
,
0002
0023
0230
2300
,
3001
0100
1000
0000
1000
0100
0001
0000
,
1000
0100
0010
0001
0010
0100
1000
0000
,
0001
0100
0010
1000
0010
0100
0001
0000
,
2002
0000
0000
0000
,
3003
0000
0000
0000
;

//--------------- dance-single - Cremie ----------------
#NOTES:
     dance-single:
     Cremie:
     Hard:
     12:
     0,0,0,0,0:
0000
0000
0000
0000
,
0000
0000
0000
0000
,
0000
0000
0000
0000
,
0000
0000
0000
0000
,
1020
0000
0001
0000
0130
0001
1000
0000
,
1200
0000
0001
0000
0310
0001
0100
0000
,
0010
1000
0010
0100
0001
1000
0001
0000
,
2002
0000
0000
3003
,
1000
0000
0010
1000
0000
0000
0010
0000
0100
0000
0001
0010
0000
0000
0100
0000
,
0010
0000
0001
1000
0000
0000
0010
0000
0100
0000
1000
0000
0100
0000
0001
0000
,
0020
0230
2300
3002
,
0103
0000
0000
0100
0000
0000
0001
0000
1000
0000
1000
0000
1001
0000
0000
0000
,
0001
0000
0010
0001
0000
0000
0100
0000
0010
0000
1000
0100
0000
0000
1000
0000
,
0010
0000
0100
0001
0000
0000
0010
0000
0100
0000
0001
0000
0100
0000
1000
0000
,
0020
0000
0030
0000
0100
1000
0100
0001
,
0020
0230
0302
0203
,
1300
0000
0010
0100
0000
0000
0010
0000
1000
0000
0001
0100
0000
0000
0001
0000
,
0010
0100
0010
0100
1000
0001
1000
0001
,
1000
0100
0001
0100
0010
1000
0010
0001
,
2002
0000
0000
3003
,
2000
0000
0000
3010
0200
0000
0000
0300
,
0002
0000
0000
0000
0000
0000
0000
0000
0013
1000
0010
0001
1000
0000
1001
0000
,
0002
0000
0103
0000
0001
0010
1000
0100
,
0001
0000
1001
0000
1000
0010
0001
0100
,
2000
0000
3020
0000
0130
0001
0100
0010
,
1000
0100
0010
0001
1000
0000
1001
0000
,
0001
0000
0100
0010
0000
0100
0010
0000
0000
0000
1000
0000
0100
0000
0001
0000
,
0200
0000
0310
0001
1000
0000
1010
0000
,
0010
0000
0100
0000
0010
0000
1000
0000
0100
0010
0000
0002
0000
0000
0103
0000
,
0010
0000
0000
0001
0000
0000
0010
0000
1000
0000
0000
0000
1100
0000
0000
0000
,
1000
0000
0100
0010
0000
0100
0010
0000
0000
0000
0001
0000
0100
0000
1000
0000
,
0200
0000
0310
1000
0001
0000
0011
0000
,
0010
0000
0100
0000
0010
0000
0001
0000
0100
0010
0000
2000
0000
0000
3100
0000
,
0010
1000
0010
0001
0100
1000
0100
0001
,
0010
0000
0000
0100
0000
0000
2002
0000
0000
0000
0000
0000
3003
0000
0000
0000
,
1000
0000
0010
1000
0000
0000
0010
0100
0010
0000
1000
0001
0000
0000
0010
0100
,
0010
0000
0001
0100
0000
0000
0010
0000
1000
0000
0100
0000
0001
0000
0100
0000
,
2000
3020
0230
2300
,
3100
0000
0000
0100
0000
0000
0001
0000
0010
0000
1000
0000
0001
0000
0100
0000
,
1000
0000
0001
0010
0000
0000
0100
1000
0100
0000
1000
0010
0000
0000
0100
0001
,
0100
0000
0001
1000
0000
0000
0100
0010
0100
0000
0001
0000
0100
0000
1000
0000
,
0020
0000
0030
0000
0100
0001
0010
1000
,
0010
0000
0000
0100
0000
0000
1001
0000
0000
0000
1000
0000
0010
0000
0100
0000
,
0001
0000
0010
0100
0000
0000
1000
0001
0100
0000
0010
1000
0000
0000
0001
1000
,
0100
0000
0010
0001
0000
0000
0100
0010
0100
0000
0001
0000
0100
0000
1000
0000
,
0200
0320
2030
3002
,
0013
0000
0000
0010
0000
0000
0100
0000
1000
0000
0100
0000
0010
0000
0001
0000
,
0100
0000
0010
1000
0000
0000
0100
0010
0001
0000
1000
0001
0000
0000
0100
0010
,
1000
0000
0100
0010
0000
0000
0001
1000
0100
0000
1000
0000
0010
0000
0001
0000
,
0020
0000
0030
0000
0100
0001
0100
1000
,
0200
0320
2030
3002
,
1003
0000
0001
0100
0000
0000
1000
0000
0100
0000
0010
1000
0000
0000
0100
0000
,
0010
0001
0100
0010
1000
0100
0010
0001
,
0100
0010
0100
0000
0010
1000
0010
0000
1000
0100
1000
0000
0001
0100
0001
0000
,
2001
0000
0000
0000
,
3001
0000
0000
0000
;

//--------------- dance-single - Cremie ----------------
#NOTES:
     dance-single:
     Cremie:
     Challenge:
     15:
     0,0,0,0,0:
0000
0000
0000
0000
,
0000
0000
0000
0000
,
0000
0000
0000
0000
,
0000
0000
0000
0000
,
1000
0000
0001
0000
0100
0000
0010
1000
0000
0100
1000
0000
0100
0000
0010
0000
,
0001
0000
1000
0000
0010
0000
0100
0001
0000
0100
0010
0000
1001
0000
0000
0000
,
0001
0000
0010
0000
0100
0000
1000
0010
0100
0000
0010
0000
0101
0000
0001
1000
,
0200
0000
0000
0000
0000
0000
0000
0000
0310
0000
0001
1000
0001
1000
0001
0000
,
0100
0000
0010
1000
0000
0010
1000
0000
0100
0000
0010
0001
0000
0010
0001
0000
,
0100
0000
0001
0010
0000
0100
1000
0000
0010
0000
0001
0000
0010
0000
0100
0000
,
0002
0023
0230
2300
,
3010
0000
0000
0010
0100
0000
0001
0000
0010
0000
0100
0000
1000
0001
1000
0001
,
0010
0000
0100
1000
0000
0100
1000
0000
0010
0000
0100
0001
0000
0100
0001
0000
,
0010
0000
0001
0100
0000
0010
1000
0000
0100
0000
0001
0000
0100
0000
0010
0000
,
0022
0000
0033
0000
0001
0100
0010
1000
,
1200
0320
2030
3020
,
0031
0000
0100
0001
0000
0100
0010
0000
1000
0000
0100
0010
0000
0001
0010
0000
,
0100
0000
1000
0000
0001
0000
0100
0010
1000
0000
0100
0000
0010
0000
0001
1000
,
0100
0000
0010
0001
0100
0000
0010
1000
0001
0000
0010
0001
1000
0001
0100
0001
,
2000
0000
0000
3000
,
0020
0000
0000
0000
0130
0001
1000
0001
0020
0000
0030
0000
0100
1000
0001
1000
,
0200
0000
0000
0000
0310
0001
1000
0010
0001
0010
0100
0001
1000
0000
1001
0000
,
0001
0100
0001
0010
1000
0001
0100
1000
,
0010
0100
1000
0100
0001
1000
1001
0000
,
0001
0000
0010
0000
0100
0000
1000
0001
1000
0000
0010
0000
0100
0000
0001
0010
,
0100
1000
0100
0000
0010
0001
0010
0000
0001
1000
0001
1000
0001
0000
0000
0000
,
1000
0000
0001
0010
0000
0100
1000
0000
0100
0000
0001
0000
0100
0000
0010
0000
,
0002
0000
0000
0000
0103
0000
0010
1000
0100
0000
0100
0000
1100
0000
0000
0000
,
1000
0000
0010
0000
0100
0000
0001
0000
0010
0100
0000
0010
0100
0000
1000
0000
,
0001
0000
0100
0010
0000
0100
0010
0000
2002
0000
0000
0000
3003
0000
0000
0000
,
0001
0000
1000
0100
0000
0010
0001
0000
0010
0000
1000
0000
0010
0000
0100
0000
,
2000
0000
0000
0000
3010
0000
0100
0001
0010
0000
0010
0000
0011
0000
0000
0000
,
0001
0000
0100
0000
0010
0000
1000
0000
0001
0010
0000
0100
0010
0000
0100
0000
,
1000
0000
0001
0000
0100
0000
0010
1000
0100
0010
0100
0010
0100
0010
0100
0000
,
1100
0000
0000
0011
0000
0000
2002
0000
0000
0000
0000
0000
3003
0000
0000
0000
,
0100
0000
1000
0010
0000
1000
0100
0010
0001
0000
0100
0001
0000
1000
0010
0100
,
0001
0000
0010
0100
0000
0010
0001
0010
0100
0000
1100
0000
0010
0000
0011
0000
,
0002
0010
2003
0100
3020
0100
2030
0100
,
3001
0000
0100
0010
1000
0000
0100
0000
0010
0000
0001
0000
1000
0001
1000
0001
,
0100
0000
0010
0100
0000
0010
1000
0001
1000
0000
0100
0010
0000
0001
0010
0100
,
1000
0000
0001
0100
0000
0001
1000
0100
0010
0000
1000
0000
0010
0000
0001
0000
,
0202
0000
0303
0000
0010
1000
0100
0010
,
1000
0000
0010
0000
0001
0000
0100
0000
0010
0100
0010
0100
0001
1000
0001
1000
,
0001
0000
0010
0100
0000
0001
0100
1000
0100
0000
1000
0010
0000
0001
0010
1000
,
0010
0000
1000
0100
0000
0010
1000
0010
0001
0000
0101
0000
1000
0000
1010
0000
,
2000
0001
3020
0100
2030
0100
3002
0010
,
1003
0000
0100
1000
0010
0000
0100
0000
0001
0000
1000
0000
0100
0010
0100
0010
,
0100
0000
1000
0001
0000
0100
0010
1000
0010
0000
0100
1000
0000
0100
0001
1000
,
0001
0000
0010
0100
0000
0001
0100
1000
0100
0000
1000
0000
0010
0000
0100
0000
,
0202
0000
0303
0000
0001
1000
0100
1000
,
1020
0230
2300
3200
,
0301
0000
0010
0100
0000
0001
0100
0000
1000
0000
0010
0100
0000
1000
0100
0000
,
0001
0000
0010
0000
0100
0000
1000
0001
1000
0000
0010
0000
0100
0000
0001
1000
,
0001
0010
0001
0010
0100
1000
0100
1000
0001
0100
0001
0100
0010
1000
0010
1000
,
0002
0000
0000
0000
,
1003
0000
0000
0000
;
