#TITLE:neu BSP style;
#SUBTITLE:;
#ARTIST:cosMo@暴走P;
#TITLETRANSLIT:;
#SUBTITLETRANSLIT:;
#ARTISTTRANSLIT:;
#GENRE:;
#CREDIT:;
#MUSIC:neu BSP style.ogg;
#BANNER:neu BSP style.png;
#BACKGROUND:neu BSP style-bg.png;
#CDTITLE:;
#SAMPLESTART:64.241;
#SAMPLELENGTH:11.077;
#SELECTABLE:YES;
#OFFSET:0.374;
#BPMS:0.000=130.000
,134.000=65.000
,136.000=130.000
,168.000=199.000
;
#STOPS:36.000=0.231
,36.500=0.231
,37.000=0.231
,37.500=0.231
,168.000=0.603
;
#DISPLAYBPM:130.000:199.000;
#BGCHANGES:;
#FGCHANGES:;

//--------------- dance-single - ----------------
#NOTES:
     dance-single:
     :
     Hard:
     13:
     0,0,0,0,0:
0000
0000
0000
0000
,
0000
0000
0000
0000
,
0000
0000
0000
0000
,
0000
0000
0000
0000
,
0000
0000
0000
0000
,
0000
0000
0000
0000
,
1001
0000
1000
0010
0000
0100
0010
1000
,
0001
0000
0010
0100
0000
0010
0001
0100
,
0010
0000
1000
0001
0000
0010
0001
1000
,
2020
3030
0000
2200
3300
0000
0202
0303
0000
0022
0033
0000
1001
0000
0000
0000
0000
0000
1000
0000
0000
0000
0000
0000
,
0010
0000
0100
0010
1000
0000
0001
0010
,
0100
0000
0000
0010
0001
0000
0000
1000
,
0010
0000
0100
0001
1000
0100
0010
0001
,
0100
0000
0000
0100
0000
0000
0010
0000
1001
0000
0000
0000
1000
0000
0000
0000
,
0010
0000
0100
0010
1000
0000
0001
0000
,
0010
0100
1000
0001
0100
0000
0000
0010
,
1000
0000
0000
0000
0000
0000
0001
0000
0010
0000
0000
0000
0110
0000
0000
1100
,
0000
0000
0001
0000
0100
0001
0100
0000
0010
0000
1000
0000
0001
0000
1000
0000
,
0100
0000
0000
0100
1000
0000
0001
0000
0000
0000
0010
0000
0001
0000
1000
0000
,
0001
0000
0000
0001
0100
0000
0010
0000
0000
0000
1000
0000
0100
0000
0010
0000
,
0100
0000
0000
0100
1000
0000
0001
0000
0000
0000
0100
0000
0000
0010
0000
0000
,
0110
0000
0000
0101
0000
0000
1001
0000
0000
0000
0001
0000
0010
0000
0100
0000
,
0001
0100
0010
0001
0000
1000
0010
0100
,
1000
0100
0010
1000
0000
0100
0001
0100
,
1000
0001
0010
1000
0010
0001
0100
0001
,
1000
0100
0010
0010
0110
0000
0100
1000
,
0001
0000
0100
1000
0000
0000
0100
0001
,
1000
0001
0010
0100
1000
0000
0010
0100
,
0001
0000
0000
0001
0010
0000
0100
0000
0110
0000
0000
0000
0010
0000
0001
0000
,
0101
0000
0010
1000
1100
0000
0010
0001
,
1100
0000
0000
0000
0010
0000
1000
0000
0101
0000
0001
0000
0000
0010
0000
0000
,
0000
0100
0000
0100
0000
0000
1000
0000
1001
0000
0000
0101
0000
0000
0011
0000
,
0000
0100
0000
0000
1000
0000
0000
0000
1001
0000
0000
1100
0000
0000
1010
0000
,
0000
0100
1001
0000
0020
0100
1000
1030
,
0001
0000
0100
0001
0000
0100
0001
0000
0100
0010
0000
1000
0010
0000
1000
0000
,
0000
0000
0100
1000
0000
0100
1000
0000
0100
0010
0000
0001
0010
0000
0001
0000
,
0000
0000
0100
0010
0000
0100
0010
0000
1000
0001
0000
0010
0100
0000
0010
0000
,
0001
0000
0000
0001
0100
0000
0000
0000
0110
0000
0000
1010
0000
0000
1100
0000
,
0000
0000
0100
0010
0000
0100
1000
0000
0001
0010
0000
0100
0010
0000
0001
0000
,
0000
0000
0100
0010
0000
0100
0001
0000
1000
0010
0000
0100
0010
0000
1000
0000
,
0000
0000
0001
0010
0000
0100
0010
0000
0100
1000
0000
0001
1000
0000
0010
0000
,
0100
0000
0001
0100
0001
0000
1000
0100
1000
0000
0010
0100
0010
0000
0100
0000
,
2002
3003
0000
0000
0000
0000
0000
0000
1000
0000
0100
0000
0010
0000
0100
0000
,
0001
0100
0010
0100
1000
0000
1001
0000
,
0220
0000
0330
0000
0001
0100
0010
0100
,
1000
0100
0010
0100
0001
0000
1001
0000
,
1000
0100
0010
0000
1001
0000
0001
0100
,
1000
0000
1000
0100
0001
0000
0011
0000
,
1100
0000
0000
0000
1000
0000
0010
0000
0100
0000
0000
0100
0001
0000
0000
0001
,
1000
0000
0000
1000
0100
0000
0000
0100
0010
0000
0000
0010
0001
0000
0000
0001
,
1000
0000
0000
1000
0000
0000
1000
0000
0001
0000
0010
0000
0100
0000
0010
0000
,
1000
0010
0100
0010
0001
0000
1001
0000
,
0220
0000
0330
0000
1000
0010
0100
0010
,
0001
0010
0100
0010
1000
0000
1001
0000
,
0001
0100
0010
0000
0110
0000
0010
1000
,
0001
0000
1000
0000
0100
0000
0000
0000
0110
0000
0000
0010
0001
0000
0000
0001
,
0100
0000
0000
0100
0010
0000
1000
0000
1001
0000
0000
0001
0010
0000
0000
0000
,
1001
0000
0000
0000
0000
0000
0000
0000
0000
1000
0000
0000
0010
0000
0000
0000
0000
0000
0000
0000
0000
0000
0000
0000
0100
0000
0000
0000
0001
0000
0000
0000
0100
0000
0000
0000
0010
0000
0000
0000
1000
0000
0000
0000
0010
0000
0000
0000
,
0100
0000
0100
0000
0001
1000
0200
0000
0000
0000
0000
0000
,
0000
0000
0000
0000
,
0000
0000
0000
0000
,
0000
0000
0000
0000
,
0000
0000
0000
0000
,
0000
0000
0000
0000
,
0000
0000
0000
0000
,
0000
0000
0000
0000
,
0000
0000
0300
0000
;

//--------------- dance-single - ----------------
#NOTES:
     dance-single:
     :
     Challenge:
     16:
     0,0,0,0,0:
0000
0000
0000
0000
,
0000
0000
0000
0000
,
0000
0000
0000
0000
,
0000
0000
0000
0000
,
0000
0000
0000
0000
,
0000
0000
0000
0000
,
1001
0000
0000
0001
0010
0000
0200
0000
0000
0000
0310
0000
0001
0000
1000
0000
,
0010
0000
0000
0010
0100
0000
0002
0000
0000
0000
1003
0000
0100
0000
0010
0000
,
0110
0000
0000
0100
1000
0000
0020
0000
0000
0000
0130
0000
0001
0000
1000
0000
,
2200
3300
0000
0202
0303
0000
0022
0033
0000
2020
3030
0000
1001
0000
0000
0000
0000
0000
0001
0000
0000
0000
0000
0000
,
1010
0000
1000
0100
0020
0000
0031
1000
,
0010
0000
0000
0010
0100
0000
0001
0000
0010
0000
0000
0000
0100
0000
1000
0000
,
1020
0000
0130
0001
1000
0100
0001
0100
,
0010
0001
0000
0010
0100
0000
0100
0000
1001
0000
0000
0001
1000
0000
0010
0000
,
0100
0000
0001
0100
0001
0000
1000
0000
1100
0000
0000
0000
0011
0000
0000
0000
,
0010
0001
0010
0100
1000
0000
0010
0000
2010
0000
0000
0000
3100
0000
1000
0000
,
0002
0000
0000
0000
0103
0000
0010
0000
1000
0000
0100
0010
0001
0000
1001
0000
,
1000
0010
0100
0001
1000
0100
0010
0001
0100
0000
0000
0000
0010
0000
0001
0000
,
0010
1000
0000
0100
1000
0000
1001
0000
0000
0000
0001
0000
0100
0000
1000
0000
,
0100
0001
0000
0010
0001
0000
1001
0000
0000
0000
1000
0000
0100
0000
0001
0000
,
0100
1000
0000
0010
1000
0000
0110
0000
0000
0100
0001
0000
0001
0010
0000
0010
,
0100
0000
0000
0110
0000
0000
1001
0000
0000
0000
0001
0000
0100
0000
1000
0000
,
0100
0001
0100
0010
1000
0000
1010
0000
0000
0000
1000
0000
0100
0000
0001
0000
,
0100
1000
0100
0010
0001
0000
0011
0000
0000
0000
0001
0000
0010
0000
1000
0000
,
0010
0001
1000
0001
0200
0000
0320
0000
1030
0100
1000
0100
0010
0000
0001
0000
,
0100
1000
0000
0100
0001
0000
0010
0000
1001
0000
0000
0000
0002
0000
0203
0000
,
2300
0000
3002
0023
1030
0000
1000
0200
,
0302
2003
3020
0032
2003
0000
3010
1000
,
0100
0010
0100
0010
0001
0000
0100
0000
1010
0000
0010
1000
0100
0010
0001
0000
,
0011
0000
0010
0001
0100
0010
1000
0000
1100
0000
0100
0010
0100
1000
0001
0000
,
0101
0000
0100
0010
0100
0001
1000
0000
0100
0010
0100
0000
1000
0001
0000
0001
,
0100
1000
0000
1000
0100
0000
0010
0000
1001
0000
1000
0100
0000
0001
0100
0000
,
0010
0001
1000
0001
0100
0000
0110
0000
1001
0000
0001
0100
0000
1000
0100
0010
,
1000
0000
0001
0010
1000
0000
0001
0000
0200
0000
2300
0000
3020
0000
0032
0000
,
0013
0000
0100
0001
0000
0010
0001
0000
0100
0001
0000
0010
0001
0000
1000
0000
,
0010
0000
1000
0100
0000
0010
0100
0000
1000
0100
0000
0010
0001
0000
1000
0000
,
0001
0000
0100
1000
0000
0100
0010
0000
0100
1000
0000
0100
0001
0000
0010
0000
,
0100
1000
0100
0010
0001
0000
1000
0000
1100
0000
0000
1001
0000
0000
1010
0000
,
0010
0000
0100
0001
0000
0100
1000
0000
0100
0001
0100
0010
1000
0000
0001
0000
,
0010
0000
0100
1000
0000
0100
0001
0000
0100
1000
0100
0010
0001
0000
0100
0000
,
0010
0000
1000
0010
0000
0001
0010
0000
0100
0001
1000
0010
0100
0000
0001
0000
,
0010
0100
0010
0100
1000
0010
1000
0000
0010
0100
0010
0100
0001
0010
0100
0000
,
2002
3003
0000
0000
0000
0000
0000
0000
0001
0000
0100
0001
0100
0000
0010
0100
,
0010
0000
1000
0010
1000
0000
0001
1000
0001
0000
1000
0100
0010
0000
0100
0010
,
0002
0000
0000
0000
1003
0000
0000
0000
1000
0000
0100
1000
0100
0000
0010
0100
,
0010
0000
0001
0010
0001
0000
1000
0001
1000
0000
0001
0100
0010
0000
0100
0010
,
1000
0000
0001
1000
0100
0000
0000
0000
0110
0000
0000
0000
0010
0000
0001
0000
,
0200
0000
0000
0000
0301
0000
1000
0001
1000
0000
0001
0100
0010
0000
1000
0001
,
0020
0000
0000
0000
0031
0000
1000
0000
0001
0100
0010
0100
0001
0000
0000
0000
,
1000
0100
0010
0100
1000
0000
0000
0000
0010
1000
0001
0000
0010
0001
1000
0000
,
1001
0000
0000
0110
0000
0000
0001
1000
0001
0000
1000
0100
0010
0000
0100
0010
,
0001
0000
0010
0001
1000
0000
0001
1000
0100
0000
1000
0100
0010
0000
0001
0000
,
0022
0000
0000
0000
0033
0000
0000
0000
1000
0000
0001
0100
0010
0000
0100
0010
,
1000
0000
0010
1000
0001
0000
1000
0001
0100
0000
0001
1000
0100
0000
0010
0001
,
1000
0000
0010
0000
0101
0000
0000
0000
0001
0010
0100
0000
0010
0000
0001
1000
,
0010
0000
0100
0000
0110
0000
0000
0000
0100
0001
0010
0100
1000
0000
0000
0000
,
0010
1000
0100
0010
0001
0000
0010
0000
0100
1000
0001
0000
0100
0001
1000
0000
,
0010
0000
0000
0100
0000
0000
0001
0000
0000
0000
0000
0000
0010
0000
0000
0100
0000
0000
1000
0000
0000
0000
0000
0000
0010
0000
0000
0000
1000
0000
0000
0000
0001
0000
0000
0000
0010
0000
0000
0000
0001
0000
0000
0000
1000
0000
0000
0000
,
0100
0000
0110
0000
0010
0100
2002
0000
0000
0000
0000
0000
,
0000
0000
0000
0000
,
0000
0000
0000
0000
,
0000
0000
0000
0000
,
0000
0000
0000
0000
,
0000
0000
0000
0000
,
0000
0000
0000
0000
,
0000
0000
0000
0000
,
0000
0000
3003
0000
;
