#VERSION:0.83;
#TITLE:murmur twins(guitar pop ver.);
#SUBTITLE:;
#ARTIST:yu_tokiwa.djw merge scl.gtr;
#TITLETRANSLIT:;
#SUBTITLETRANSLIT:;
#ARTISTTRANSLIT:;
#GENRE:;
#CREDIT:;
#MUSIC:murmur twins(guitar pop ver.).ogg;
#BANNER:murmur twins(guitar pop ver.).png;
#BACKGROUND:;
#CDTITLE:;
#SAMPLESTART:75.543;
#SAMPLELENGTH:10.000;
#SELECTABLE:YES;
#OFFSET:1.181;
#BPMS:0.000=174.000;
#STOPS:;
#SPEEDS:0.000=1.000=0.000=0;
#SCROLLS:0.000=1.000;
#TICKCOUNTS:0.000=4;
#TIMESIGNATURES:0.000=4=4;
#LABELS:0.000=Song Start;
#COMBOS:0.000=1;
#ORIGIN:;
#PREVIEWVID:;
#JACKET:murmur twins(guitar pop ver.)-jacket.png;
#CDIMAGE:;
#DISCIMAGE:;
#BGCHANGES:0.000=murmur twins(guitar pop ver.).avi=1.000=1=0=0=StretchNoLoop==CrossFade==;
#FGCHANGES:;

//--------------- dance-single - ----------------
#NOTEDATA:;
#STEPSTYPE:dance-single;
#DESCRIPTION:;
#DIFFICULTY:Beginner;
#METER:3;
#RADARVALUES:0,0,0,0,0;
#CREDIT:Kikoia;
#NOTES:
0000
0000
0000
0000
,
0000
0000
0000
0000
,
0000
0000
0000
0000
,
0000
0000
0000
0000
,
0000
0000
0000
0000
,
1000
0000
0000
0000
,
0000
0000
0000
0000
,
0001
0000
0000
0000
,
0000
0000
0000
0000
,
0100
0000
0000
0000
,
0000
0000
0000
0000
,
0100
0000
0000
0000
,
0010
0000
0000
0000
,
0010
0000
0010
0000
,
1000
0000
1000
0000
,
1000
0000
1000
0000
,
0001
0000
0001
0000
,
0001
0000
0001
0000
,
0010
0000
0010
0000
,
0010
0000
0100
0000
,
0100
0000
1000
0000
,
1001
0000
0000
0000
,
0000
0000
0000
0000
,
1000
0000
0000
0000
,
0000
0000
0000
0000
,
0001
0000
0001
0000
,
1000
0000
1000
0000
,
0001
0000
0001
0000
,
1000
0000
1000
0000
,
0001
0000
0100
0000
,
0001
0000
0100
0000
,
0001
0000
1000
0000
,
0001
0000
1000
0000
,
0010
0000
1000
0000
,
0010
0000
1000
0000
,
0100
0000
0010
0000
,
0001
0000
1000
0000
,
0100
0000
1000
0000
,
0100
0000
1000
0000
,
0001
0000
1000
0000
,
0001
0000
0010
0000
,
0001
0000
0010
0000
,
0001
0000
1000
0000
,
0001
0000
1000
0000
,
0001
0000
0000
0000
,
1001
0000
0000
0000
,
0000
0000
0000
0000
,
1001
0000
0000
0000
,
0000
0000
0000
0000
,
0001
0000
0000
0000
,
0001
0000
0000
0000
,
1000
0000
1000
0000
,
0100
0000
0100
0000
,
0010
0000
0010
0000
,
0001
0000
0001
0000
,
1000
0001
0000
0000
,
1001
0000
0000
0000
,
0001
0000
0001
0000
,
1000
0000
1000
0000
,
0001
0000
0001
0000
,
0100
0000
0100
0000
,
0001
0000
0001
0000
,
0100
0000
0100
0000
,
0010
0000
0010
0000
,
1000
0000
1000
0000
,
0001
0000
0001
0000
,
1000
0000
1000
0000
,
0100
0000
0100
0000
,
1000
0000
1000
0000
,
0100
0000
0100
0000
,
0010
0000
0010
0000
,
0001
0000
0001
0000
,
1001
0000
0000
0000
,
0000
0000
0000
0000
,
0110
0000
0000
0000
,
0000
0000
0000
0000
,
1000
0000
1000
0000
,
0010
0000
0010
0000
,
0100
0000
0100
0000
,
0001
0000
0001
0001
,
1000
0000
0000
0000
,
0000
0000
0000
1001
;

//--------------- dance-single - ----------------
#NOTEDATA:;
#STEPSTYPE:dance-single;
#DESCRIPTION:;
#DIFFICULTY:Easy;
#METER:8;
#RADARVALUES:0,0,0,0,0,0,0,0,0,0,0,0,0,0,0,0,0,0,0,0,0,0,0,0,0,0,0,0;
#CHARTNAME:;
#CHARTSTYLE:;
#CREDIT:Kikoia;
#NOTES:
0000
0000
0000
0000
,
0000
0000
0000
0000
,
0000
0000
0000
0000
,
0002
0003
0000
0002
0003
0000
2000
3000
,
0000
2000
3000
0000
0100
0000
0000
0220
,
0000
0000
0000
0000
,
0000
0000
0000
0000
,
0330
0000
0000
0000
,
0000
0000
0000
0000
,
2000
0000
0000
0000
,
0002
0000
0000
3003
,
1000
0000
1000
0000
,
0001
0001
0002
0003
,
1000
0100
1000
0000
,
0001
0100
0001
0000
,
1000
0100
1000
1000
,
0001
0100
0001
0001
,
0100
0010
0100
0100
,
0001
1000
0001
1000
,
2002
0000
0000
0000
3003
0000
0000
0110
,
0000
0000
0110
0000
,
1001
1000
0100
0010
,
0001
1000
0001
0001
,
1000
0010
0100
0001
,
1000
0001
1000
1000
,
0002
0003
0001
0001
,
0200
0300
0100
0100
,
0001
0001
0010
0010
,
0100
1000
2002
3003
,
1000
1000
0100
0000
,
0001
0001
0100
0000
,
0001
0100
0010
0000
,
0010
1000
0001
0000
,
1000
1000
0010
0000
,
0001
0001
0010
0000
,
1000
0010
0100
0001
,
0010
0100
2000
3000
,
0001
0100
0001
0100
,
0010
1000
0010
1000
,
0001
1000
0001
0010
,
0100
0010
0110
0110
,
2002
3003
0000
0000
,
1000
0001
0100
0001
,
1000
0000
0000
1001
0000
0000
0000
0000
,
0100
0000
0000
0000
0010
0010
0000
0000
,
1000
0000
0100
0000
,
0001
0000
0100
0000
,
0001
0000
0000
0000
0010
0000
0000
1000
,
0000
1000
0000
0001
0000
0001
0000
0000
,
1000
0000
0010
0000
,
0001
0000
0010
0010
,
0100
0000
0000
0100
0000
0000
1000
0000
,
0000
1000
0000
0000
0001
0000
0001
0000
,
1000
0000
0000
1000
0000
0000
0010
0000
,
0000
0010
0000
0000
0100
0000
0100
0000
,
0001
1000
0001
0000
0000
0000
0000
0000
,
1000
0001
1000
1000
,
0001
0100
0001
0001
,
1000
0010
0100
0100
,
0001
0010
0100
0100
,
1000
0100
1000
0100
,
0010
0001
0010
0001
,
1000
0001
1000
0001
,
0110
2002
0000
3003
,
0001
0100
0001
0001
,
1000
0100
1000
1000
,
0001
0100
0010
1000
,
1000
0100
0010
0001
,
0100
0010
0100
0100
,
0001
0010
0100
0100
,
0010
0000
0001
0000
0100
0000
0000
0110
,
0000
0000
0110
0110
,
1001
0001
0100
0010
,
1000
0001
0010
0100
,
1000
0100
0010
0100
,
1000
0010
0100
0001
,
2000
0000
3000
0000
1000
0100
1000
0000
,
0002
0000
0003
0000
0001
0100
0001
0000
,
1000
1000
0010
0010
,
0100
0000
0001
0000
0010
0000
0100
2000
,
0000
0000
0000
0000
,
0000
0000
0000
0000
,
3000
0000
0000
0000
;

//--------------- dance-single - ----------------
#NOTEDATA:;
#STEPSTYPE:dance-single;
#DESCRIPTION:;
#DIFFICULTY:Medium;
#METER:13;
#RADARVALUES:0,0,0,0,0,0,0,0,0,0,0,0,0,0,0,0,0,0,0,0,0,0,0,0,0,0,0,0;
#CHARTNAME:;
#CHARTSTYLE:;
#CREDIT:KAYSTAR & Kikoia;
#NOTES:
0000
0000
0000
0000
,
0000
0000
0000
0000
,
0000
0000
0000
0000
0000
0000
0000
0000
0000
0000
0000
0000
1001
0000
0000
1000
,
0001
0200
0000
0010
0320
0000
1030
0200
,
0000
0000
0010
0000
0320
0000
0000
0031
1000
0000
0010
0000
0100
0000
0002
0000
,
0000
0000
0000
0000
1003
0100
1000
0020
,
0000
0130
0001
1000
,
0200
0000
0000
0000
0310
0001
1000
0020
,
0000
0000
0000
2030
0000
3002
0000
2003
,
0000
0000
0000
0000
3001
0100
0001
0020
,
0000
0130
1000
0001
,
0100
0000
0000
0000
1001
0000
0000
0001
1000
0000
0100
0000
0100
0000
2000
0000
,
0000
3010
0100
0001
0010
0100
1000
0020
,
0000
0030
1001
0000
1000
0100
1000
0020
,
0000
1030
0100
0010
0002
0000
0203
0000
,
0301
1000
0001
0000
0010
0001
0100
0020
,
0000
1030
0100
0020
0000
1030
0010
0001
,
0000
0000
0011
0000
0001
1000
0010
0020
,
0000
0130
0001
0010
0100
1000
0010
0000
,
0110
0000
1002
0000
0103
0010
1000
0200
,
0000
0001
0301
0100
0010
0001
1000
0020
,
0000
0000
1000
0000
0100
0000
1030
0002
,
1000
0000
0100
0000
1003
0010
0010
0200
,
0000
0301
0010
0100
1000
0001
0100
0010
,
1000
0100
0010
0200
0000
1000
1300
0000
,
0001
0100
0001
1000
0001
0010
0100
0000
,
1000
0010
0100
0010
1000
0001
0002
0000
,
0013
0100
1000
0020
0000
0130
0001
0020
,
0000
0000
0130
0000
1000
0000
0001
1000
0001
0000
1000
0000
0100
0000
0010
0000
,
0001
0000
1000
1000
0010
1000
0002
0100
,
0000
1000
0000
0103
0010
1000
0001
0010
,
0000
0010
0100
0000
1000
1000
0001
2000
,
0000
0010
0000
0001
0000
3010
1000
0100
,
0000
1000
1000
0000
0001
0100
0002
1000
,
0000
0010
0000
1003
0010
0100
0010
2000
,
0000
3100
0010
0000
0001
0001
1000
0002
,
0000
0103
0010
2000
0000
3100
0100
0000
,
1001
1000
0010
0000
1000
1000
0002
0010
,
0000
1000
0000
0013
0100
1000
0010
0200
,
0000
1300
0100
0000
0001
1000
0001
0020
,
0000
0100
0000
1000
0000
0130
0010
0001
,
0000
0000
0101
0000
0001
1000
0100
0000
,
0010
0001
0100
0002
0000
2003
0000
3010
,
0110
0000
1000
1001
0000
0001
0010
0200
,
0000
0000
1300
0000
0001
0010
0001
0200
,
0000
0000
0000
1300
0100
0002
0000
2003
,
0000
3200
0000
0301
0100
2000
0000
3010
,
0200
0000
0302
0000
1003
0100
0000
0012
,
0000
0000
0103
0000
0000
0000
2100
0000
0000
0000
3010
0000
0000
0000
0001
1000
,
0002
0000
0000
1003
0010
0100
0010
2000
,
0000
3002
0000
0023
0000
0032
0000
1003
,
1000
0100
0010
0011
0000
0010
0100
1000
,
0010
1010
0000
0010
0100
0001
2000
0000
,
3100
0010
0100
0002
0000
0103
0010
0001
,
0100
2000
0000
3100
0010
1000
0001
2000
,
0000
0000
0001
0000
3001
0000
0000
1000
0001
0000
1000
0000
0100
0000
0010
0000
,
0000
0000
0011
0000
0001
0100
0010
1000
,
0000
0001
0010
0100
0001
0100
1000
0000
,
0001
1000
0100
0000
0010
0001
0100
0020
,
0000
1030
0010
0100
1000
0100
0001
1000
,
0000
0000
1100
0000
1000
0001
0010
0020
,
0000
0031
1000
0010
0100
0001
1000
0000
,
1100
0000
1001
0000
0001
0100
0001
0020
,
0000
0000
0031
0000
0000
1000
0001
0000
1000
0000
0100
0000
1000
0000
0020
0000
,
0000
0030
1001
0000
1000
0100
0010
0002
,
0000
1003
0010
0100
1000
0100
0020
0000
,
1030
0001
0020
0000
0130
1000
0100
0020
,
0000
1030
0010
0100
0001
0100
1000
0001
,
0000
0000
0101
0000
0001
1000
0010
0020
,
0000
0031
0010
1000
0001
0010
0100
0000
,
0110
0000
1001
0000
1000
0100
1000
0020
,
0000
0000
0130
0000
0000
0001
0100
0000
0010
0000
1000
0000
0001
0000
0020
0000
,
0100
0000
1000
0000
0100
0000
0031
2000
,
0001
0000
0010
0000
3001
1000
1000
0020
,
0100
0000
0001
0000
0100
0000
1030
0002
,
1000
0000
0010
0000
1003
0001
0001
0000
,
1000
1000
0001
1000
0100
1000
0010
0200
,
0000
1300
0100
0010
1000
0100
0100
0000
,
1000
0001
0100
0001
1000
0001
0010
0200
,
0000
0000
0301
0000
0100
0000
0010
0000
0001
0000
1000
0001
1000
0000
0020
0000
,
0000
0000
0000
0000
,
0000
0000
0000
0000
0000
0000
0000
0000
0000
0000
0000
0130
0010
0100
0000
0000
;

//--------------- dance-single - f*** it (keekstar mix) ----------------
#NOTEDATA:;
#STEPSTYPE:dance-single;
#DESCRIPTION:f*** it (keekstar mix);
#DIFFICULTY:Hard;
#METER:15;
#RADARVALUES:0.679066,0.840849,0.222685,0.471064,0.312615,555,529,26,55,0,0,0,0,0,0.679066,0.840849,0.222685,0.471064,0.312615,555,529,26,55,0,0,0,0,0;
#CHARTNAME:;
#CHARTSTYLE:;
#CREDIT:KAYSTAR & Kikoia;
#NOTES:
0000
0000
0000
0000
,
0000
0000
0000
0000
,
0000
0000
0000
0000
0000
0000
0000
0000
0001
1000
0001
1000
0010
0000
0100
0001
,
1000
0000
1000
0000
0100
0010
0001
0000
0001
0000
1000
0010
0100
0000
0100
0000
,
0001
0010
0100
0000
0100
0000
1000
0010
1000
0000
0001
0010
0001
0000
0200
0000
,
0000
0000
0000
0000
0301
0100
0010
2000
,
0000
3200
0302
0203
,
2300
0000
0000
0000
3001
1000
0100
0020
,
0000
0000
0000
0032
0000
2003
0000
3020
,
0000
0000
0000
0000
0031
0010
1000
0002
,
0000
0000
0000
0000
0023
0000
0000
0000
0130
0000
1000
0001
0100
0000
0000
0000
,
1001
0000
0001
0000
0010
0000
0100
1000
0002
0000
0100
0000
0103
0000
0001
0000
,
1000
0100
1000
0000
0001
0010
0001
0000
1000
0000
0100
0000
1000
0000
0020
0000
,
0000
0000
0130
0000
1001
0000
0000
0001
1000
0000
0100
0000
0010
0000
0020
0000
,
0000
0000
0031
0000
1000
0000
0010
0100
0010
0000
0100
0000
0001
0000
1000
0000
,
0100
0000
0000
0000
0011
0000
0000
1000
0100
0000
0001
0000
0100
0000
2000
0000
,
0000
0000
0010
0000
3010
0000
0100
0000
0001
0000
0010
0100
0010
0100
2000
0000
,
0000
0000
3010
0000
0101
0000
0000
0001
1000
0000
0100
0000
1000
0000
0020
0000
,
0000
0000
0100
0000
0130
0000
0001
0000
1000
0000
0010
0000
0001
0000
0010
1000
,
0001
0000
0012
0000
0103
0010
1000
1020
,
0000
0000
0100
0000
0130
0000
0001
0000
0010
0000
0001
1000
0100
0010
0002
0000
,
1000
0000
0100
0000
1003
0001
0100
0010
,
1000
0100
1000
0020
0000
0130
0001
1000
,
0001
0010
1000
0001
0100
1000
0001
1000
,
0010
0000
1000
0000
0100
0000
0010
0000
0001
0000
1000
0010
1000
0010
0100
0000
,
0001
1000
0100
1000
0010
1000
0001
0010
,
0001
1000
0001
0100
0010
1000
2000
0000
,
3100
0010
0001
1000
0010
0100
0001
0020
,
0000
0000
0130
0000
1000
0001
1000
0001
0010
0000
0001
0000
1000
0100
0010
0001
,
1000
0000
0001
0000
0010
0000
0000
0010
0001
0000
0100
0000
0010
0000
1000
0000
,
0100
0000
1000
0000
0010
0000
0000
0010
1000
0000
0100
0000
0010
0000
0001
0000
,
0100
0000
0001
0000
0010
0000
0000
0010
0100
0000
1000
0000
0010
0000
0200
0000
,
0000
0301
0010
0200
0000
0301
0100
2000
,
0000
0000
3010
0000
0100
0000
0000
0100
0010
0000
1000
0000
0100
0000
0010
0000
,
1000
0000
0010
0000
0100
0000
0000
0100
1000
0000
0001
0000
0100
0000
2000
0000
,
0000
0000
3100
0000
0110
0000
0000
0010
1000
0000
0001
0000
0010
0000
0120
0000
,
0000
0000
0130
0000
1000
0000
0001
0100
0001
0000
1000
0000
0010
1000
0001
1000
,
0100
0000
0000
0000
1001
0000
0000
0001
0100
0000
0010
0000
1000
0000
0200
0000
,
0000
1300
0001
0010
0001
0100
1000
0200
,
0000
0000
0301
0000
1000
0000
0000
0001
0010
0000
0100
0000
1000
0000
0020
0000
,
0000
0000
0230
0000
0000
0000
0302
0000
0000
0000
0013
0000
0001
1000
0200
0000
,
0000
0000
0310
0000
0011
0000
0000
0001
1000
0000
0010
0000
0100
0000
0001
0000
,
1000
0100
0001
0100
1000
0001
0100
0001
,
0020
0000
0130
2100
0000
3010
0100
0001
,
0021
0000
0130
0100
1000
0001
0001
0200
,
0000
0320
0000
1030
0100
1000
0010
0200
,
0000
0000
0302
0000
0000
0000
1003
0000
0100
0000
0010
0000
0001
0100
0001
0000
,
1000
2000
0000
3001
0010
0100
1000
1010
,
0000
0000
1100
0000
0000
0000
0011
0000
0100
0000
2001
0000
0000
0000
3100
1000
,
0002
0000
0103
0001
1000
0100
0010
0001
,
0000
0000
0011
0000
1000
0000
0010
0000
0100
0000
0010
0000
1000
0100
0010
0001
,
1000
0000
1000
0000
0001
0000
0010
0000
0010
0000
0001
1000
0010
0000
0010
0000
,
0100
0000
0001
0000
1000
0100
1000
0100
0010
0001
0010
0001
2000
0000
0000
0000
,
3010
0000
1000
0000
0001
0000
0010
0000
0001
1000
0001
1000
0010
0000
0100
0000
,
0001
0000
0010
0000
0100
1000
0001
0000
0100
0001
1000
0100
0010
0000
0001
2000
,
0000
0000
0010
0000
3010
0000
1000
0001
0100
0000
0010
0000
1000
0000
0200
0000
,
0000
0000
0310
0000
1001
0000
0000
0001
0100
0000
0010
0000
1000
0000
2000
0000
,
0000
3100
0001
0100
1000
0001
0100
0100
,
0010
0000
1000
0000
1010
0000
0000
0001
1000
0000
0100
0000
0010
0000
2000
0000
,
0000
0010
3010
0001
0100
0010
1000
0200
,
0000
0000
0310
0000
0011
0000
0000
0001
1000
0000
0100
0000
0010
0000
0020
0000
,
0000
0000
0031
0000
0100
0000
0010
0000
0001
0000
0010
0000
1000
0000
0001
0100
,
0010
0000
1002
0000
0013
0100
1000
0020
,
0000
0000
0130
0000
0001
1000
0100
0000
0010
0000
0001
0010
0100
1000
0020
0000
,
0000
0000
0130
0000
1001
0000
0000
1000
0100
0000
0010
0000
0001
0000
0002
0000
,
0000
0000
0103
0000
1000
0000
0100
0010
0100
0000
0001
0000
1000
0000
1000
0000
,
0100
0000
0010
0000
0011
0000
0000
0010
0100
0000
0001
0000
0100
0000
2000
0000
,
0000
0000
0010
0000
3010
0000
1000
0000
0001
0000
0100
0000
0010
1000
0200
0000
,
0000
0000
0310
0000
2001
0000
0000
3010
0100
0000
0001
0000
0010
0000
0020
0000
,
0000
0000
1030
0000
0010
0000
0001
0000
0100
0000
0010
0000
0001
0000
0010
1000
,
0001
0000
0000
0000
1100
0000
0000
1000
0100
0000
0010
0000
0001
0000
0101
0000
,
0000
0000
0100
0000
0010
1000
0010
0000
0100
0001
0100
0001
0010
0100
1000
0001
,
1000
0001
0201
0000
0310
1000
0001
1000
,
0100
0010
0001
0100
0010
0110
2001
0000
,
3100
0001
0100
1000
0010
0001
1000
0100
,
0010
0000
1000
0000
0001
0000
0010
0000
0100
1000
0010
0000
0100
0001
0010
0000
,
0001
1000
1010
0000
1100
1000
0100
0002
,
0000
0103
1000
0000
2001
0010
3010
0000
,
1000
0001
1000
0000
0001
0000
0010
0000
0100
0000
0001
0000
0100
0000
1000
0000
,
0010
0100
0010
0000
0100
0001
1000
0000
0100
0000
0010
0001
0100
0010
2000
0000
,
0000
0000
0000
0000
,
0000
0000
0000
0000
0000
0000
0000
0000
0000
0000
0000
3001
1000
0100
0000
0000
;
