#TITLE:licca;
#SUBTITLE:;
#ARTIST:Qrispy Joybox;
#TITLETRANSLIT:;
#SUBTITLETRANSLIT:;
#ARTISTTRANSLIT:;
#GENRE:;
#CREDIT:;
#BANNER:licca.png;
#BACKGROUND:licca-bg.png;
#LYRICSPATH:;
#CDTITLE:;
#MUSIC:licca.ogg;
#OFFSET:-0.640000;
#SAMPLESTART:59.133133;
#SAMPLELENGTH:19.897835;
#SELECTABLE:YES;
#BPMS:0.000000=196.000000
;
#STOPS:190.000000=0.306000,
221.000000=0.306000,
284.000000=0.306000
;
#BGCHANGES:;
#KEYSOUNDS:;
#ATTACKS:;

//---------------dance-single - ----------------
#NOTES:
     dance-single:
     :
     Hard:
     14:
     0.602014,0.773858,0.422309,0.646941,0.157243,469.000000,422.000000,47.000000,72.000000,1.000000,0.000000,0.602014,0.773858,0.422309,0.646941,0.157243,469.000000,422.000000,47.000000,72.000000,1.000000,0.000000:
// measure 0
0000
0000
0000
0000
,  // measure 1
0000
0000
0000
0000
,  // measure 2
0000
0000
0000
0000
,  // measure 3
0000
0000
0000
1001
,  // measure 4
1010
0000
0001
0010
0100
1000
0010
1010
,  // measure 5
0000
0000
0000
1010
0000
0000
0000
0000
0000
0000
0000
0000
0010
0000
1000
0000
0100
0000
0010
0000
0000
0000
0000
0000
,  // measure 6
0011
0000
1000
0010
0100
0001
0010
0011
,  // measure 7
0000
0011
0000
0000
0010
0000
0100
0000
,  // measure 8
1001
0000
0000
0000
,  // measure 9
1010
0000
0000
0000
,  // measure 10
0110
0000
0000
0000
,  // measure 11
0101
0000
0000
0000
0000
0000
0001
0000
0010
0000
0100
0000
,  // measure 12
2002
0000
0000
3003
0000
0000
0000
0000
,  // measure 13
0022
0000
0000
0033
0000
0000
0000
0000
,  // measure 14
0220
0000
0000
0330
0000
0000
0000
0000
,  // measure 15
2100
0000
0001
3010
,  // measure 16
0110
0000
0110
0000
0001
1001
0000
1001
,  // measure 17
0000
0000
0000
0000
0000
0000
0001
0000
0000
0010
0000
0000
0001
0000
0000
0000
0000
0000
0001
0000
0000
0000
0000
0000
0010
0000
0000
0000
0100
0000
0000
0000
1000
0000
0000
0000
0010
0000
0000
0000
0000
0000
0100
0000
0000
0010
0000
0000
,  // measure 18
0200
0000
1000
0000
0010
0010
0000
0301
,  // measure 19
0000
0000
0010
0001
0010
0000
0100
0000
0100
0000
0000
0000
0000
0000
0000
0000
,  // measure 20
0110
0000
0110
0000
1000
1001
0000
1001
,  // measure 21
0000
0000
0000
0000
0000
0000
1000
0000
0000
0010
0000
0000
1000
0000
0000
0000
0000
0000
1000
0000
0000
0000
0000
0000
0010
0000
0000
0000
0100
0000
0000
0000
0001
0000
0000
0000
0010
0000
0000
0000
0000
0000
0100
0000
0000
0010
0000
0000
,  // measure 22
0200
0000
0001
0000
0010
0010
0000
2300
,  // measure 23
0000
0002
0000
0000
3003
0000
0000
0000
,  // measure 24
1000
0010
0100
0001
1000
0000
0100
0010
,  // measure 25
0000
0000
1000
0000
0001
0000
0100
0000
0010
0000
1000
0000
0001
0000
0001
1000
,  // measure 26
0001
0010
0100
1000
0001
0000
0100
0010
,  // measure 27
0000
0000
0000
0001
0000
0000
1000
0000
0000
0100
0000
0000
0020
0000
0000
0000
0000
0000
0130
0000
0010
0000
0001
0000
,  // measure 28
1000
0010
0001
0010
1000
0100
0010
1000
,  // measure 29
0000
0000
1000
0000
0010
0000
0100
0000
1000
0000
0000
0000
0001
0000
0001
1000
,  // measure 30
0001
0100
1000
0100
0001
0010
0100
1000
,  // measure 31
0010
0200
0020
0330
,  // measure 32
0110
0000
0110
0000
1000
1001
0000
1001
,  // measure 33
0000
0000
0000
0000
0000
0000
1000
0000
0000
0010
0000
0000
1000
0000
0000
0000
0000
0000
1000
0000
0000
0000
0000
0000
0010
0000
0000
0000
0100
0000
0000
0000
0001
0000
0000
0000
0010
0000
0000
0000
0000
0000
0100
0000
0000
0010
0000
0000
,  // measure 34
0200
0000
0001
0000
0010
0010
0000
1300
,  // measure 35
0000
0000
0010
1000
0010
0000
0100
0000
0200
0000
0000
0000
0310
0000
0000
0000
,  // measure 36
0110
0000
0110
0000
0001
1001
0000
1001
,  // measure 37
0000
0000
0000
0000
0000
0000
0001
0000
0000
0010
0000
0000
0001
0000
0000
0000
0000
0000
0001
0000
0000
0000
0000
0000
0010
0000
0000
0000
0100
0000
0000
0000
1000
0000
0000
0000
0010
0000
0000
0000
0000
0000
0100
0000
0000
0010
0000
0000
,  // measure 38
0200
0000
1000
0000
0010
0010
0000
0301
,  // measure 39
0000
0000
2000
0000
,  // measure 40
3200
0000
0000
0000
,  // measure 41
0320
0000
0000
0000
,  // measure 42
0230
0000
0000
0000
,  // measure 43
0320
0000
0000
0000
,  // measure 44
0230
0000
2300
0000
,  // measure 45
3020
0000
0230
0000
,  // measure 46
0020
0000
0000
0000
,  // measure 47
0330
0000
000M
1000
,  // measure 48
1000
0000
0000
0000
0100
0000
0000
0000
0020
0030
0000
0000
0020
0030
0000
0000
1000
0000
0000
0000
0000
0000
0000
0000
1000
0000
0000
0000
0100
0000
0000
0000
,  // measure 49
0010
0001
0100
0000
0100
0001
0020
0100
,  // measure 50
0031
0000
0002
0010
1003
0000
1000
0010
,  // measure 51
0100
0001
1000
0000
0100
0010
0001
0000
,  // measure 52
0001
0000
0000
0000
0100
0000
0000
0000
0020
0030
0000
0000
0020
0030
0000
0000
0001
0000
0000
0000
0100
0000
0000
0000
0010
0000
0000
0000
0100
0000
0000
0000
,  // measure 53
1000
0100
0010
1000
0100
0010
0000
1000
,  // measure 54
0010
0100
0001
1000
0001
1000
1001
0000
,  // measure 55
0110
0000
1001
0000
0001
0000
0001
0100
,  // measure 56
0020
0030
0000
0000
0020
0030
0000
0000
0001
0000
0000
0000
0000
0000
0000
0000
0001
0000
0000
0000
0100
0000
0000
0000
0010
0000
0000
0000
1000
0000
0000
0000
,  // measure 57
0100
0000
0100
1000
0020
0100
1030
0000
,  // measure 58
2000
0010
3001
0000
0001
0010
1000
0010
,  // measure 59
0001
0000
0100
0010
1000
0000
1000
0100
,  // measure 60
0020
0030
0000
0000
0020
0030
0000
0000
1000
0000
0000
0000
0100
0000
0000
0000
0020
0030
0000
0000
0020
0030
0000
0000
1000
0000
0000
0000
0100
0000
0000
0000
,  // measure 61
0020
0030
0000
0000
0020
0030
0000
0000
1000
0000
0000
0000
0100
0000
0000
0000
0020
0000
0000
0000
0000
0000
0000
0000
0000
0000
0000
0000
0000
0000
0000
0000
,  // measure 62
0000
0000
0000
0100
,  // measure 63
0200
0000
0330
0000
0010
0000
1000
0001
,  // measure 64
0020
0030
0000
0000
0020
0030
0000
0000
1000
0000
0000
0000
0001
0000
0000
0000
0020
0000
0000
0000
0000
0000
0000
0000
0100
0000
0000
0000
0000
0000
0000
0000
,  // measure 65
0001
0000
0130
1000
0010
0000
0001
1000
,  // measure 66
0020
0030
0000
0000
0020
0030
0000
0000
0001
0000
0000
0000
1000
0000
0000
0000
0020
0000
0000
0000
0000
0000
0000
0000
0100
0000
0000
0000
0000
0000
0000
0000
,  // measure 67
1000
0000
0130
0001
0010
0000
1000
0001
,  // measure 68
0020
0030
0000
0000
0020
0030
0000
0000
1000
0000
0000
0000
0001
0000
0000
0000
0020
0030
0000
0000
0020
0030
0000
0000
1000
0000
0000
0000
0001
0000
0000
0000
,  // measure 69
0020
0030
0000
0000
0020
0030
0000
0000
1000
0000
0000
0000
0100
0000
0000
0000
0000
0000
0000
0000
0001
0000
0000
0000
0010
0000
0000
0000
0100
0000
0000
0000
,  // measure 70
1000
0001
1000
0001
1001
0000
0110
0000
,  // measure 71
1001
0000
0000
0000
0000
0000
0000
0000
1000
0000
0000
0000
0000
0000
0000
0000
1000
0000
0000
0000
0100
0000
0000
0000
0020
0030
0000
0000
0020
0030
0000
0000
,  // measure 72
1000
0000
1000
0100
0010
0001
0100
0000
,  // measure 73
0100
0000
2000
0001
3010
0000
0020
1000
,  // measure 74
0130
0000
0100
0001
1000
0100
0020
0000
,  // measure 75
0001
0000
0000
0000
0000
0000
0000
0000
0230
0300
0000
0000
0200
0300
0000
0000
0001
0000
0000
0000
1000
0000
0000
0000
0020
0000
0000
0000
0100
0000
0000
0000
,  // measure 76
1030
0000
0000
0000
0001
0000
0000
0000
0020
0030
0000
0000
0020
0030
0000
0000
1000
0000
0000
0000
0001
0000
0000
0000
0200
0000
0000
0000
0010
0000
0000
0000
,  // measure 77
0301
2002
0000
0000
,  // measure 78
0000
3003
0000
0000
,  // measure 79
0000
0000
0110
0000
0110
0000
0001
1001
,  // measure 80
0000
0000
0000
0000
0000
0000
1001
0000
0000
0000
0000
0000
0000
0000
0000
0000
0000
0000
0001
0000
0000
0010
0000
0000
0001
0000
0000
0000
0000
0000
0001
0000
0000
0000
0000
0000
0010
0000
0000
0000
0100
0000
0000
0000
1000
0000
0000
0000
,  // measure 81
0010
0000
0100
0010
0200
0000
0000
0000
1000
0000
0000
0000
0010
0000
0010
0000
,  // measure 82
0000
0000
0301
0000
0000
0000
0010
0001
0010
0000
0100
0000
0100
0000
0000
0000
,  // measure 83
0000
0000
0110
0000
0110
0000
1000
1001
,  // measure 84
0000
0000
0000
0000
0000
0000
1001
0000
0000
0000
0000
0000
0000
0000
0000
0000
0000
0000
1000
0000
0000
0010
0000
0000
1000
0000
0000
0000
0000
0000
1000
0000
0000
0000
0000
0000
0010
0000
0000
0000
0100
0000
0000
0000
0001
0000
0000
0000
,  // measure 85
0010
0000
0100
0010
0200
0000
0000
0000
0001
0000
0000
0000
0010
0000
0310
0000
,  // measure 86
0000
1100
0000
0000
0000
0000
0000
0000
;

//---------------dance-single - ----------------
#NOTES:
     dance-single:
     :
     Medium:
     12:
     0.498042,0.580394,0.593029,0.323470,0.008985,388.000000,322.000000,66.000000,36.000000,1.000000,0.000000,0.498042,0.580394,0.593029,0.323470,0.008985,388.000000,322.000000,66.000000,36.000000,1.000000,0.000000:
0000
0000
0000
0000
,
0000
0000
0000
0000
,
0000
0000
0000
0000
,
0000
0000
0000
0100
,
1001
0000
0100
0000
0010
0000
0000
0110
,
0000
0110
0000
0000
0001
0000
1000
0000
,
1001
0000
0010
0000
0100
0000
0000
0110
,
0000
0110
0000
0000
0001
0000
1000
0000
,
1001
0000
0000
0000
,
0011
0000
0000
0000
,
0110
0000
0000
0000
,
1100
0000
0000
0000
0000
0000
0001
0000
1000
0000
0001
0000
,
2002
0000
0000
3003
0000
0000
0000
0000
,
2020
0000
0000
3030
0000
0000
0000
0000
,
0220
0000
0000
0330
0000
0000
0000
0000
,
0102
0000
2000
3003
,
0011
0000
0110
0000
0010
0001
0000
1001
,
0000
0001
0100
0000
0010
0000
0010
0000
,
0110
0000
0101
0000
0001
0010
0000
0110
,
0000
0100
1000
0001
1000
0000
0000
0000
,
1010
0000
0110
0000
0010
1000
0000
1001
,
0000
1000
0100
0000
0010
0000
0010
0000
,
0110
0000
1100
0000
1000
0010
0000
0120
,
0000
2000
0000
0000
3030
0000
0000
0000
,
1000
1200
0310
0110
,
1000
1200
0310
0020
,
0031
0201
0310
0110
,
0001
0201
0020
0330
,
0010
0100
0010
0100
0010
0000
0010
1000
,
0000
1000
0001
1000
0001
0000
0000
0000
,
0010
0100
0010
0100
0010
0000
0010
0001
,
1000
0002
2000
3003
,
1010
0000
0110
0000
0010
1000
0000
1001
,
0000
1000
0100
0000
0010
0000
0010
0000
,
0110
0000
1100
0000
1000
0010
0000
0110
,
0000
0100
0001
1000
0001
0000
0000
0000
,
0011
0000
0110
0000
0010
0001
0000
1001
,
0000
0001
0100
0000
0010
0000
0010
0000
,
0110
0000
0101
0000
0001
0010
0000
0110
,
0000
0000
0002
0000
,
0203
0000
0000
0000
,
0320
0000
0000
0000
,
0230
0000
0000
0000
,
0320
0000
0000
0000
,
0230
0000
0302
0000
,
0023
0000
0230
0000
,
0020
0000
0000
0000
,
0330
0000
000M
1000
,
0110
0000
1000
0010
0100
0000
0100
0010
,
1000
0001
1000
0000
0100
0000
0010
0100
,
1000
0000
0010
0100
0001
0000
1000
0100
,
0010
0001
1000
0001
,
0110
0000
0001
0100
0010
0000
0010
0100
,
1000
0000
1000
0100
0010
0000
1000
0100
,
0020
1000
0001
1030
,
0110
1001
0001
0110
,
0001
0010
0100
0000
0100
0010
0001
1000
,
0001
0000
0100
0000
0010
0100
0001
0000
,
0010
0100
1000
0000
0001
0100
1000
0000
,
0100
0001
1000
0110
,
1000
0100
0010
0000
0100
0010
0001
0000
,
1000
0100
0010
0100
0020
0000
0000
0000
,
0000
0000
0000
0100
,
0200
0000
0330
0000
0010
0000
0001
0100
,
0010
0000
0001
0100
0020
0000
0001
0000
,
0000
0000
1030
0000
0100
0000
1000
0010
,
0100
0000
1000
0010
0200
0000
1000
0000
,
0000
0000
0301
0000
0010
0000
0001
0100
,
0010
0000
0001
0100
0010
0000
0001
0100
,
0010
0100
0001
1000
0001
0010
0200
0000
,
0001
1000
0301
0110
,
1001
0000
1000
0000
0110
0000
1000
0010
,
0100
0000
0100
0010
1000
0001
1000
0000
,
0100
0000
0010
0100
1000
0000
0010
0100
,
0001
0000
1000
0100
0001
0000
0100
0000
,
1000
0000
0001
0100
0010
0000
1000
0100
,
0010
0000
1000
0010
0100
0000
0001
0010
,
0100
0220
0000
0000
,
0000
0330
0000
0000
,
0000
0000
0011
0000
0110
0000
0010
0001
,
0000
1001
0000
0001
0100
0000
0010
0000
,
0010
0000
0110
0000
0101
0000
0001
0010
,
0000
0110
0000
0100
1000
0001
1000
0000
,
0000
0000
1010
0000
0110
0000
0010
1000
,
0000
1001
0000
1000
0100
0000
0010
0000
,
0010
0000
0110
0000
1100
0000
1000
0010
,
0000
0110
0000
0000
0000
0000
0000
0000
;

//---------------dance-single - ----------------
#NOTES:
     dance-single:
     :
     Easy:
     8:
     0.342725,0.541701,0.332456,0.278544,0.000000,267.000000,230.000000,37.000000,31.000000,0.000000,0.000000,0.342725,0.541701,0.332456,0.278544,0.000000,267.000000,230.000000,37.000000,31.000000,0.000000,0.000000:
0000
0000
0000
0000
,
0000
0000
0000
0000
,
0000
0000
0000
0000
,
0000
0000
0000
1000
,
0001
0000
0000
0000
0000
0000
0000
0001
,
0000
0001
0000
0000
0000
0000
0000
0000
,
0001
0000
0000
0000
0000
0000
0000
1000
,
0000
1000
0000
0000
0000
0000
0000
0000
,
1001
0000
0000
0000
,
1010
0000
0000
0000
,
0110
0000
0000
0000
,
0101
0000
1000
0000
,
1001
0000
0000
0000
,
0011
0000
0000
0000
,
0110
0000
0000
0000
,
1100
0000
0001
1000
,
0001
0000
0001
0000
0000
0001
0000
0001
,
0000
0100
0020
0000
,
1030
0000
1000
0000
0000
1000
0000
1000
,
0000
0001
1001
0000
,
1000
0000
1000
0000
0000
1000
0000
1000
,
0000
0100
0020
0000
,
0031
0000
0001
0000
0000
0001
0000
1001
,
0000
0000
0000
0000
,
1000
0010
1000
0010
,
0001
0010
0001
0000
,
0001
0010
1000
0100
,
0001
0100
2000
0000
,
3001
0100
1000
0010
,
0001
1000
0001
0000
,
1000
0100
0001
0010
,
1000
0001
2000
0000
,
3001
0000
0001
0000
0000
0001
0000
0001
,
0000
0100
0020
0000
,
1030
0000
1000
0000
0000
1000
0000
1000
,
0000
0001
1001
0001
,
1000
0000
1000
0000
0000
1000
0000
1000
,
0000
0100
0020
0000
,
0031
0000
0001
0000
0000
0001
0000
1001
,
0000
0000
0002
0000
,
0203
0000
0000
0000
,
0320
0000
0000
0000
,
0230
0000
0000
0000
,
0320
0000
0000
0000
,
0230
0000
0302
0000
,
0023
0000
0230
0000
,
0020
0000
0000
0000
,
0330
0000
0000
1000
,
0110
1000
0110
1000
,
0100
0010
0010
0001
,
0110
0001
0110
0001
,
1000
0001
0000
1000
,
1000
0010
0010
0001
,
0010
1000
0100
0010
,
0010
0010
0010
0110
,
0110
1001
0001
0110
,
0001
0110
0001
0010
,
0100
0100
1000
0110
,
1000
0110
1000
0010
,
0001
0000
0001
0110
,
0001
0110
1000
0110
,
1000
0110
2002
0000
,
0000
0000
0000
0000
,
3003
0000
2000
0100
,
3020
0100
0032
0010
,
0000
0013
0200
0010
,
0302
0010
2003
0001
,
0000
3001
2000
0100
,
3002
0100
2003
0100
,
3002
0100
0013
0010
,
0010
0010
0110
0110
,
1001
1000
0110
1000
,
0110
1000
0100
0010
,
0010
0001
0110
0001
,
0110
0001
1000
0001
,
0000
1000
1000
0010
,
0010
0001
0001
1000
,
0100
0002
0000
0000
,
0000
0003
0000
0000
,
0000
0000
1000
0000
1000
0000
0000
1000
,
0000
1000
0000
0000
0100
0000
0020
0000
,
0000
0000
0031
0000
0001
0000
0000
0001
,
0000
0001
0000
0000
1000
0000
1001
0000
,
0000
0000
0001
0000
0001
0000
0000
0001
,
0000
0001
0000
0000
0100
0000
0020
0000
,
0000
0000
1030
0000
1000
0000
0000
1000
,
0000
1001
0000
0000
0000
0000
0000
0000
;

//---------------dance-single - ----------------
#NOTES:
     dance-single:
     :
     Beginner:
     4:
     0.191258,0.270850,0.107823,0.098838,0.000000,149.000000,137.000000,12.000000,11.000000,0.000000,0.000000,0.191258,0.270850,0.107823,0.098838,0.000000,149.000000,137.000000,12.000000,11.000000,0.000000,0.000000:
0000
0000
0000
0000
,
0000
0000
0000
0000
,
0000
0000
0000
0000
,
0000
0000
0000
1000
,
1000
0000
0001
0000
,
0100
0000
0010
0000
,
0010
0000
1000
0000
,
0001
0000
0001
0000
,
1001
0000
0000
0000
,
0110
0000
0000
0000
,
1001
0000
0000
0000
,
0110
0000
0010
0000
,
0110
0000
0000
0000
,
1001
0000
0000
0000
,
0110
0000
0000
0000
,
1001
0000
1000
0000
,
0001
0000
0001
0000
,
0000
0000
0100
0000
,
0010
0000
0010
0000
,
0000
0000
1001
0000
,
1000
0000
1000
0000
,
0000
0000
0100
0000
,
0010
0000
0010
0000
,
0000
0000
0001
0000
,
1000
0000
1000
0000
,
1000
0000
0000
0000
,
0001
0000
0001
0000
,
0001
0000
2000
0000
,
3001
0000
0100
0000
,
0010
0000
1000
0000
,
0001
0000
0010
0000
,
0100
0000
2000
0000
,
3001
0000
0001
0000
,
0000
0000
0100
0000
,
0010
0000
0010
0000
,
0000
0000
1001
0000
,
1000
0000
1000
0000
,
0000
0000
0100
0000
,
0010
0000
0010
0000
,
0000
0000
0000
0000
,
0002
0000
0000
0000
,
0003
0000
0000
0000
,
2000
0000
0000
0000
,
3000
0000
0000
0000
,
0020
0000
0030
0000
,
0200
0000
0300
0000
,
0020
0000
0000
0000
,
0030
0000
0000
0001
,
0000
0001
0000
0001
,
1000
0001
0000
0100
,
0000
0100
0000
0100
,
0010
0100
0000
0001
,
0000
0010
0000
0100
,
0000
1000
0000
0001
,
0000
0001
0000
0001
,
1000
0001
1000
0000
,
1000
0000
1000
0001
,
1000
0000
0010
0000
,
0010
0000
0100
0010
,
0100
0000
0001
0000
,
1000
0000
0100
0000
,
0010
0000
0200
0000
,
0000
0000
0000
0000
,
0300
0000
0010
0000
,
0010
0000
0020
0000
,
0030
0000
0001
0000
,
0001
0000
0002
0000
,
0003
0000
1000
0000
,
1000
0000
1000
0000
,
1000
0000
0010
0000
,
0100
0000
0001
0000
,
1001
1000
0000
0001
,
0000
1000
0001
1000
,
0000
0100
0000
0010
,
0000
0100
0010
0100
,
0000
1000
0000
0010
,
0000
0100
0000
0001
,
0000
2000
0000
0000
,
0000
3000
0000
0000
,
0000
0001
0000
0001
,
0000
0000
0000
0100
,
0000
0010
0000
0010
,
0000
0000
0000
1001
,
0000
1000
0000
1000
,
0000
0000
0000
0100
,
0000
0010
0000
0010
,
0000
0010
0000
0000
0000
0000
0000
0000
;
