#VERSION:0.83;
#TITLE:hush Virtual;
#SUBTITLE:;
#ARTIST:5GB;
#TITLETRANSLIT:;
#SUBTITLETRANSLIT:;
#ARTISTTRANSLIT:;
#GENRE:Tranquility Happy Hardcore;
#CREDIT:;
#MUSIC:hush Virtual.mp3;
#BANNER:hush Virtual.png;
#BACKGROUND:hush Virtual-bg.png;
#CDTITLE:;
#SAMPLESTART:20.416;
#SAMPLELENGTH:15.000;
#SELECTABLE:YES;
#OFFSET:-0.033;
#BPMS:0.000=100.000
,34.000=200.000
;
#STOPS:;
#SPEEDS:0.000=1.000=0.000=0;
#SCROLLS:0.000=1.000;
#TICKCOUNTS:0.000=4;
#TIMESIGNATURES:0.000=4=4;
#LABELS:0.000=Song Start;
#COMBOS:0.000=1;
#ORIGIN:;
#PREVIEWVID:;
#JACKET:hush Virtual-jacket.png;
#CDIMAGE:;
#DISCIMAGE:;
#BGCHANGES:;
#FGCHANGES:;

//--------------- dance-single - ----------------
#NOTEDATA:;
#STEPSTYPE:dance-single;
#DESCRIPTION:;
#DIFFICULTY:Hard;
#METER:14;
#RADARVALUES:0,0,0,0,0;
#NOTES:
0000
0000
0000
0000
,
0000
0000
0000
0000
,
0000
0000
0000
0000
,
0000
0000
0000
0000
,
0002
0003
2000
3000
,
0200
0300
0020
0030
,
0002
0003
0020
0030
,
0200
0300
2000
3000
,
0000
0000
0000
0000
0001
0010
0100
1000
,
0010
1000
0100
0000
1000
0100
0010
0001
,
1000
0001
0010
0000
0001
1000
0010
0100
,
0001
0010
0001
0000
1000
0010
0100
0001
,
1000
0100
1000
0000
0001
0010
1000
0100
,
0001
1000
0100
0000
1000
0100
0001
0010
,
1000
0010
0100
0000
0001
0010
0100
1000
,
0010
1000
0100
0000
1000
0100
0010
0001
,
0100
0001
0010
0000
0001
0100
1000
0100
,
0001
0010
0001
1000
0001
0010
1000
0010
,
0001
0100
0001
0010
0001
0010
0100
1000
,
0010
1000
0100
0000
1000
0100
0010
0001
,
0100
0001
0010
0000
0001
0010
1000
0010
,
0001
0100
0001
0010
0001
0100
1000
0100
,
0001
1000
0001
0010
0001
0100
0010
1000
,
0001
0100
0010
0000
1000
0010
0100
0001
,
0010
0100
1000
0000
0001
0000
0100
0000
,
0010
0100
1000
0100
0010
0000
0101
0000
,
1001
0000
1010
0000
1000
0100
1000
1000
,
0100
0100
0010
0100
0010
0000
0011
0000
,
0101
1010
1000
0010
,
1000
0010
0100
0000
0001
0010
0100
0000
,
1000
1000
0100
0100
0010
0100
0010
0001
,
0100
0010
1000
0010
0100
0100
0100
0100
,
0100
0100
0100
0000
0000
0000
0000
0000
,
1001
0000
1001
0100
,
0000
0000
0020
0000
,
0000
0000
0000
0000
0000
0000
0000
0000
1030
0000
0000
0010
0000
0000
0100
0000
,
0000
0000
0000
0001
1000
0010
0100
0001
,
0001
0000
1000
0000
0001
0010
0100
0000
,
1000
0000
0000
0000
0100
0010
0001
1000
,
0001
0000
0000
0000
1000
0000
0100
0000
0010
0000
0000
0001
0000
0000
0010
0000
,
0000
0000
0000
0100
1000
0100
0010
0000
,
0001
0000
0100
0000
0001
1000
0010
0000
,
0100
0000
0000
0000
0001
0100
0010
1000
,
0010
0100
0001
0000
1000
0100
0010
0001
,
0010
0100
0010
0000
0001
0010
0100
1000
,
0010
0001
0010
0000
1000
0010
0100
0001
,
0010
0100
0010
0000
0001
0100
0010
0001
,
0010
0100
0001
0000
1000
0010
0100
0001
,
0100
1000
0100
0000
0001
0100
0010
1000
,
0100
0010
0100
0000
1000
0010
1000
0001
,
0100
0010
1000
0000
0010
0001
0010
1000
,
0010
0001
0010
0000
1000
0100
0010
0100
,
0001
0100
1000
0000
0001
0010
0100
1000
,
0010
0100
0001
0000
0100
0010
1000
0100
,
0001
0100
1000
0000
0100
0010
0100
1000
,
0100
0010
0001
0000
0100
0010
1000
0001
,
0010
1000
0010
0000
0001
1000
0010
0100
,
0001
1000
0010
0000
0100
0010
1000
0100
,
1000
0001
0010
0000
0100
0001
0100
1000
,
0100
0001
0100
1000
0100
0100
0010
0010
,
0001
0001
1000
1000
0010
0100
0001
1000
,
0010
0100
0001
0000
1000
1000
0001
0001
,
0100
0100
0010
0010
1000
0100
0010
0001
,
0100
0010
1000
0000
0001
0001
0010
0010
,
0100
0100
1000
1000
0001
0100
1000
0100
,
0010
0100
0001
0000
1000
1000
0001
0001
,
0100
0100
0010
0010
1000
0100
0001
0100
,
1000
0010
1000
0000
0001
0001
0100
0100
,
1000
1000
0100
0100
0001
0001
0010
0010
,
1000
1000
0010
0010
0001
0001
1000
1000
,
0010
0010
0100
0100
0001
0001
0010
0010
,
0100
0100
1000
1000
0010
0010
0001
0001
,
0010
0010
1000
1000
0100
0100
0001
0001
,
0100
0100
1000
1000
0001
0000
0000
0000
,
0011
0000
1001
0100
,
0010
0100
0001
1000
0001
0000
0000
0000
;

//--------------- dance-single - ----------------
#NOTEDATA:;
#STEPSTYPE:dance-single;
#DESCRIPTION:;
#DIFFICULTY:Edit;
#METER:13;
#RADARVALUES:0.613519,0.648489,0.162242,0,0,450,433,17,0,0,0,0,0,0,0.613519,0.648489,0.162242,0,0,450,433,17,0,0,0,0,0,0;
#OFFSET:-0.033;
#BPMS:0.000=100.000
,34.000=200.000
;
#LABELS:0.000=Song Start,
16.000=DUE TOMORROW SPA,
34.000=Healing Vision ~Angelic Mix~ Expert,
51.000=PASSION NIGHT RENDEZVOUS Hard (Mirrored),
58.000=Sci-Fi Girl Hard,
66.000=AFRONOVA Expert,
82.000=EAT YOU UP (Phat k Mix) WILD,
90.000=BUTTERFLY (KCP FUNG-FU MIX) WILD,
98.000=PARANOiA KCET Expert,
114.000=ORION.78 Civilization Expert,
126.000=Own Chart 1,
142.000=ORION.78 (AMeuro MIX) Expert (Zoomed In),
174.000=Healing D Vision Challenge,
182.000=Own Chart 2,
190.000=AM-3P Expert,
206.000=Ganymede SPA (No Scratch),
214.000=Do It Right (80's Electro Mix) Challenge,
222.000=La Senorita Virtual Expert,
238.000=Own Chart 3,
246.000=Antimatter Challenge,
262.000=Own Chart 4,
286.000=Healing D Vision Again,
294.000=Own Chart Final
;
#CHARTNAME:;
#CHARTSTYLE:;
#CREDIT:;
#NOTES:
0000
0000
0000
0000
,
0000
0000
0000
0000
,
0000
0000
0000
0000
,
0000
0000
0000
0000
,
1001
0000
0000
0000
,
0100
0000
0000
0000
,
0010
0000
0000
0000
,
0001
0000
0000
0000
,
0000
0000
0000
0000
0011
0000
1000
0001
,
0100
0010
1000
0100
0010
0000
0001
1000
,
0100
0010
0001
0100
0010
0000
1000
0100
,
0001
0010
1000
0100
0010
0000
0001
0100
,
1000
0010
0001
0100
0001
0000
1000
0100
,
1000
0010
1000
0001
0000
0001
1000
0001
,
0000
0001
1000
0001
1000
0000
0001
1000
,
0000
0001
0010
0001
1000
0000
0001
1000
,
0000
0001
0010
0001
1000
0100
1000
0100
,
0001
0100
0001
0100
1000
0010
1000
0010
,
0001
0010
0001
0010
1000
0010
0001
1000
,
0100
0001
1000
0010
0001
1000
0100
0001
,
1000
0010
0001
1000
0010
0100
0001
1000
,
0010
0100
0010
0000
0010
0100
0001
1000
,
0010
0100
0010
0000
1000
0100
0010
0001
,
0010
0100
1000
0000
0010
0100
0010
0100
,
0001
0110
0010
0000
,
0100
0000
1001
0000
1010
0000
1000
0100
,
0010
0001
0100
0000
0100
1000
0001
0000
,
0001
0010
0100
0000
0100
0100
0100
0100
,
0100
0000
1000
0000
0001
1000
0100
1000
,
0001
0100
0010
0100
0010
0000
1100
1000
,
0001
0000
1001
0000
1000
0001
0010
0100
,
1000
0001
0100
0001
1000
0010
1000
0010
,
1000
0010
1000
0000
0110
0000
0000
0000
,
1001
0000
1001
0110
,
0000
0000
0000
0000
,
0000
0000
1000
1000
,
1000
1000
1000
1000
,
1000
1000
0100
0100
,
0100
0100
0100
0100
,
0100
0100
0100
0100
,
0100
0100
0100
0100
,
0100
0000
0100
0000
0010
0001
0100
0000
,
0010
1000
0100
0000
0010
0001
1000
0000
,
0010
0100
0001
0000
1000
0100
0001
0100
,
1000
0010
0001
0010
1000
0100
0001
0100
,
1000
0010
0001
0010
1000
0100
0010
0100
,
1000
0100
0010
0001
0010
0100
0010
0001
,
0010
0100
1000
0000
0100
1000
0100
1000
,
0001
0010
0001
0010
0001
0100
0001
0100
,
0010
1000
1010
0000
0100
1000
0010
1000
,
0001
0100
0010
1000
0100
0010
0001
0100
,
0010
0100
1001
0000
0001
1000
0100
1000
,
0010
1000
0100
1000
0001
1000
0100
1000
,
0001
1000
0100
1000
0001
1000
0100
0000
,
1000
0001
1000
0010
1000
0000
0110
0000
,
0001
0010
0100
1000
0011
0000
0100
0001
,
0000
0001
1000
0100
1000
0000
0100
1000
,
0000
1000
0001
0100
0010
0000
0100
0001
,
0000
0001
0100
0010
1000
0000
1000
0001
,
0010
1000
0001
0100
0010
0001
1000
0100
,
1000
0001
1000
0010
0100
0001
1000
0010
,
0100
0001
0010
0100
1000
0100
1000
0000
,
0001
0100
0001
0000
1000
0010
1000
0000
,
0001
0010
0001
0000
1000
0001
0100
0000
,
0001
1000
0100
0000
1000
0001
0100
0000
,
0001
1000
0010
0000
1000
0001
1000
0001
,
0100
0010
0100
0010
1000
0100
1000
0100
,
1000
0001
0100
0001
0100
0001
0010
0001
,
0010
0100
1000
0001
0010
0100
1000
0100
,
0010
0001
0100
0010
1000
0001
0100
0010
,
1000
0100
0010
0001
0010
0100
1000
0010
,
0100
0001
1000
0001
1000
0010
0001
0010
,
1000
0100
0001
0100
1000
0010
0001
0010
,
1000
0100
0001
0100
1000
0000
0000
0000
,
0110
0000
1001
0100
,
0100
0100
0010
0100
0010
0000
0000
0000
;
