#VERSION:0.83;
#TITLE:fun;
#SUBTITLE:;
#ARTIST:Mr. T;
#TITLETRANSLIT:;
#SUBTITLETRANSLIT:;
#ARTISTTRANSLIT:;
#GENRE:FUNK SHUFFLE;
#ORIGIN:;
#CREDIT:;
#BANNER:fun.png;
#BACKGROUND:fun-bg.png;
#PREVIEWVID:;
#JACKET:fun-jacket.png;
#CDIMAGE:;
#DISCIMAGE:;
#LYRICSPATH:;
#CDTITLE:;
#MUSIC:fun.ogg;
#OFFSET:0.494100;
#SAMPLESTART:12.606000;
#SAMPLELENGTH:9.600000;
#SELECTABLE:YES;
#BPMS:0.000=200.000;
#STOPS:;
#DELAYS:;
#WARPS:;
#TIMESIGNATURES:0.000=4=4;
#TICKCOUNTS:0.000=4;
#COMBOS:0.000=1;
#SPEEDS:0.000=1.000=0.000=0;
#SCROLLS:0.000=1.000;
#FAKES:;
#LABELS:0.000=Song Start;
#BGCHANGES:;
#KEYSOUNDS:;
#ATTACKS:
;

//---------------dance-single - ----------------
#NOTEDATA:;
#CHARTNAME:;
#STEPSTYPE:dance-single;
#DESCRIPTION:;
#CHARTSTYLE:;
#DIFFICULTY:Hard;
#METER:16;
#RADARVALUES:0.627400,0.963927,0.123713,0.360828,1.139187,426.000000,414.000000,12.000000,35.000000,13.000000,0.000000,0.000000,0.000000,0.000000,0.627400,0.963927,0.123713,0.360828,1.139187,426.000000,414.000000,12.000000,35.000000,13.000000,0.000000,0.000000,0.000000,0.000000;
#CREDIT:TonyAkita;
#NOTES:
0000
0000
0000
0000
,
0000
0000
0000
0000
,
0000
0000
0000
0000
0000
0000
0000
0000
0000
0000
0000
2000
,
0000
0000
3010
0100
0000
0000
0001
0000
0100
0010
0000
0000
,
1000
0000
0010
0100
0000
000M
0100
0000
0010
0000
0000
0002
,
0000
0000
0013
0100
0000
0000
1000
0000
0100
0010
0000
0000
,
0001
0000
1000
0010
0000
0M00
0010
0000
0001
0000
0000
0020
,
0000
0000
0031
0010
0000
0000
0100
0000
1000
0100
0000
0000
,
1000
0000
0010
0100
0000
0000
0001
0000
1000
0000
0000
0002
,
0000
0000
0103
0001
0000
0000
1000
0000
0100
1000
0000
0000
,
0100
0000
0010
0001
0000
0000
1000
0000
0001
0000
0000
2000
,
0000
0000
3010
0100
0000
0000
0001
0000
0100
0010
0000
0000
,
1000
0000
0010
0100
0000
000M
0100
0000
0010
0000
0000
0002
,
0000
0000
0013
0100
0000
0000
1000
0000
0100
0010
0000
0000
,
0001
0000
1000
0010
0000
0M00
0010
0000
0001
0000
0000
0020
,
0000
0000
0000
0000
0000
0000
1030
0000
0010
0100
0000
2000
,
0000
0000
0000
0000
0000
0000
3010
0100
0010
0100
0010
0100
,
0002
0000
0000
1000
,
1003
0000
0001
0010
0000
0000
0100
0000
1000
0000
0000
1010
,
0000
0000
0000
0100
0000
0000
0001
0000
0010
0001
0000
0000
,
0001
0000
0100
0001
0000
0000
0001
0000
0010
0100
0000
1000
,
0000
0000
1100
0000
0000
0000
1000
0000
0010
1000
0000
0000
,
1000
0000
0100
1000
0000
0000
1000
0000
0010
0000
0M00
0010
,
0000
0000
0000
0001
0000
0000
0100
0000
0001
1000
0000
0000
,
0100
0000
1000
0001
0000
0000
1000
0000
0100
0010
0000
0001
,
0000
0000
0000
1000
0000
0000
0010
0000
1000
0001
0000
0000
,
0010
0000
0001
1000
0000
0000
0001
0000
0010
0000
0000
0011
,
0000
0000
0000
0100
0000
0000
1000
0000
0010
1000
0000
0000
,
1000
0000
0100
1000
0000
0000
1000
0000
0010
0100
0000
0001
,
0000
0000
0101
0000
0000
0000
0001
0000
0010
0001
0000
0000
,
0001
0000
0100
0001
0000
0000
0001
0000
0010
0000
0M00
0010
,
0000
0000
0000
1000
0000
0000
0010
0000
1000
0001
0000
0000
,
0010
0000
0001
1000
0000
0000
0001
1000
0001
1000
0001
2000
,
0002
0000
0000
0000
,
3003
0000
0000
0000
0000
0000
0000
0000
0000
0000
0000
2000
,
0000
0000
3010
0100
0000
0000
0001
0000
0100
0010
0000
0000
,
1000
0000
0010
0100
0000
000M
0100
0000
0010
0000
0000
0002
,
0000
0000
0013
0100
0000
0000
1000
0000
0100
0010
0000
0000
,
0001
0000
1000
0010
0000
0M00
0010
0000
0001
0000
0000
0020
,
0000
0000
0000
0000
0000
0000
1030
0000
0010
0100
0000
2000
,
0000
0000
0000
0000
0000
0000
3001
0010
0100
1000
0000
1100
,
0000
0000
0000
1000
0000
0010
0000
1000
0000
0010
0000
1000
,
0000
0000
0000
0001
0000
0010
0100
0000
1000
0000
0000
0000
,
2002
0000
0000
3003
,
1000
0001
1000
0001
1000
0001
1000
0001
1000
0001
0000
1010
,
0000
0000
0100
0001
0000
0000
1000
0000
0100
0010
0000
0100
,
0001
0000
0100
0010
0000
0100
1000
0000
0100
0010
0000
0002
,
0000
0000
0100
0103
0000
0002
0000
0000
0010
0013
0000
0200
,
0000
0000
1000
1300
0000
0020
0000
0000
1000
1030
0000
0010
,
1000
0100
1000
0100
1000
0100
1000
0010
1000
0010
1000
0010
,
0100
0001
0100
0001
0100
0001
0010
0001
0010
0001
0000
1000
,
0020
0000
0001
0031
0000
0000
0020
0000
1000
1030
0000
0000
,
0001
0100
0001
0100
0000
0000
0010
1000
0010
1000
0000
0001
,
1000
0100
0010
0001
0010
0100
1000
0100
0010
0001
0010
0100
,
1000
0100
0010
0001
0010
0100
1000
0100
0010
0001
0000
2000
,
0000
0000
0100
3100
0000
0010
0100
0000
0001
0100
0000
0010
,
0100
0000
1000
0100
0000
0010
0001
0000
1000
0010
0000
0200
,
0000
0000
0001
0301
0000
0000
1000
0000
1000
0100
0000
0200
,
0000
0000
0000
0310
0001
0010
0001
1000
0100
1000
0000
0000
,
1100
1100
0101
0101
,
2002
0000
0000
0000
0000
0000
3003
0000
0000
0000
0000
1000
,
0000
0000
0010
0100
0000
0000
0001
0000
0100
0010
0000
0000
,
1000
0000
0010
0100
0000
000M
0100
0000
0010
0000
0000
0001
,
0000
0000
0010
0100
0000
0000
1000
0000
0100
0010
0000
0000
,
0001
0000
1000
0010
0000
0M00
0010
0000
0001
0000
0000
0020
,
0000
0000
0000
0000
0000
0000
1030
0000
0010
0100
0000
2000
,
0000
0000
0000
0000
0000
0000
3001
0000
0100
0010
0000
0200
,
0000
0000
0000
0301
0010
0100
1000
0000
0000
0100
0000
0020
,
0000
0000
0000
0130
0000
0000
1000
0010
1000
0010
1000
0010
,
0000
0000
0100
0001
0000
0000
1000
0000
0100
1000
0000
0020
,
0000
0000
0130
0001
0100
0001
0100
0010
1000
0010
1000
0010
,
1000
0000
0000
0000
0000
0000
1000
0000
0010
0000
M010
0000
,
0001
0000
0010
0000
001M
0000
1000
0000
0010
0000
M010
0000
,
0001
0000
0010
0000
0100
0000
2000
0000
0000
0000
0002
0000
,
0000
0000
0000
0000
,
0000
0000
0000
0000
,
0000
0000
0000
0000
,
3003
0000
0000
0000
0000
0000
0000
0000
1000
0100
0010
0001
;

//---------------dance-single - ----------------
#NOTEDATA:;
#CHARTNAME:;
#STEPSTYPE:dance-single;
#DESCRIPTION:;
#CHARTSTYLE:;
#DIFFICULTY:Medium;
#METER:11;
#RADARVALUES:0.425630,0.522127,0.175260,0.247425,0.381447,289.000000,272.000000,17.000000,24.000000,0.000000,0.000000,0.000000,0.000000,0.000000,0.425630,0.522127,0.175260,0.247425,0.381447,289.000000,272.000000,17.000000,24.000000,0.000000,0.000000,0.000000,0.000000,0.000000;
#CREDIT:TonyAkita;
#NOTES:
0000
0000
0000
0000
,
0000
0000
0000
0000
,
0000
0000
0000
0000
0000
0000
0000
0000
0000
0000
0000
1010
,
0000
1000
0100
0010
,
0001
0000
0010
0001
0000
0000
1000
0000
0001
0000
0000
0011
,
0000
0001
0100
0010
,
1000
0000
0010
1000
0000
0000
0001
0000
1000
0000
0000
0101
,
0000
0001
0100
1000
,
0100
0000
0001
0100
0000
0000
0010
0000
1000
0000
0000
1100
,
0000
1000
0100
0001
,
0100
0000
1000
0100
0000
0000
0010
0000
0001
0000
0000
0011
,
0000
0001
0100
0010
,
1000
0000
0010
1000
0000
0000
0001
0000
1000
0000
0000
1010
,
0000
1000
0100
0010
,
0001
0000
0010
0001
0000
0000
1000
0000
0001
0000
0000
0200
,
0000
0000
0000
0000
0000
0000
0301
0000
0000
1000
0000
0200
,
0000
0310
0001
0000
,
2002
0000
0000
3003
,
0000
0000
0000
0000
0000
0000
0000
0000
0000
0000
0000
1010
,
0000
0001
0001
0100
,
0100
0000
0000
0010
0000
0000
0010
0000
0000
0100
0000
0001
,
0000
0000
0001
0000
0000
0000
1000
0000
0000
1000
0000
0000
,
0001
0000
0000
0001
0000
0000
1000
0000
0100
0010
0000
0001
,
0000
0100
0100
0001
,
0001
0000
0000
0010
0000
0000
0010
0000
0000
0001
0000
1000
,
0000
0010
0010
1000
,
1000
0000
0000
0001
0000
0000
0001
0000
0000
0000
0000
0011
,
0000
1000
1000
0100
,
0100
0000
0000
0010
0000
0000
0010
0000
0000
0100
0000
1000
,
0000
0000
1000
0000
0000
0000
0001
0000
0000
0001
0000
0000
,
1000
0000
0000
1000
0000
0000
0001
0000
0010
0100
0000
1000
,
0000
0010
0010
1000
,
1000
0000
0000
0100
0000
0000
0100
0000
1000
0001
0000
0000
,
2002
0000
0000
3003
,
0000
0000
0000
0000
0000
0000
0000
0000
0000
0000
0000
1010
,
0000
1000
0100
0010
,
0001
0000
0010
0001
0000
0000
1000
0000
0001
0000
0000
0011
,
0000
0001
0100
0010
,
1000
0000
0010
1000
0000
0000
0001
0000
1000
0000
0000
0200
,
0000
0000
0000
0000
0000
0000
1300
0000
0000
0001
0000
0200
,
0000
0000
0000
0310
0000
0000
1000
0000
0000
0001
0000
0020
,
0000
0000
0000
0030
,
0001
0000
0000
1000
0000
0000
0001
0000
0200
0000
0000
0000
,
0310
0000
0000
0000
,
1000
0000
0000
0001
0000
0000
1000
0000
0100
0010
0000
0001
,
0000
1000
0010
1000
,
0001
0000
0000
0100
0000
0000
0001
0000
1000
0000
0000
0011
,
0000
0001
0010
0001
,
1000
0100
1000
0001
,
1000
0010
0001
0010
,
1000
0000
0000
0001
0000
0000
1000
0000
0100
0010
0000
0001
,
2000
0000
3002
0000
,
0203
0000
0320
0000
,
1030
0000
0100
0010
0000
0000
0001
0000
0010
0100
0000
0000
,
1000
0000
0100
0010
0000
0000
0001
0000
0010
0100
0000
1000
,
0000
0001
0100
0001
,
1000
0000
0000
0100
0000
0000
0010
0000
0001
0000
0000
2000
,
0000
0000
0000
0010
0000
0000
3010
0000
0000
1000
0000
0002
,
0000
0010
0013
0001
,
1000
1000
0001
0001
,
2002
0000
0000
0000
0000
0000
3003
0000
0000
0000
0000
1010
,
0000
1000
0100
0010
,
0001
0000
0100
0001
0000
0000
1000
0000
0001
0000
0000
0011
,
0000
0001
0100
0010
,
1000
0000
0100
1000
0000
0000
0001
0000
1000
0000
0000
0020
,
0000
0000
0000
0000
0000
0000
1030
0000
0000
0001
0000
0020
,
0000
0000
0000
0130
0000
0000
1000
0000
0000
0001
0000
0020
,
0000
0000
0000
0000
0000
0000
0031
0000
0000
1000
0000
0020
,
0000
0130
0001
0000
,
1000
0100
0001
0100
,
1000
0100
0010
0001
,
1000
0000
0000
0000
0000
0000
1000
0000
0001
0000
1000
0000
,
0001
0000
1000
0000
0001
0000
1000
0000
0100
0000
0010
0000
,
0001
0000
0000
0000
0000
0000
0200
0000
0020
0000
0000
0000
,
0000
0000
0000
0000
,
0000
0000
0000
0000
,
0000
0000
0330
0000
,
0000
0000
0000
0000
0000
0000
0000
0000
0000
0000
0000
1001
;

//---------------dance-single - ----------------
#NOTEDATA:;
#CHARTNAME:;
#STEPSTYPE:dance-single;
#DESCRIPTION:;
#CHARTSTYLE:;
#DIFFICULTY:Easy;
#METER:7;
#RADARVALUES:0.270990,0.361473,0.134022,0.350519,0.134022,184.000000,171.000000,13.000000,34.000000,0.000000,0.000000,0.000000,0.000000,0.000000,0.270990,0.361473,0.134022,0.350519,0.134022,184.000000,171.000000,13.000000,34.000000,0.000000,0.000000,0.000000,0.000000,0.000000;
#CREDIT:TonyAkita;
#NOTES:
// measure 0
0000
0000
0000
0000
,  // measure 1
0000
0000
0000
0000
,  // measure 2
0000
0000
0000
0000
0000
0000
0000
0000
0000
0000
0000
1010
,  // measure 3
0000
1000
0100
1000
,  // measure 4
0020
0000
0000
0000
0000
0000
0030
0000
0000
0000
0000
0101
,  // measure 5
0000
1000
0100
0001
,  // measure 6
0200
0000
0000
0000
0000
0000
0300
0000
0000
0000
0000
0011
,  // measure 7
0000
0001
0100
0001
,  // measure 8
0020
0000
0000
0000
0000
0000
0030
0000
0000
0000
0000
1100
,  // measure 9
0000
0001
0100
1000
,  // measure 10
0200
0000
0000
0000
0000
0000
0300
0000
0000
0000
0000
1010
,  // measure 11
0000
1000
0100
0010
,  // measure 12
0002
0000
0000
0000
0000
0000
0003
0000
0000
0000
0000
0011
,  // measure 13
0000
0001
0100
0010
,  // measure 14
2000
0000
0000
0000
0000
0000
3000
0000
0000
0000
0000
0020
,  // measure 15
0000
0000
0000
0000
0000
0000
0030
0000
0000
0000
0000
0200
,  // measure 16
0000
0000
0300
0000
,  // measure 17
1001
0000
0000
0000
,  // measure 18
0000
0000
0000
0000
0000
0000
0000
0000
0000
0000
0000
2000
,  // measure 19
0000
3010
1000
0000
,  // measure 20
0100
0000
0000
1000
0000
0000
0001
0000
0000
0000
0000
0002
,  // measure 21
0000
0013
0001
0000
,  // measure 22
0100
0000
0000
0001
0000
0000
1000
0000
0000
0000
0000
0200
,  // measure 23
0000
0310
0001
0000
,  // measure 24
0001
0000
0000
1000
0000
0000
0001
0000
0000
0000
0000
0200
,  // measure 25
0000
0310
1000
0000
,  // measure 26
1000
0000
0000
0001
0000
0000
1000
0000
0000
0000
0000
0002
,  // measure 27
0000
0013
0001
0000
,  // measure 28
0100
0000
0000
0001
0000
0000
1000
0000
0000
0000
0000
2000
,  // measure 29
0000
3010
1000
0000
,  // measure 30
0100
0000
0000
1000
0000
0000
0001
0000
0000
0000
0000
0200
,  // measure 31
0000
0310
1000
0000
,  // measure 32
1000
0100
0010
0001
,  // measure 33
0200
0000
0000
0000
,  // measure 34
0300
0000
0000
0000
0000
0000
0000
0000
0000
0000
0000
1010
,  // measure 35
0000
1000
0100
0010
,  // measure 36
0001
0000
0000
0000
0000
0000
0000
0000
0000
0000
0000
0011
,  // measure 37
0000
0001
0100
0010
,  // measure 38
1000
0000
0000
0000
0000
0000
0000
0000
0000
0000
0000
0020
,  // measure 39
0000
0000
0000
0000
0000
0000
0030
0000
0000
0000
0000
0200
,  // measure 40
0000
0000
0300
0000
,  // measure 41
1001
0000
0000
0000
,  // measure 42
1000
0001
1000
0100
,  // measure 43
0020
0000
0000
0030
,  // measure 44
0001
0010
0100
1000
,  // measure 45
0001
0000
0001
0000
,  // measure 46
0100
0001
0010
0001
,  // measure 47
0200
0000
0320
0000
,  // measure 48
2030
0000
3002
0000
,  // measure 49
1003
0100
0010
0001
,  // measure 50
0010
0100
1000
0100
,  // measure 51
0020
0000
0032
0000
,  // measure 52
2003
0000
3020
0000
,  // measure 53
0130
0000
0001
0000
,  // measure 54
0010
0000
0001
0000
,  // measure 55
1000
0100
0010
0001
,  // measure 56
0010
0100
1000
0000
,  // measure 57
0001
0000
0001
0000
,  // measure 58
1000
0000
1000
0000
,  // measure 59
0010
0010
0010
0010
,  // measure 60
0010
0000
0000
0000
0000
0000
2002
0000
0000
0000
0000
3003
,  // measure 61
0000
1000
0100
0010
,  // measure 62
0001
0000
0000
0000
0000
0000
0000
0000
0000
0000
0000
0011
,  // measure 63
0000
0001
0100
0010
,  // measure 64
1000
0000
0000
0000
0000
0000
0000
0000
0000
0000
0000
0020
,  // measure 65
0000
0000
0000
0000
0000
0000
0030
0000
0000
0000
0000
0200
,  // measure 66
0000
0000
0000
0000
0000
0000
0300
0000
0000
0000
0000
0002
,  // measure 67
0000
0000
0000
0000
0000
0000
0003
0000
0000
0000
0000
2000
,  // measure 68
0000
0000
3000
0000
,  // measure 69
0001
0010
1000
0010
,  // measure 70
0001
0010
0100
1000
,  // measure 71
0010
0000
1000
0000
,  // measure 72
1000
0000
1000
0000
,  // measure 73
0001
0000
0000
0000
0000
0000
0100
0000
0020
0000
0000
0000
,  // measure 74
0000
0000
0000
0000
,  // measure 75
0000
0000
0000
0000
,  // measure 76
0030
0000
0000
0000
,  // measure 77
0000
0000
0000
0000
0000
0000
0000
0000
0000
0000
0000
1001
;

//---------------dance-single - ----------------
#NOTEDATA:;
#CHARTNAME:;
#STEPSTYPE:dance-single;
#DESCRIPTION:;
#CHARTSTYLE:;
#DIFFICULTY:Beginner;
#METER:5;
#RADARVALUES:0.188514,0.281146,0.051547,0.123713,0.005155,128.000000,123.000000,5.000000,12.000000,0.000000,0.000000,0.000000,0.000000,0.000000,0.188514,0.281146,0.051547,0.123713,0.005155,128.000000,123.000000,5.000000,12.000000,0.000000,0.000000,0.000000,0.000000,0.000000;
#CREDIT:TonyAkita;
#NOTES:
0000
0000
0000
0000
,
0000
0000
0000
0000
,
0000
0000
0000
0000
,
1000
0000
1000
0000
,
1000
0000
0000
0000
,
0001
0000
0001
0000
,
0001
0000
0000
0000
,
0100
0000
0010
0000
,
0100
0000
0000
0000
,
0010
0000
0100
0000
,
0010
0000
0000
0000
,
1000
0000
0010
0000
,
1000
0000
0000
0000
,
0001
0000
0010
0000
,
0001
0000
0000
0000
,
0200
0000
0300
0000
,
0020
0000
0030
0000
,
1001
0000
0000
0000
,
0000
0000
0000
0000
,
1000
0000
0100
0000
,
0010
0000
0001
0000
,
0100
0000
0010
0000
,
0100
0000
0001
0000
,
0010
0000
0100
0000
,
1000
0000
0010
0000
,
0100
0000
0010
0000
,
1000
0000
0001
0000
,
1000
0000
0100
0000
,
0010
0000
0001
0000
,
0100
0000
0010
0000
,
0100
0000
0001
0000
,
0010
0000
0100
0000
,
1000
0000
0001
0000
,
0220
0000
0000
0000
,
0330
0000
0000
0000
,
1000
0000
0010
0000
,
1000
0000
0000
0000
,
0001
0000
0010
0000
,
0001
0000
0000
0000
,
0200
0000
0300
0000
,
0020
0000
0030
0000
,
1000
0000
0000
0000
,
0001
0000
0000
0000
,
0110
0000
0000
0000
,
1000
1000
1000
1000
,
1000
0000
0001
0000
,
0100
0000
0001
0000
,
0010
0000
0100
0000
,
1000
0000
0001
0000
,
0100
0100
0100
0000
,
0010
0010
0010
0000
,
1000
0000
0100
0000
,
0010
0000
0001
0000
,
0010
0000
0100
0000
,
0010
0000
0001
0000
,
1000
0000
0010
0010
,
0010
0010
0010
0000
,
0100
0000
0001
0000
,
0010
0000
0001
0000
,
1000
1000
1000
1000
,
1000
0000
0000
0000
,
0001
0000
0010
0000
,
0001
0000
0000
0000
,
1000
0000
0010
0000
,
1000
0000
0000
0000
,
0200
0000
0300
0000
,
0020
0000
0030
0000
,
0002
0000
0003
0000
,
2000
0000
3000
0000
,
0001
0000
0010
0000
,
0100
0000
1000
0000
,
0010
0000
0100
0000
,
0100
0000
0100
0000
,
0100
0000
2002
0000
,
0000
0000
3003
0000
,
0000
0000
0000
0000
,
0000
0000
0000
0000
,
0000
0000
0000
0000
0000
0000
0000
0000
0000
0000
0000
1001
;
