#TITLE:fuck it. (disastermix);
#SUBTITLE:;
#ARTIST:GHOST Remixed by Z-I-v SOUND TEAM "k?";
#TITLETRANSLIT:;
#SUBTITLETRANSLIT:;
#ARTISTTRANSLIT:;
#GENRE:;
#CREDIT:KAYSTAR;
#MUSIC:fuckitdisastermix.ogg;
#BANNER:fuck it (disastermix) bn.png;
#BACKGROUND:fuck it (disastermix) bg.png;
#CDTITLE:;
#SAMPLESTART:14.710;
#SAMPLELENGTH:10.000;
#SELECTABLE:YES;
#OFFSET:0.000;
#BPMS:0.000=155.000
,32.000=77.500
,33.000=155.000
,81.000=77.500
,84.500=155.000
,121.500=77.500
,123.000=155.000
,137.000=77.500
,138.000=155.000
,152.000=77.500
,154.000=155.000
,166.000=77.500
,167.000=155.000
,174.000=77.500
,175.000=155.000
,180.000=77.500
,189.000=155.000
,201.000=77.500
,203.000=155.000
,227.000=77.500
,230.500=155.000
,263.500=38.750
,264.500=77.500
,266.000=620.000
;
#STOPS:32.000=1.548;
#DISPLAYBPM:77.500:155.000;
#BGCHANGES:;
#FGCHANGES:;

//--------------- dance-single - KAYSTAR ----------------
#NOTES:
     dance-single:
     KAYSTAR:
     Beginner:
     2:
     0,0,0,0,0:
0000
0000
0000
0000
,
0000
0000
0000
0000
,
0000
0000
0000
0000
,
0000
0000
0000
0000
,
1000
0000
1000
0000
,
0001
0000
0001
0000
,
0010
0000
0010
0000
,
0100
0000
0000
0000
,
0000
0010
0010
0000
,
0000
0100
0100
0000
,
0000
1000
1000
0000
,
0000
0001
0000
0001
,
0000
0100
0100
0000
,
0000
0010
0010
0000
,
0000
1000
1000
0000
,
0000
0001
0000
0001
,
0000
1000
1000
0000
,
0000
0010
0010
0000
,
0000
0100
0000
0100
,
0000
0001
0001
0000
,
0000
0000
0000
0000
,
0000
1000
0000
1000
0000
0000
0000
0000
,
0000
0100
0000
0000
0000
0100
0000
0000
,
0000
0010
0000
0010
0000
0000
0000
0000
,
0000
0001
0000
0000
0000
0001
0000
0000
,
0000
0000
0000
1000
0000
0000
0000
1000
,
0000
0000
0000
1000
0000
0000
0000
0000
,
0000
0000
0000
0001
0000
0000
0000
0001
,
0000
0000
0000
0001
0000
0000
0000
0010
,
0000
0010
0000
0010
0000
0000
0000
0100
,
0000
0100
0000
0100
0000
0000
1000
0000
,
0000
0001
0000
0100
,
0000
0010
0010
0000
,
1000
1000
0000
0100
,
0000
0000
0001
0000
,
0001
0000
1000
0000
,
1000
0000
0000
0010
,
0010
0000
0100
0000
,
0000
0000
0001
0001
,
0000
0000
1000
1000
,
0000
0000
0010
0010
,
0000
0000
0000
0100
,
0100
0100
0000
0010
,
0010
0010
0000
1000
,
1000
0000
1000
0000
,
0000
0100
0000
0000
,
0000
0010
0000
0000
,
0000
0001
0001
0000
,
0001
0000
1000
0000
,
1000
0000
0010
0010
,
0010
0000
0000
0100
,
0100
0100
0000
0001
,
0000
0001
0000
1000
,
1000
1000
0000
0000
,
0000
0000
0000
0000
,
0010
0010
0000
0000
,
0100
0100
0000
0000
,
0000
0000
0000
0000
0000
0000
0000
1000
,
0000
0000
0000
1000
0000
0000
0000
0010
,
0000
0000
0000
0010
0000
0000
0000
0100
,
0000
0100
0000
0100
0000
0000
0000
0001
,
0000
0001
0000
0001
0000
0000
0000
0010
,
0000
0000
0000
0010
0000
0000
0000
0100
,
0000
0000
0000
0100
0000
0000
0000
1000
,
0000
0000
0000
1000
0000
0000
0000
0001
,
0000
0000
0000
0001
0000
0000
0000
0000
,
0000
0000
1001
0000
;

//--------------- dance-single - KAYSTAR ----------------
#NOTES:
     dance-single:
     KAYSTAR:
     Easy:
     8:
     0,0,0,0,0:
0000
0000
0000
0000
,
0000
0000
0000
0000
,
0000
0000
0000
0000
,
0000
0000
0000
0000
,
0100
0000
0000
0010
0000
0010
0000
0000
,
1000
0000
0000
0001
0000
0000
1000
0001
,
1000
0000
0000
0100
0000
0100
0000
0000
,
0010
0000
0000
0000
,
0000
0000
0001
0000
1001
0000
0000
1000
,
0100
1000
0001
0000
,
1000
0001
1000
0000
1001
0000
0000
0001
,
0100
0010
1000
0001
,
0000
0000
1000
0000
1001
0000
0000
0001
,
0010
0100
1000
0000
,
0001
1000
0001
0000
1001
0000
0000
1000
,
0000
0010
0100
0000
0100
0000
0100
0000
,
0000
0000
0001
0000
1001
0000
0000
1000
,
0100
0000
0000
1000
0000
0000
0001
0000
0000
0000
0000
1000
,
0000
0000
0000
0010
0000
0100
0000
0010
0000
1000
0000
0000
,
0000
0001
1000
0000
,
0000
0000
0000
0000
,
0000
0010
0000
1000
0000
0001
1000
0001
,
0000
1000
0000
0100
0000
1000
0001
1000
,
0000
0010
0000
1000
0001
1000
0000
0001
,
0000
0010
0000
0100
0000
1000
0000
0001
,
0000
1000
0000
0010
0000
0000
0000
0010
,
0000
0000
0000
0010
0000
0000
0000
1000
,
0000
0000
0000
0100
0000
0000
0000
0100
,
0000
0000
0000
0100
0000
1000
0000
0001
,
1000
0001
0000
0100
0001
0100
0000
0001
,
1000
0001
1000
0001
0000
0000
1000
0000
,
0000
1001
0001
0100
,
1000
0000
0001
1000
0001
0000
0100
0000
,
2000
3001
1000
0010
,
0001
0100
1000
0000
,
1001
0001
0010
1000
,
0001
1000
0001
0000
0010
0000
2000
0000
,
3001
0000
1000
0000
0100
0000
0000
1000
,
0000
0000
0001
0100
,
0010
1000
1001
1001
,
0001
0010
0100
1000
,
0010
0100
0001
1000
,
0100
0010
0001
1000
,
0100
0010
0001
0100
,
0010
0000
0110
0000
0000
1000
0001
0000
,
0000
1000
0100
0000
,
0100
1000
0001
0100
,
0100
0010
0010
1000
,
1000
0001
0001
0010
,
0010
0100
0001
0010
,
1000
0000
0000
0100
,
1000
0001
1001
1000
,
0010
0100
0001
0010
,
0100
1000
0001
0000
,
0000
0000
0000
0000
1001
0000
0000
1000
,
0010
1000
0010
1000
0010
1000
0000
0001
,
0100
0001
0100
0001
0100
0001
0000
0000
,
0000
0000
0000
0000
0000
0000
0000
1000
,
0000
0100
0000
0010
0000
1000
0000
0010
,
0000
0001
0000
1000
0000
0010
0000
0100
,
0000
0001
0000
0100
0000
1000
0000
0100
,
0000
0001
0000
0010
0000
1000
0000
0100
,
0000
1000
0001
1000
0000
0100
0000
1000
,
0001
1000
0000
0100
0000
1000
0001
1000
,
0000
0100
0000
0010
0000
0001
0000
0100
,
0000
1000
0000
0010
0000
0001
0000
0000
,
0000
0000
2002
0000
,
0000
0000
0000
0000
,
0000
0000
3003
0000
;

//--------------- dance-single - KAYSTAR ----------------
#NOTES:
     dance-single:
     KAYSTAR:
     Medium:
     12:
     0,0,0,0,0:
0000
0000
0000
0000
,
0000
0000
0000
0000
,
0000
0000
0000
0000
,
0000
0000
0000
0000
,
0001
0000
0200
0010
0000
0301
1000
0000
,
0010
0000
1000
0100
0000
1000
0010
0010
,
1000
0000
0200
0010
0000
1300
0001
0000
,
1000
0000
1010
0000
0001
0100
0000
0100
,
0000
0001
1010
1000
,
0010
0100
0001
0000
1100
0000
0010
0000
,
0001
0100
0100
0000
1010
0000
0010
0000
,
0100
0001
2000
0100
0000
3001
0100
0100
,
0100
0010
1010
1000
,
0100
0010
0001
0000
0011
0000
0001
0000
,
1000
0010
0010
0000
0101
0000
0100
0000
,
0010
0000
0000
1000
0000
0000
0001
0000
0000
0000
0001
0000
1000
0000
0000
0000
1000
0000
0001
0000
0000
0000
0000
0000
,
0000
0000
0000
0000
0000
0000
1000
0100
1000
0000
0000
0100
1000
0000
0001
0000
,
0100
0000
0000
0000
0000
0000
0000
0000
0000
0000
0000
0000
0001
0000
0000
0100
0000
0000
0001
0000
0000
0000
0000
0000
1000
0000
0000
0000
0000
0000
0000
0000
0000
0000
0000
0000
0000
0000
0000
0000
0000
0000
0000
0000
0010
0000
0000
0000
,
0000
1000
0000
0100
0000
0001
0000
0100
0000
1000
0000
0000
,
0000
0000
0010
0000
0100
0000
0100
0000
0100
0000
0000
0010
0000
1000
0000
0001
,
2000
0000
0000
0000
3000
0000
0000
0000
0000
0000
0000
0001
0000
1000
0000
0100
,
0000
0100
0010
0000
0010
0000
0100
0000
0010
0000
0000
0000
0001
0000
1000
0000
,
1000
0000
0010
0000
0010
0000
0100
0000
0000
1000
0000
0000
0100
0000
0010
0000
,
0010
0000
1000
0000
0000
0000
0001
0000
1000
0001
2000
0000
0000
0000
3100
0000
,
1000
0001
0100
0100
0000
0010
0000
0010
,
0000
2000
0000
3100
2000
0000
0000
3001
,
0000
0000
0200
0001
0000
0000
0000
0010
,
0000
0302
0000
0013
0002
0000
0000
1003
,
0000
0000
0010
1000
0000
0100
0100
0100
,
0000
0001
0000
0010
0000
1000
0000
0100
,
0010
0100
0010
0001
0000
0000
2001
0000
,
0000
0000
0100
0000
3100
0000
0000
0000
0010
0000
0001
1000
0001
0000
0010
0000
,
0001
1000
0001
0000
1000
0000
0010
0000
0010
0000
0100
0000
0002
0000
0000
0000
,
0010
0000
0000
0000
2003
0000
0000
0000
3010
0000
1000
0001
1000
0000
0010
0000
,
1000
0001
1000
0000
0000
0000
0000
0000
1002
0000
0000
0000
0000
0000
0010
0000
,
0013
0000
0000
0000
0100
0000
1000
0001
1000
0000
0100
0000
1000
0001
1000
0000
,
0001
0100
0010
0010
0200
0000
0302
0000
,
2003
0000
0000
0000
0000
0000
3001
0000
0100
0000
0001
0000
0100
0000
0000
0010
0000
1000
0000
0010
0000
1000
0000
0000
,
0000
0000
0000
0000
0001
0010
0010
0000
,
0001
0000
0000
0000
0001
0000
1000
0000
0000
0000
1000
0000
0010
0000
0000
0010
0000
0000
0100
0000
0000
0000
0000
0000
,
0002
0000
0000
1000
1003
0010
0010
0000
,
0100
0001
0100
0010
1000
0001
0000
0000
0000
0010
0000
0010
,
0100
0000
0100
1000
0000
1000
0001
0000
0001
0100
0000
0100
,
1000
0000
0000
0000
1000
0000
0100
0000
0000
0000
0100
0000
0001
0000
0000
0000
0000
0000
1000
0000
0000
1000
0000
0000
,
0100
0000
0000
0000
0000
0000
0010
0000
0000
0000
0010
0000
0001
0000
0000
1000
0000
0000
0000
1000
0000
0000
0000
0000
,
0000
0020
1000
0000
,
1030
0000
0002
0000
0010
0000
0000
1000
,
1003
0010
1000
0100
,
0001
0010
1000
0100
,
0001
0000
0000
0010
0000
0010
1000
0000
1000
0001
0010
0001
,
1000
0010
1000
0000
0000
0000
0000
0000
0000
0012
0000
0000
,
1003
0010
0100
0000
0120
0000
0001
0000
,
0100
0000
0000
1030
0000
1000
0001
0000
0001
2000
0000
0000
,
3001
0010
0200
0000
0310
0000
0001
0000
,
1000
0000
0010
0000
1001
0000
0000
1000
,
0010
0001
0100
1000
0001
0001
0000
1000
,
0100
0001
0010
1000
0001
0001
0000
0000
,
0000
0000
1000
0010
0100
0110
0000
1001
,
0000
1000
0000
0100
0000
0000
0000
0100
0000
1000
0000
0000
0000
0001
0000
0100
0000
0001
0000
0100
0000
0000
0000
0000
,
0000
0010
0000
1000
0000
0000
0000
1000
0000
0100
0000
0000
0000
0100
0000
0010
0000
0000
0000
0010
0000
0001
0000
0000
,
0000
1000
0000
0010
0000
0000
0000
0100
0000
0010
0000
0000
0000
0100
0000
1000
0000
0000
0000
0100
0000
0010
0000
0000
,
0000
1000
0000
0001
0000
0000
0000
0010
0000
0100
0000
0000
0000
0001
0000
0200
0000
0000
0000
0000
0000
1300
0000
0000
,
0001
0100
0100
0010
0010
1000
0001
0010
,
0010
0100
0100
1000
0001
0100
0010
1000
,
0010
1000
0010
1000
0100
1000
0100
0010
,
0001
0100
0010
1000
0100
0001
0100
0000
,
0000
1000
0001
0100
2002
0000
0000
0000
,
0000
0000
0000
0000
,
0000
0000
3003
0000
;

//--------------- dance-single - KAYSTAR ----------------
#NOTES:
     dance-single:
     KAYSTAR:
     Hard:
     15:
     0,0,0,0,0:
0000
0000
0000
0000
,
0000
0000
0000
0000
,
0000
0000
0000
0000
,
0000
0000
0000
0000
,
1000
0010
0100
0001
0100
1000
0100
0010
,
1000
0100
0010
0001
0010
1000
0010
0010
,
0001
0100
0010
1000
0010
0001
0010
0100
,
0001
1000
0100
1000
0001
0001
0000
0001
,
0000
0000
0000
0000
1000
0000
0010
0000
0210
0000
0000
0000
0301
0000
1000
0100
,
1000
0001
0010
0100
0120
0000
0031
1000
,
0020
0030
0000
0000
0000
0000
0020
0030
0000
0000
0000
0000
0001
0000
0000
0000
0000
0000
0100
0000
0000
0000
0000
0000
0120
0000
0000
0000
0000
0000
0000
0000
0000
0000
0000
0000
1030
0000
0000
0000
0000
0000
0001
0000
0000
0100
0000
0000
,
0001
0000
1000
0000
0002
0000
0010
0000
2003
0000
0010
0000
3001
1000
0010
1000
,
0001
0000
0000
0000
0010
0000
0000
0000
0001
0000
0000
0000
0010
0000
0000
0000
0000
0000
0100
0000
0000
0000
0000
0000
0210
0000
0000
0000
0000
0000
0000
0000
0000
0000
0000
0000
1300
0000
0000
0000
0000
0000
0100
0000
0000
1000
0000
0000
,
0001
0100
0010
1000
1020
0000
0130
0001
,
0020
0030
0000
0000
0000
0000
0020
0030
0000
0000
0000
0000
1000
0000
0000
0000
0000
0000
0100
0000
0000
0000
0000
0000
0210
0000
0000
0000
0000
0000
0000
0000
0000
0000
0000
0000
1300
0000
0000
0000
0000
0000
0010
0000
0000
1000
0000
0000
,
0001
0000
0000
0000
0000
0000
0001
0000
0000
0000
0000
0000
1000
0000
0000
0000
0000
0000
0000
0000
1000
0000
0000
0000
0100
0000
0000
0000
0000
0000
0000
0000
0100
0000
0000
0000
1000
0000
0000
0001
0000
0000
0000
0000
0000
0001
0000
0000
,
0000
1000
0000
1000
0100
0000
1000
0001
0100
0000
0010
1000
0001
0000
1000
0000
,
0001
0000
0000
0010
0000
0000
0000
0000
0000
0010
0000
0000
0001
0000
0000
1000
0000
0000
0010
0000
0000
0100
0000
0000
0001
0000
0000
0000
0000
0000
0000
0000
0000
0000
0000
0000
0000
0000
0000
0000
0010
0000
0000
0000
0001
0000
0000
0000
,
0100
0010
1000
0100
0001
0100
1000
0001
0100
0010
0000
0000
,
0000
0000
1000
0000
1002
0000
0100
0000
1003
0000
0000
0100
0000
0100
0000
1000
,
0001
0100
0010
1000
0000
0000
0000
0000
0000
0000
0000
0002
0000
0203
0000
0320
,
0000
1000
1030
0000
0100
0000
1100
0000
1000
0001
0100
0000
0001
0000
0102
0000
,
1000
0000
0103
0001
1000
0100
2000
0000
0000
3200
0000
0000
0310
0001
1000
0000
,
1001
0000
0001
0000
0100
0000
0101
0000
0001
1000
0100
0000
0010
0000
0001
0000
,
1000
0020
0100
0100
0000
0001
0000
0130
,
0000
0002
0000
0103
0002
0000
0000
2003
,
0000
0000
3100
2000
0000
0000
0001
3001
,
0000
2000
0000
3010
2000
0000
0000
3002
,
0000
0000
0013
0001
0000
0100
0100
0110
,
0000
0010
0100
0000
0010
0000
1000
0001
1000
0000
0001
0000
1000
0001
0010
0100
,
0010
0100
1000
0001
0100
0010
1000
0000
0000
0000
0000
0000
0102
0000
0000
1003
,
0000
1000
0100
0000
0001
0000
0000
0000
0100
1000
0100
1000
0010
0000
0100
0001
,
0100
0001
0010
0000
0100
0000
1000
0000
1001
0000
0001
0000
0200
0000
0000
0000
,
0320
0000
0000
0000
0001
0000
0000
0000
0130
0001
0100
0001
0010
0000
0100
1000
,
0100
1000
0010
0000
0000
0000
0000
0000
0120
0000
0000
1030
0000
1000
0100
0000
,
0010
0001
0000
0000
0100
0001
1000
0001
0010
0000
0100
1000
0001
1000
0010
0000
,
0100
0001
0011
0010
0200
0000
0302
0000
,
0203
0000
0000
0000
0000
0000
1300
0000
0100
0000
2000
0000
0010
0000
0000
3001
0000
0010
0000
0002
0000
0100
0000
0000
,
1003
0000
0000
0000
0000
0000
0000
0000
0001
0100
0010
0100
0001
0000
0000
0001
,
1000
0000
0000
0000
0200
0300
0000
0000
0200
0300
0000
0000
0001
0000
0000
0000
0200
0300
0000
0000
0200
0300
0000
0000
1000
0000
0000
0000
0000
0000
1000
0000
0000
0001
0000
0000
0020
0000
0000
0000
0000
0000
0000
0000
0000
0000
0000
0000
,
0032
0000
0000
0000
0100
0000
1003
0010
0100
0010
1000
0100
0010
0000
0010
0000
,
0001
0000
0000
0000
0020
0030
0000
0000
0020
0030
0000
0000
1000
0000
0000
0000
0020
0030
0000
0000
0020
0030
0000
0000
0001
0000
0000
0000
0000
0000
0000
0000
0000
0000
0000
0000
1000
0000
0000
0000
0010
0000
0000
0000
0100
0000
0000
0000
,
0001
0100
0010
1000
0100
0010
0001
0010
0100
1000
0100
0001
,
0100
0000
1000
0000
0001
0000
1000
0000
0010
0000
0100
0000
1000
0000
0000
0000
0000
0000
0100
0000
0000
0001
0000
0000
,
0102
0000
0000
0000
0000
0000
1003
0000
0100
0000
2000
0000
0010
0000
0000
3001
0000
0100
0000
0002
0000
0010
0000
0000
,
1003
0000
0000
0000
1200
0000
0000
0301
0200
0000
0000
0000
0320
0000
1000
0000
,
0032
0000
1000
0000
0203
0000
0000
1300
0200
0000
0000
0000
0320
0000
0001
0000
,
0230
0000
0000
0301
0000
0000
1000
0000
0000
0100
0000
0001
,
0000
0100
0000
1000
0000
0010
0000
0001
0000
1000
0000
0100
,
0000
0001
0000
1000
0000
1000
0001
0000
0001
1000
0010
1000
,
0001
0010
0001
0000
0000
0000
0000
0000
0000
1000
0010
2000
,
0100
0000
0000
3001
0000
0000
0100
0000
0001
0000
0010
0000
0002
0000
0000
0000
0000
0000
1003
0000
0010
0000
0100
0000
,
1000
0100
0010
1000
0000
1000
0001
0000
0010
0001
0100
0002
,
0010
0000
0000
1003
0000
0000
0100
0000
1000
0000
0010
0000
1000
0000
0000
0000
1000
0000
0001
0000
0000
0000
0000
0000
,
0101
0000
1100
0000
2001
0000
0000
3001
,
0101
0000
1001
0000
1100
0000
1002
0000
0103
0010
1000
0010
0000
1000
0100
0000
,
1100
0000
1001
0000
0101
0000
2001
0000
3100
1000
0001
0100
0000
0000
0000
0000
,
0000
0000
0000
0000
0000
0000
0000
0000
0100
0001
0000
0001
0000
1000
0100
0000
0010
0000
0000
0000
0210
0000
0000
0000
0000
0000
0000
0000
1300
0000
0000
0000
,
0000
1000
0000
0010
0000
0000
0000
0010
0000
0100
0000
0000
0000
0100
0000
0001
0000
0010
0000
0001
0000
0100
0000
0000
,
0000
0100
0000
0010
0000
1000
0000
0100
0000
1000
0000
0001
0000
0010
0000
0100
0000
0010
0000
0001
0000
1000
0000
0010
,
0000
0100
0000
0010
0000
0001
0000
0010
0000
0100
0000
0001
0000
0100
0000
0010
0000
0100
0000
1000
0000
0100
0000
0010
,
0000
1000
0000
0001
0000
0010
0000
0100
0000
0001
0000
0100
0000
0010
0000
0001
0000
0000
0000
0000
0000
1002
0000
0000
,
0000
0000
0103
0000
0000
0000
0001
0000
0000
0000
0000
0000
0100
0000
0000
0010
0000
0000
1000
0000
0000
0000
0000
0000
0001
0000
0000
0000
0000
0000
2001
0000
0000
0000
0000
0000
0000
0000
3100
0000
0000
0000
0010
0000
0000
0000
0000
0000
,
0000
0000
0010
0000
0000
0000
0001
0000
0000
0000
0000
0000
0100
0000
0000
0010
0000
0000
1000
0000
0000
0000
0000
0000
0000
0000
0100
0000
0000
0000
0010
0000
0000
0000
0000
0000
1001
0000
0000
0000
0000
0000
0001
0000
0000
0100
0000
0000
,
0001
0100
0010
0100
0010
0100
0001
0100
0001
0100
0001
1000
0001
1000
0100
1000
,
0100
1000
0100
0010
0100
0010
0100
1000
0100
1000
0001
1000
0001
1000
0000
0000
,
0000
0000
0000
0000
0001
0100
0000
0100
0000
0010
1000
0000
0001
0000
0000
0000
2002
0000
0000
0000
0000
0000
0000
0000
0000
0000
0000
0000
0000
0000
0000
0000
,
0000
0000
0000
0000
,
0000
0000
3003
0000
;

//--------------- dance-double - KAYSTAR ----------------
#NOTES:
     dance-double:
     KAYSTAR:
     Edit:
     15:
     0,0,0,0,0:
00000000
00000000
00000000
00000000
,
00000000
00000000
00000000
00000000
,
00000000
00000000
00000000
00000000
,
00000000
00000000
00000000
00000000
,
10000000
00000000
00000000
00110000
00000000
00000010
00001000
00000000
,
00000001
00000000
00000000
00001100
00000000
01000000
00010000
00010000
,
10000000
00000000
00000000
01010000
00000000
00000010
00001000
00000000
,
00000001
00000000
00000010
00000000
00001000
00010000
00000000
00010000
,
00000000
00000000
00001000
00010000
00100000
00000000
10000000
01000000
,
00010000
00010000
00001000
00010000
01000000
00000000
10000000
00100000
,
00010000
00010000
00010000
00001000
00000010
00000000
00000001
00000100
,
00001000
00000000
00001000
00000000
00010000
00000000
01000000
00000000
00000000
00000000
00100000
00000000
00001000
00010000
00001000
00010000
,
00000100
00000000
00010000
00000000
00001000
00000000
01000000
00000000
00000000
00100000
00000000
00000000
00010000
00000000
00000000
00000000
00000000
00000000
00001000
00000000
00000000
00010000
00000000
00000000
,
01000000
00010000
00010000
00001000
00000100
00000000
00000001
00000010
,
00001000
00001000
00010000
00100000
10000000
00000000
01000000
00010000
,
00001000
00000000
00000000
00000000
00000000
00000000
00000100
00000000
00000000
00000000
00000000
00000000
00000001
00000000
00000000
00000000
00000000
00000000
00000000
00000000
00001000
00000000
00000000
00000000
00000100
00000000
00000000
00000000
00000000
00000000
00000000
00000000
00010000
00000000
00000000
00000000
00001000
00000000
00000000
00100000
00000000
00000000
00000000
00000000
00000000
00010000
00000000
00000000
,
00000000
10000000
00000000
00100000
01000000
00000000
00010000
01000000
00001000
00000000
00000000
00010000
00001000
00000000
00000010
00000000
,
00000000
00000000
00000000
00000001
00000000
00000000
00000000
00000000
00000000
00001000
00000000
00000000
00000010
00000000
00000000
00000100
00000000
00000000
00000010
00000000
00000000
00000100
00000000
00000000
00001000
00000000
00000000
00000000
00000000
00000000
00000000
00000000
00000000
00000000
00000000
00000000
00000000
00000000
00000000
00000000
00000000
00000000
00000000
00000000
00010000
00000000
00000000
00000000
,
00100000
01000000
00100000
00010000
00001000
00000010
00000100
00000010
00001000
00010000
00000000
00000000
,
00000000
00000000
00001000
00000000
01000000
00000000
01000000
00000000
01000000
00000000
00000000
00100000
00000000
10000000
00000000
00010000
,
01000000
00001000
00010000
00000010
00000000
00000000
00000000
00000000
00000000
00000000
00000000
00000200
00000000
00000302
00000000
00000023
,
00000000
00001030
00010000
00000000
00001000
00000000
00011000
00000000
00010000
00000100
00010000
00000000
00001000
00000000
00011000
00000000
,
00000000
00000000
00010000
00001000
00010000
00001000
02000000
00000000
00000000
03002000
00000000
00000000
00013000
00001000
00010000
00000000
,
00010000
00000000
00000100
00000000
00000000
00000000
00000011
00000000
00000001
00001000
00000010
00000000
00000100
00000000
00001000
00000000
,
00010000
00000000
00000000
00100000
00000000
00000000
00100000
00000000
00000000
00100000
00000000
00000000
10000000
00000000
00000000
01000000
00000000
00000000
00000000
01000000
00000000
00100000
00000000
00000000
,
00000000
00100000
00000000
00020000
00000000
00000000
00000000
00000000
00000000
00130000
00000000
00000000
00020000
00000000
00000000
00000000
00000000
00000000
00000000
00000000
00000000
00032000
00000000
00000000
,
00000000
00000000
00003010
00002000
00000000
00000000
00000010
00003010
,
00000000
00002000
00000000
00003100
00002000
00000000
00000000
00023000
,
00000000
00000000
00130000
00010000
00000000
10000000
10000000
00100000
,
00000000
00100000
01000000
00000000
00010000
00000000
00100000
00001000
00000000
00000000
00010000
00000000
00000100
00000000
00000010
00000001
,
00000010
00000001
00001000
00000010
00001000
00000010
00000100
00000000
00000000
00000000
00000000
00000000
00000001
00000000
00000000
00000100
,
00000000
00000010
00001000
00000000
00010000
00000000
00000000
00000000
01000000
00100000
01000000
00100000
10000000
00000000
01000000
00100000
,
01000000
00100000
00010000
00000000
00001000
00000000
00000100
00000000
00001000
00000000
00010000
00000000
01000000
00000000
00000000
00000000
,
00001000
00000000
00000000
00000000
00010000
00000000
00000000
00000000
00000100
00000010
00000100
00000010
00000001
00000000
00000100
00000010
,
00000100
00000010
00001000
00000000
00000000
00000000
00000000
00000000
00011000
00000000
00000000
00001000
00000000
01000000
00100000
00000000
,
10000000
00010000
00000000
00000000
00100000
01000000
00100000
01000000
10000000
00000000
00100000
01000000
00100000
01000000
00010000
00000000
,
00100000
00010000
00001000
00010000
00100000
00000000
00001000
00000000
,
00010000
00000000
00000000
00000000
00000000
00000000
00000010
00000000
00000100
00000000
00000001
00000000
00001000
00000000
00000000
00000100
00000000
00010000
00000000
00001000
00000000
01000000
00000000
00000000
,
00000000
00000000
00000000
00000000
00000000
00000000
00000000
00000000
10100000
00000000
00000000
01000000
00010000
00000000
00000000
00000000
,
00100000
00001000
00010000
00000010
00010000
00001000
00100000
00000000
00000000
00011000
00000000
00000000
,
00000010
00000000
00001000
00000000
00000100
00000000
00010000
00001000
00010000
00001000
00010000
00001000
00010000
00000000
00000000
00000000
,
00000100
00010000
00001000
01000000
00001000
00010000
00000000
00000000
00000000
00000001
00000000
00000001
,
00000100
00000000
00000100
00001000
00000000
00001000
00010000
00000000
00010000
01000000
10000000
00010000
,
01000000
00000000
00001000
00000000
00010000
00000000
00000100
00000000
00000010
00000000
00000001
00000000
00001000
00000000
00000000
00000000
00000000
00000000
00000010
00000000
00000000
00000100
00000000
00000000
,
00001000
00000000
00000000
00000000
00000000
00000000
00010000
00000000
00001000
00000000
00010000
00000000
00000010
00000000
00000000
00010000
00000000
00001000
00000000
00010000
00000000
00000100
00000000
00000000
,
00000000
00000000
00000000
00000000
00000010
00000000
00000000
00000001
00001000
00000000
00000000
00000000
00000010
00000000
00010000
00000000
,
00001000
00000000
00100000
00000000
00010000
00000000
00000000
10000000
00010000
00000000
00000000
00000000
01000000
00000000
00001000
00000000
,
00010000
00000000
00000000
00000100
00000000
00000000
00000010
00000000
00000000
00000000
00000000
00000000
00000000
00000000
00000000
00000000
00000000
00000000
00000001
00000000
00000000
00000000
00000100
00000000
,
00000000
00001000
00000000
00010000
00000000
01000000
00000000
10000000
00000000
00100000
00000000
00010000
,
00000000
00001000
00000000
00000010
00000000
00000001
00000000
00000100
00000000
00001000
00000000
00010000
,
00000000
01000000
00000000
00000000
00000000
00000000
00000000
00000000
00000000
10000000
00100000
10000000
,
01000000
00000000
00000000
10000000
00000000
00000000
00010000
00000000
00000000
00000000
00100000
00000000
00001000
00000000
00000000
00000000
00000000
00000000
00000010
00000000
00000001
00000000
00001000
00000000
,
00000010
00000100
00000001
00000100
00000000
00000100
00001000
00000000
00001000
00010000
01000000
00100000
,
01000000
00000000
00000000
10000000
00000000
00000000
00010000
00000000
00000000
00000000
00010000
00000000
01000000
00000000
00000000
00000000
01000000
00000000
00100000
00000000
00000000
00000000
00000000
00000000
,
01000000
00000000
00001000
00000000
00011000
00000000
00000000
01000100
,
01000100
00000000
01000100
00000000
01000100
00000000
01000100
00000000
01000100
00000000
00000000
00011000
00000000
00000000
01000100
00000000
,
01000100
00000000
01000100
00000000
01000100
00000000
01000100
00000000
01000100
00000000
00000000
00011000
00000000
00000000
00000000
00000000
,
00000000
00000000
00000000
00000000
00000000
00100010
00000000
00011000
,
00000000
00010000
00000000
00000100
00000000
00000000
00000000
00000100
00000000
00000010
00000000
00000000
00000000
00000010
00000000
00000001
00000000
00000100
00000000
00000010
00000000
00000100
00000000
00000000
,
00000000
00000001
00000000
00000010
00000000
00000000
00000000
00000010
00000000
00000100
00000000
00000000
00000000
00000100
00000000
00010000
00000000
00000000
00000000
00010000
00000000
00001000
00000000
00010000
,
00000000
00000010
00000000
00010000
00000000
00001000
00000000
00100000
00000000
00001000
00000000
00010000
00000000
00000100
00000000
00010000
00000000
00001000
00000000
01000000
00000000
00010000
00000000
10000000
,
00000000
01000000
00000000
00100000
00000000
00010000
00000000
01000000
00000000
00001000
00000000
00010000
00000000
00000010
00000000
00000100
00000000
00000000
00000000
00000000
00000000
00000001
00000000
00000000
,
00000000
00000001
00000000
00000100
00000000
00000000
00000000
00000100
00000000
00001000
00000000
00000000
00001000
00000000
00000000
00010000
00000000
00000000
00000000
00010000
00000000
01000000
00000000
00000000
,
00000000
00000000
01000000
00000000
00000000
00000000
10000000
00000000
00000000
00000000
00000000
00000000
10000000
00000000
00000000
00000000
00000000
00000000
00100000
00000000
00000000
00000000
00000000
00000000
00000000
00000000
00100000
00000000
00000000
00000000
01000000
00000000
00000000
00000000
00000000
00000000
00001000
00000000
00000000
00000000
00000000
00000000
00010000
00000000
00000000
00001000
00000000
00000000
,
00010000
00001000
00010000
00001000
00010000
00001000
00010000
00001000
00010000
00001000
00010000
00001000
00010000
00001000
00010000
00001000
,
00010000
00001000
00010000
00001000
00010000
00001000
00010000
00001000
00010000
00001000
00010000
00001000
00010000
00001000
00000000
00000000
,
00000000
00000000
00200020
00000000
,
00000000
00000000
00000000
00000000
,
00000000
00000000
00300030
00000000
;
