#VERSION:0.83;
#TITLE:ehe te nandayo;
#SUBTITLE:pt2;
#ARTIST:Heiakim;
#TITLETRANSLIT:;
#SUBTITLETRANSLIT:;
#ARTISTTRANSLIT:;
#GENRE:Paimon;
#ORIGIN:Paimon;
#TAGS:;
#CREDIT:;
#BANNER:ehe te nandayo pt2.png;
#BACKGROUND:ehe te nandayo pt2-bg.png;
#PREVIEWVID:;
#JACKET:ehe te nandayo pt2-jacket.png;
#CDIMAGE:;
#DISCIMAGE:;
#LYRICSPATH:;
#CDTITLE:cdtitle.png;
#MUSIC:ehe te nandayo pt2.ogg;
#OFFSET:0.000000;
#SAMPLESTART:38.400002;
#SAMPLELENGTH:12.800000;
#SELECTABLE:YES;
#BPMS:0.000000=150.000000
;
#STOPS:126.000000=0.200000
,126.500000=0.200000
,127.000000=0.100000
,127.250000=0.100000
;
#DELAYS:;
#WARPS:126.000000=0.500000
,126.500000=0.500000
,127.000000=0.250000
,127.250000=0.250000
;
#TIMESIGNATURES:0.000000=4=4
;
#TICKCOUNTS:0.000000=4
;
#COMBOS:0.000000=1
;
#SPEEDS:0.000000=1.000000=0.000000=0
,102.000000=1.250000=0.250000=0
,102.500000=1.500000=0.250000=0
,103.000000=1.250000=0.250000=0
,103.500000=1.000000=0.250000=0
,104.000000=0.750000=0.250000=0
,104.500000=0.500000=0.250000=0
,105.000000=0.750000=0.250000=0
,105.500000=1.000000=0.250000=0
,111.500000=0.500000=0.500000=0
,112.000000=0.250000=0.000000=0
,112.062500=1.000000=2.000000=0
,134.000000=1.250000=0.250000=0
,134.500000=1.500000=0.250000=0
,135.000000=1.250000=0.250000=0
,135.500000=1.000000=0.250000=0
,136.000000=0.750000=0.250000=0
,136.500000=0.500000=0.250000=0
,137.000000=0.750000=0.250000=0
,137.500000=1.000000=0.250000=0
,143.500000=0.500000=0.500000=0
,144.000000=0.250000=0.000000=0
,144.062500=1.000000=2.000000=0
;
#SCROLLS:0.000000=1.000000
,37.000000=-1.000000
,38.000000=1.000000
,53.000000=-1.000000
,54.000000=1.000000
,69.000000=-1.000000
,70.000000=1.000000
,85.000000=-1.000000
,86.000000=1.000000
,165.000000=-1.000000
,166.000000=1.000000
,181.000000=-1.000000
,182.000000=1.000000
;
#FAKES:;
#LABELS:0.000000=Song Start
;
#BGCHANGES:;
#KEYSOUNDS:;
#ATTACKS: TIME=17.600000:LEN=0.400000:MODS=*8 25% Invert: TIME=18.000000:LEN=0.400000:MODS=*8 No Invert: TIME=18.400000:LEN=0.400000:MODS=*8 -25% Invert: TIME=18.799999:LEN=0.400000:MODS=*8 No Invert: TIME=24.000000:LEN=0.400000:MODS=*8 25% Invert: TIME=24.400000:LEN=0.400000:MODS=*8 No Invert: TIME=24.799999:LEN=0.400000:MODS=*8 -25% Invert: TIME=25.200001:LEN=0.400000:MODS=*8 No Invert: TIME=30.400000:LEN=0.400000:MODS=*8 25% Invert: TIME=30.799999:LEN=0.400000:MODS=*8 No Invert: TIME=31.200001:LEN=0.400000:MODS=*8 -25% Invert: TIME=31.600000:LEN=0.400000:MODS=*8 No Invert: TIME=38.400002:LEN=0.100000:MODS=*10000 100% Brake: TIME=38.424999:LEN=0.400000:MODS=*4 No Brake: TIME=39.599998:LEN=0.200000:MODS=*4 200% Wave: TIME=39.799999:LEN=0.200000:MODS=*4 No Wave: TIME=42.400002:LEN=0.400000:MODS=*8 25% Invert: TIME=42.799999:LEN=0.400000:MODS=*8 No Invert: TIME=45.599998:LEN=0.200000:MODS=*2 100% Wave: TIME=45.799999:LEN=0.200000:MODS=*2 No Wave: TIME=48.400002:LEN=0.400000:MODS=*8 -25% Invert: TIME=48.799999:LEN=0.400000:MODS=*8 No Invert: TIME=51.200001:LEN=0.100000:MODS=*10000 100% Brake: TIME=51.224998:LEN=0.400000:MODS=*4 No Brake: TIME=52.400002:LEN=0.200000:MODS=*2 100% Wave: TIME=52.599998:LEN=0.200000:MODS=*2 No Wave: TIME=55.200001:LEN=0.400000:MODS=*8 25% Invert: TIME=55.599998:LEN=0.400000:MODS=*8 No Invert: TIME=58.400002:LEN=0.200000:MODS=*4 200% Wave: TIME=58.599998:LEN=0.200000:MODS=*4 No Wave: TIME=61.200001:LEN=0.400000:MODS=*8 -25% Invert: TIME=61.599998:LEN=0.400000:MODS=*8 No Invert: TIME=64.000000:LEN=6.400000:MODS=*0.125 25% Drunk: TIME=68.800003:LEN=0.400000:MODS=*8 25% Invert: TIME=69.199997:LEN=0.400000:MODS=*8 No Invert: TIME=69.599998:LEN=0.400000:MODS=*8 -25% Invert: TIME=70.000000:LEN=0.400000:MODS=*8 No Invert: TIME=70.400002:LEN=6.400000:MODS=*0.125 25% Tipsy: TIME=75.199997:LEN=0.400000:MODS=*8 25% Invert: TIME=75.599998:LEN=0.400000:MODS=*8 No Invert: TIME=76.000000:LEN=0.400000:MODS=*8 -25% Invert: TIME=76.400002:LEN=0.400000:MODS=*8 No Invert;

//---------------dance-single - ----------------
#NOTEDATA:;
#CHARTNAME:No More Paimon (vine boom);
#CHARTHASH:4100978936;
#STEPSTYPE:dance-single;
#BANNER:;
#DESCRIPTION:;
#CHARTSTYLE:;
#DIFFICULTY:Hard;
#METER:13;
#METERF:13.000000;
#LASTSECONDHINT:76.599998;
#RADARVALUES:0.595846,0.641183,0.127551,0.063776,0.344388,327.000000,317.000000,10.000000,5.000000,0.000000,0.000000,2.000000,0.000000,0.000000,0.595846,0.641183,0.127551,0.063776,0.344388,327.000000,317.000000,10.000000,5.000000,0.000000,0.000000,2.000000,0.000000,0.000000;
#CREDIT:Yosefu as ''Certified Dumbass'';
#NOTES:
// measure 0
0000
0000
0000
0000
,  // measure 1
0000
0000
0000
0000
,  // measure 2
0000
0000
0000
0000
,  // measure 3
0000
0000
0000
0000
,  // measure 4
1000
0000
0000
0010
0000
0000
0100
0000
0001
0000
0000
0000
0001
0000
0000
0000
,  // measure 5
0010
0000
0000
0100
0000
0000
1000
0000
0001
0000
0000
0000
0001
0000
0000
0000
,  // measure 6
0100
0100
0100
0100
,  // measure 7
0010
0000
0000
0000
0000
0000
0000
0000
1000
0000
0000
0000
0000
0000
0000
0000
0001
0000
0000
0000
0000
0000
0000
0000
0040
0000
0000
0000
0000
0000
0030
0000
0000
0100
0000
0000
1000
0000
0000
0000
0000
0000
0100
0000
0000
1000
0000
0000
,  // measure 8
0001
0100
0000
0100
0110
0010
1000
0000
,  // measure 9
2000
0002
0000
0000
0000
0000
0000
3000
,  // measure 10
0103
0010
0000
0010
1010
1000
0001
0000
,  // measure 11
0010
0000
0000
0100
0010
0000
0001
0000
0010
0000
0000
0000
0010
0000
0001
0000
,  // measure 12
1001
1000
0000
0010
0110
0100
0001
0000
,  // measure 13
2000
0000
0010
0000
0000
0000
0010
3000
,  // measure 14
1000
0001
0000
0001
0011
0010
0100
0000
,  // measure 15
1000
0000
0000
0100
1000
0000
0010
0000
4000
0000
3000
0001
1000
0000
0010
0100
,  // measure 16
0001
1000
0000
0100
0010
0100
1000
0000
,  // measure 17
0001
0100
0001
0100
,  // measure 18
0010
1000
0000
0001
0010
0100
0010
0000
,  // measure 19
0001
0000
0000
1000
0001
0000
0010
0000
0001
0000
0000
0000
0001
0000
1000
0000
,  // measure 20
0010
0100
0000
0001
1000
0100
0010
0000
,  // measure 21
0001
1000
0001
1000
,  // measure 22
0010
0100
0000
0001
0010
0100
1000
0000
,  // measure 23
0010
0000
0100
0000
0001
0000
0010
0000
0100
0000
1000
0000
0001
1000
0010
0000
,  // measure 24
0110
0000
0100
0000
0001
0000
0010
0000
0100
0000
0000
1000
0100
0000
1000
0000
,  // measure 25
0010
0100
0001
1000
0100
1000
0010
1000
,  // measure 26
0100
0000
0001
0000
0100
0000
1000
0000
0001
0000
0000
0100
0001
1000
0001
0000
,  // measure 27
0010
0000
0000
0000
0110
0000
0000
0000
0100
0000
0000
1000
0001
0000
0100
0000
,  // measure 28
0210
0000
0000
0000
0310
1000
0100
0010
,  // measure 29
0001
0000
1000
0000
0010
0000
0100
0000
0000
0000
0001
1000
0100
0000
0010
0000
,  // measure 30
0100
0000
1000
0000
0010
0000
0100
0000
0010
0000
0000
1000
0001
0000
0010
0000
,  // measure 31
0100
0000
1000
0000
0001
1000
0000
0000
0001
0000
0001
0000
0001
1000
0001
1000
,  // measure 32
0001
0000
0100
0000
0001
0000
1000
0010
0000
1000
0000
0010
1000
0000
0100
0000
,  // measure 33
0010
0001
1000
0001
0100
0001
0010
0001
,  // measure 34
0100
0000
1000
0000
0100
0000
0010
0100
0000
0001
0000
0100
0001
1000
0001
0000
,  // measure 35
0010
0000
0000
0000
0110
0000
0100
1000
0000
0001
0000
1000
0001
0000
0100
0000
,  // measure 36
0210
0000
0000
0000
0301
1000
0100
0010
,  // measure 37
0001
0000
1000
0000
0010
0000
0100
0001
0000
0010
0000
0100
1000
0000
0010
0100
,  // measure 38
0001
0000
1000
0000
0100
0000
0001
0000
0100
0010
0000
0001
1000
0010
1000
0000
,  // measure 39
0010
0000
1000
0000
0001
0000
0010
0000
0100
0000
1000
0000
0001
1000
0010
0000
,  // measure 40
0100
0000
0001
0100
0000
0000
0100
0000
0001
0000
1000
0001
0010
0000
0001
0000
,  // measure 41
1000
0000
0000
0000
0001
0000
0000
0000
1000
0000
0000
0000
0001
0000
0100
0010
,  // measure 42
1000
0000
0000
1000
0000
0000
1000
0000
0001
0000
0010
0001
1000
0000
0010
0000
,  // measure 43
0100
0000
0001
0000
0100
0000
0010
0000
1000
0000
0001
0010
0100
1000
0001
0100
,  // measure 44
0010
0000
1000
0010
0000
0000
0010
0000
0100
0000
0001
0100
0010
0000
1000
0000
,  // measure 45
0001
0000
1000
0000
0001
0000
1000
0000
0001
0000
1000
0000
0001
0000
1000
0001
,  // measure 46
0010
0000
0100
0010
0000
0000
0010
0000
0001
0000
1000
0010
0100
0000
0001
0000
,  // measure 47
1000
0000
0100
0000
1000
0000
0010
0000
1000
0000
0001
0010
0100
1000
0001
0000
;
