#VERSION:0.83;
#TITLE:chrono diver -fragment-;
#SUBTITLE:;
#ARTIST:猫叉Master feat.三澤秋;
#TITLETRANSLIT:;
#SUBTITLETRANSLIT:;
#ARTISTTRANSLIT:Nekomata Master feat.Aki Misawa;
#GENRE:;
#ORIGIN:;
#CREDIT:;
#BANNER:chrono diver -fragment-.png;
#BACKGROUND:chrono diver -fragment--bg.png;
#PREVIEWVID:;
#JACKET:chrono diver -fragment--jacket.png;
#CDIMAGE:;
#DISCIMAGE:;
#LYRICSPATH:chrono diver -fragment-.lrc;
#CDTITLE:;
#MUSIC:chrono diver -fragment-.ogg;
#OFFSET:-0.045457;
#SAMPLESTART:67.440002;
#SAMPLELENGTH:12.000000;
#SELECTABLE:YES;
#BPMS:0.000=185.000;
#STOPS:;
#DELAYS:;
#WARPS:;
#TIMESIGNATURES:0.000=4=4;
#TICKCOUNTS:0.000=4;
#COMBOS:0.000=1;
#SPEEDS:0.000=1.000=0.000=0;
#SCROLLS:0.000=1.000;
#FAKES:;
#LABELS:0.000=Song Start;
#BGCHANGES:0.000=chrono diver -fragment-.mp4=1.000=0=0=1=====,
99999=-nosongbg-=1.000=0=0=0 // don't automatically add -songbackground-
;
#KEYSOUNDS:;
#ATTACKS:
;

//---------------dance-single - ----------------
#NOTEDATA:;
#CHARTNAME:;
#STEPSTYPE:dance-single;
#DESCRIPTION:;
#CHARTSTYLE:;
#DIFFICULTY:Hard;
#METER:12;
#RADARVALUES:0.605722,0.647827,0.212003,0.720809,0.046641,500.000000,475.000000,25.000000,85.000000,0.000000,0.000000,0.000000,0.000000,0.000000,0.605722,0.647827,0.212003,0.720809,0.046641,500.000000,475.000000,25.000000,85.000000,0.000000,0.000000,0.000000,0.000000,0.000000;
#CREDIT:Ben Speirs;
#NOTES:
0000
0000
0000
0000
,
0000
0000
0000
0000
,
0000
0000
0000
0000
,
0000
0000
0000
0000
,
2000
0000
0000
0100
0000
0000
3001
0000
,
0002
0000
0000
0100
0000
0000
1003
0000
,
2000
0000
0000
3200
0000
0000
0310
0001
,
0200
0000
0000
0320
0000
0000
1030
0000
,
0002
0000
0000
0010
0000
0000
1003
0000
,
2000
0000
0000
0010
0000
0000
3001
0000
,
0002
0000
0000
0023
0000
0000
0130
1000
,
0020
0000
1030
0130
0010
0001
0100
0000
,
0102
0000
1003
0200
0010
0000
2300
0000
,
3001
0200
0010
0000
0301
0000
0000
0000
,
1000
0000
0001
0010
0000
0010
0100
1000
,
0001
0000
1000
0010
0000
0010
0100
0001
,
2000
0000
3001
0020
0100
0000
0032
0000
,
1003
0020
0100
0000
1030
0000
0001
0000
,
1000
0100
0010
0001
0100
0010
1000
0001
,
0010
0000
0200
0000
1300
0001
1001
0000
,
0101
0000
1010
0000
0001
0010
0100
0000
,
1000
0000
0000
0000
1010
0000
0000
0010
0100
0000
0001
0000
1000
0000
0100
0000
,
0020
0000
0031
0100
0000
0100
0010
1000
,
3001
0000
1000
0100
0001
0100
2000
0000
,
3010
0000
1001
0000
1000
0100
0010
0000
,
0001
0000
0000
0000
0101
0000
0000
0100
0010
0000
1000
0000
0001
0000
0010
0000
,
0200
0000
1300
0010
0000
0010
0100
0001
,
1003
0000
0001
0010
1000
0001
0200
0000
,
1303
0000
1020
0000
0130
1000
0200
0000
,
0301
0000
0000
0000
1000
0000
0000
1000
0100
0000
0010
0000
0001
0000
0100
0000
,
0020
0000
1330
0100
0000
0100
0010
0001
,
1003
0000
0001
0010
1000
0010
0001
0000
,
2000
0000
3010
0100
0002
0000
0013
0000
,
0001
0100
0010
1000
0100
0010
0001
0000
,
1000
0000
0001
0100
0000
0100
0010
1000
,
0001
0000
1000
0100
0001
1000
0020
0000
,
0031
0000
1003
0100
2000
0030
3002
0000
,
0103
0010
0200
0000
0301
0000
1000
0000
,
0001
0010
0100
1000
0010
0100
0001
1000
,
0100
0010
0001
0100
0010
1000
0001
0000
,
2001
0000
0010
0000
0001
0000
0100
3200
,
0000
0300
0000
1000
0100
0001
1000
0010
,
0002
0030
0010
0000
1000
0000
0100
0203
,
0000
0330
0000
0001
0100
1000
0001
0010
,
2000
0000
0010
0000
0001
0000
3100
0100
,
0010
0011
0113
1100
,
2032
0000
3303
0000
1000
0000
0001
0100
,
0010
0000
1000
0100
0010
0100
2000
0000
,
3010
0000
3130
0000
0101
0000
1000
0100
,
0010
0000
0001
0100
0010
0100
0002
0000
,
1003
0100
0010
0001
0100
0010
1000
0001
,
1000
0000
0000
0000
0000
0010
0100
0000
,
1002
0000
0013
1000
0010
0001
0100
0000
,
0001
0000
0000
0001
0010
0000
0000
0010
0100
0000
0000
0100
1000
0000
0000
1000
,
0020
0000
0130
1000
0200
0000
0301
0010
,
1000
0010
0002
0000
1003
0010
0100
0001
,
0020
0130
0110
2001
,
3001
0100
0010
1000
0130
0010
3001
0000
,
2000
0000
3010
0100
0020
0000
1030
0001
,
0100
0100
0010
1000
0001
1000
0100
0000
,
2001
0000
3100
0001
0100
1000
0010
0000
,
1000
0000
0000
1000
0100
0000
0000
0100
0010
0000
0000
0010
0001
0000
0000
0001
,
0200
0000
0310
0001
0020
0000
1030
0100
,
2000
0030
3002
0000
0103
0010
0200
0000
,
0301
0000
0101
0000
1000
0100
1100
0000
,
0001
1000
0001
1000
0010
0100
0001
0000
,
2010
0000
3001
0010
0100
0010
1000
0010
,
0002
1000
0203
1000
,
0331
0000
1000
0100
0001
0000
0001
0100
,
1000
0010
0200
0000
0310
1000
0001
0000
,
1000
0100
0001
0100
1000
0000
2002
0000
,
3003
0002
3203
0320
,
2033
0000
3100
0010
0002
0000
3103
0010
,
1000
0010
0001
0010
1000
0100
0010
0000
,
0012
0000
1003
0100
0010
0100
0001
0100
,
2000
0001
3020
0001
,
1330
0000
0001
0010
1000
0000
1000
0010
,
0002
0000
0103
0010
1000
0001
2000
0000
,
3001
0010
0100
1000
0100
0010
0001
0100
,
0020
0130
0202
3303
,
1000
0100
0010
0002
0000
0000
0103
0010
,
0200
0000
0320
0000
1030
0001
0010
0000
,
1032
0100
1000
0100
,
1000
0100
1000
0100
,
2003
0100
0001
0100
,
0001
0100
0001
0100
,
3002
0000
0013
0200
0000
1300
0020
0000
,
0130
0002
0000
1003
0200
0000
0310
0000
,
0001
1000
0001
1000
0001
1000
0001
1000
,
0001
1000
0001
1000
0010
0100
0001
1000
;

//---------------dance-single - ----------------
#NOTEDATA:;
#CHARTNAME:;
#STEPSTYPE:dance-single;
#DESCRIPTION:;
#CHARTSTYLE:;
#DIFFICULTY:Medium;
#METER:9;
#RADARVALUES:0.447023,0.571612,0.296804,1.187215,0.000000,369.000000,334.000000,35.000000,140.000000,0.000000,0.000000,0.000000,0.000000,0.000000,0.447023,0.571612,0.296804,1.187215,0.000000,369.000000,334.000000,35.000000,140.000000,0.000000,0.000000,0.000000,0.000000,0.000000;
#CREDIT:Ben Speirs;
#NOTES:
0000
0000
0000
0000
,
0000
0000
0000
0000
,
0000
0000
0000
0000
,
0000
0000
0000
0000
,
0001
0000
0000
0002
0000
0000
0003
0000
,
0100
0000
0000
0200
0000
0000
0300
0000
,
0010
0000
0000
0020
0000
0000
0030
0000
,
2000
0000
0000
3002
0000
0000
1003
0000
,
2000
0000
0000
3200
0000
0000
0300
0000
,
0020
0000
0000
0032
0000
0000
0003
0000
,
2000
0000
0000
3020
0000
0000
0030
0000
,
0100
0000
0001
0000
1000
0100
0010
0000
,
0022
0033
2000
3000
,
2020
3030
0002
0003
,
0202
0303
2000
3000
,
0002
0000
0000
0023
0000
0000
0031
0000
,
0200
0310
2000
3100
,
0020
0031
2000
3010
,
1000
0100
0010
0000
0001
0100
0010
0000
,
0110
0000
0000
1001
,
1000
0002
0203
0320
,
1030
2000
3200
0320
,
0031
0000
1000
0100
0000
0100
1000
0000
,
0001
0000
1000
0000
0010
0100
0001
0000
,
0000
2000
3200
0320
,
0331
0002
0203
0320
,
1330
0000
0001
0010
0000
0010
0001
0000
,
1000
0000
0001
0000
0100
0010
1000
0000
,
1001
0002
0203
2300
,
3200
0302
0023
0230
,
2300
0000
3001
0100
0000
0010
2000
0000
,
3002
0000
0013
0000
0001
1000
0010
0000
,
0100
0000
0100
0020
0000
0000
1030
0000
,
0001
0000
0010
0000
0100
1000
0001
0000
,
1000
0000
0010
0000
0100
0000
0001
0010
,
0100
0000
1000
0001
1000
0001
0100
0000
,
0102
0000
0000
0100
0000
0000
1000
0000
,
0000
2000
0000
0000
0000
0000
3003
0000
,
2000
0000
0000
3200
0000
0000
0320
0000
,
0031
1000
0001
1000
0010
0100
0010
0000
,
2020
0000
0000
0000
3030
0000
0001
0100
,
0000
0000
0001
0000
1000
0100
0010
0000
,
0022
0000
0000
0000
0033
0000
1000
0100
,
0000
0000
1000
0000
0001
0100
0010
0000
,
0220
0000
0000
0000
0330
0000
1000
0001
,
0000
2000
3200
0310
,
0022
0033
0001
1000
,
0001
0000
0100
0000
0010
0100
0010
0000
,
2020
3030
1000
0001
,
0010
0000
0010
0000
0001
1000
0010
0000
,
0100
0100
0010
0010
,
1001
0000
0000
0000
0000
0010
0010
0000
,
2002
0000
3003
0000
1000
0100
0010
0000
,
0011
0110
1100
1010
,
2002
0000
3003
1000
0020
0000
0030
0100
,
0001
1000
0002
0000
0013
0000
0100
1000
,
0002
0203
0310
2002
,
3003
1000
0100
0010
,
0001
0000
1000
0010
1000
0000
0001
0100
,
0010
0000
1000
0000
0100
0010
0001
0000
,
2002
0000
3003
0000
0001
0010
0100
0000
,
1100
0110
0011
0101
,
2002
0000
3003
0001
0200
0000
0310
1000
,
0002
0023
0230
2300
,
3001
1000
0010
0100
,
0001
1000
0001
1000
0010
0100
0001
0000
,
0202
0000
0303
0000
0001
0010
0100
0000
,
2000
0100
3002
0100
,
2003
0000
0000
3001
0200
0000
0300
0010
,
1000
0010
2000
0000
3001
0000
0010
0000
,
0011
1100
1010
0202
,
0303
2000
3002
0203
,
0310
0000
0000
0100
0010
0000
1000
0001
,
1000
0000
0100
0000
0010
0001
1000
0000
,
2020
0000
3030
0000
1000
0100
0010
0000
,
0002
0010
2003
0010
,
3002
0000
0000
1003
0020
0000
0130
0001
,
2000
3200
0320
0032
,
1003
1000
1010
0000
,
0001
0001
0011
0000
,
1000
0100
0010
0001
0000
0000
0000
0000
,
2002
0000
0000
3003
,
0002
0203
0302
0203
,
0302
0203
0302
0203
,
0320
2030
3020
2030
,
3020
2030
3020
2030
,
3002
0023
0032
0023
,
0032
0023
0032
0023
,
0230
2300
3200
2300
,
3200
0000
2300
0000
3200
0000
1300
0001
;

//---------------dance-single - ----------------
#NOTEDATA:;
#CHARTNAME:;
#STEPSTYPE:dance-single;
#DESCRIPTION:;
#CHARTSTYLE:;
#DIFFICULTY:Easy;
#METER:5;
#RADARVALUES:0.232597,0.304860,0.033920,0.339204,0.000000,192.000000,188.000000,4.000000,40.000000,0.000000,0.000000,0.000000,0.000000,0.000000,0.232597,0.304860,0.033920,0.339204,0.000000,192.000000,188.000000,4.000000,40.000000,0.000000,0.000000,0.000000,0.000000,0.000000;
#CREDIT:Ben Speirs;
#NOTES:
0000
0000
0000
0000
,
0000
0000
0000
0000
,
0000
0000
0000
0000
,
0000
0000
0000
0000
,
2000
0000
3000
0000
,
0020
0000
0030
0000
,
0200
0000
0300
0000
,
0002
0003
2000
3000
,
0002
0000
0003
0000
,
0020
0000
0030
0000
,
0200
0000
0300
0000
,
2000
3000
0002
0003
,
0100
0000
0100
0000
,
0010
0000
0010
0000
,
1000
0000
1000
0000
,
0001
0000
0001
0000
,
1000
0100
0010
0000
,
0001
0010
0100
0000
,
1000
0010
0100
0000
,
0001
0000
0000
0000
,
0000
1000
0100
1000
,
0100
0000
0010
0001
,
1000
0000
0001
0000
,
1000
1000
0010
0100
,
0000
0001
0010
0001
,
0010
0000
0100
0100
,
1000
0000
0001
0000
,
1000
0010
0100
0100
,
0000
0001
0100
0001
,
1000
0000
0001
0000
,
0010
0000
0010
0100
,
1000
0000
0001
0000
,
1000
1000
0020
0000
,
0000
0000
0030
0000
,
0100
0100
0010
0000
,
1000
1000
0001
0000
,
0001
0000
0000
0010
0000
0000
0100
0000
,
0000
0200
0000
0000
0000
0000
0300
0000
,
1000
0000
0000
0010
0000
0000
0100
0000
,
0000
0200
0000
0000
0000
0000
0300
0000
,
0002
0000
0000
0003
,
0001
0000
0001
1000
,
2000
0000
0000
3000
,
1000
0000
1000
0100
,
0200
0000
0000
0300
,
0100
0010
0100
0010
,
0001
0000
1000
0000
,
0001
0100
0010
0000
,
1000
0000
0001
0000
,
1000
0100
0010
0000
,
0001
1000
0010
0100
,
0010
0000
0000
0000
,
2002
0000
3003
1000
,
0100
0010
0001
1000
,
0020
0030
0200
0300
,
0010
0020
0030
0000
,
1000
0001
1000
0001
,
0000
1000
0100
0010
,
0001
0000
1000
0000
,
0001
0100
0010
0000
,
2002
0000
3003
0001
,
0010
0100
1000
0001
,
0200
0300
0020
0030
,
0100
0100
0010
0010
,
1000
0000
0001
0000
,
1000
0100
0010
0000
,
2002
0000
3003
0001
,
0001
1000
1000
0010
,
0020
0030
0020
0030
,
0100
0200
0300
0000
,
0001
0010
0100
1000
,
0000
0000
0001
0100
,
0001
0000
1000
0000
,
0001
0010
0100
0000
,
2002
0000
3003
1000
,
1000
0001
0001
0100
,
0200
0300
0200
0300
,
0010
0010
0100
0100
,
0002
0000
0000
0003
,
0001
0000
0001
0000
,
2000
0000
0000
3000
,
1000
0000
0000
0000
,
0020
0000
0000
0000
,
0000
0000
0000
0030
,
0200
0000
0000
0000
,
0000
0000
0000
0300
,
0002
0000
0000
0000
,
0000
0000
0000
0003
,
2000
0000
0000
0000
,
0000
0000
0000
0000
0000
0000
0000
3000
;

//---------------dance-single - ----------------
#NOTEDATA:;
#CHARTNAME:;
#STEPSTYPE:dance-single;
#DESCRIPTION:;
#CHARTSTYLE:;
#DIFFICULTY:Beginner;
#METER:2;
#RADARVALUES:0.113876,0.186562,0.033920,0.000000,0.000000,94.000000,90.000000,4.000000,0.000000,0.000000,0.000000,0.000000,0.000000,0.000000,0.113876,0.186562,0.033920,0.000000,0.000000,94.000000,90.000000,4.000000,0.000000,0.000000,0.000000,0.000000,0.000000,0.000000;
#CREDIT:Ben Speirs;
#NOTES:
0000
0000
0000
0000
,
0000
0000
0000
0000
,
0000
0000
0000
0000
,
0000
0000
0000
0000
,
0001
0000
0000
0000
,
0000
0000
0000
0000
,
1000
0000
0000
0000
,
0000
0000
0000
0000
,
0010
0000
0000
0000
,
0000
0000
0000
0000
,
0010
0000
0000
0000
,
0000
0000
0000
0000
,
1000
0000
1000
0000
,
1000
0000
0000
0000
,
1000
0000
0000
0000
,
0000
0000
0000
0000
,
0001
0000
0001
0000
,
0001
0000
0000
0000
,
0001
0000
0000
0000
,
0000
0000
0000
0000
,
0000
0100
0100
0000
,
0100
0000
0000
0000
,
0010
0000
0000
0000
,
0010
0000
0000
0000
,
0000
1000
1000
0000
,
1000
0000
0000
0000
,
0001
0000
0000
0000
,
0001
0000
0000
0000
,
0000
0001
0001
0000
,
0001
0000
0000
0000
,
0010
0000
0000
0000
,
0010
0000
0000
0000
,
0100
0000
0100
0000
,
0000
0000
0000
0000
,
1000
0000
0000
0000
,
1000
0000
0000
0000
,
1000
0000
0000
0000
,
0000
0000
0000
0000
,
0010
0000
0000
0000
,
0000
0000
0000
0000
,
0100
0000
0100
0000
,
0100
0000
0000
0000
,
0100
0000
0000
0000
,
0100
0000
0000
0000
,
0001
0000
0001
0000
,
0001
0000
0000
0000
,
0001
0000
0000
0000
,
0001
0000
0000
0000
,
1000
0000
0000
0000
,
1000
0000
0000
0000
,
0010
0000
0000
0000
,
0010
0000
0000
0000
,
1001
0000
0000
0000
,
1000
0000
1000
0000
,
1000
0000
0000
0000
,
0010
0010
0000
0000
,
0100
0000
0100
0000
,
0000
0000
0000
0000
,
0010
0000
0010
0000
,
0010
0000
0000
0000
,
1001
0000
0000
0000
,
0001
0000
0001
0000
,
0001
0000
0000
0000
,
0010
0010
0000
0000
,
0010
0000
0000
0000
,
0100
0000
0000
0000
,
1001
0000
0000
0000
,
1000
0000
1000
0000
,
1000
0000
0000
0000
,
0010
0010
0000
0000
,
0100
0000
0100
0000
,
0000
0000
0000
0000
,
0001
0000
0000
0000
,
0001
0000
0000
0000
,
1001
0000
0000
0000
,
1000
0000
1000
0000
,
1000
0000
0000
0000
,
0010
0000
0010
0000
,
0010
0000
0000
0000
,
0100
0000
0000
0000
,
0001
0000
0000
0000
,
1000
0000
0000
0000
,
0010
0000
0000
0000
,
0000
0000
0000
0000
,
0100
0000
0000
0000
,
0000
0000
0000
0000
,
0001
0000
0000
0000
,
0000
0000
0000
0000
,
1000
0000
0000
0000
;

//---------------dance-double - ----------------
#NOTEDATA:;
#CHARTNAME:;
#STEPSTYPE:dance-double;
#DESCRIPTION:;
#CHARTSTYLE:;
#DIFFICULTY:Hard;
#METER:12;
#RADARVALUES:0.596031,0.647827,0.228963,0.915852,0.046641,492.000000,465.000000,27.000000,108.000000,0.000000,0.000000,0.000000,0.000000,0.000000,0.596031,0.647827,0.228963,0.915852,0.046641,492.000000,465.000000,27.000000,108.000000,0.000000,0.000000,0.000000,0.000000,0.000000;
#CREDIT:Ben Speirs;
#NOTES:
// measure 0
00000000
00000000
00000000
00000000
,  // measure 1
00000000
00000000
00000000
00000000
,  // measure 2
00000000
00000000
00000000
00000000
,  // measure 3
00000000
00000000
00000000
00000000
,  // measure 4
00020000
00000000
00000000
00000010
00000000
00000000
00031000
00000000
,  // measure 5
00002000
00000000
00000000
00100000
00000000
00000000
00013000
00000000
,  // measure 6
00020000
00000000
00000000
00030020
00000000
00000000
00000130
00000001
,  // measure 7
00002000
00000000
00003001
00003010
00000000
00000100
00020000
00000000
,  // measure 8
00032000
00030000
00000000
01000000
00000000
00000000
00013000
00000000
,  // measure 9
00020000
00000000
00000000
00000100
00000000
00000000
00031000
00000000
,  // measure 10
00002000
00000000
00000000
02003000
00000000
00000000
03100000
10000000
,  // measure 11
00020000
00000000
10030000
01000000
00010000
00001000
00000020
00000000
,  // measure 12
00000032
00000000
00001003
00000020
00000100
00000000
00002030
00000000
,  // measure 13
00003100
00020000
00001000
00000000
01030000
00000000
00000000
00000000
,  // measure 14
20000000
00000000
30100000
02000000
00000000
03001000
00010000
00100000
,  // measure 15
20000000
00000000
30010000
00100000
00000000
00100000
01000000
00000000
,  // measure 16
23000000
00000000
30010000
02000000
00100000
00000000
03020000
00000000
,  // measure 17
00130000
00002000
00010000
00000000
00003010
00000000
00000001
00000000
,  // measure 18
00001000
00000010
00000100
00000001
00000010
00000100
00010000
00001000
,  // measure 19
00010000
00000000
00000000
00000000
00000000
00001000
01000000
00000000
,  // measure 20
01010000
00000000
20010000
00000000
31000000
00100000
00010000
00000000
,  // measure 21
01000000
00000000
00000000
00000000
01001000
00000000
00000000
00001000
00013000
00000000
01000000
00000000
00010000
00000000
00001000
00000000
,  // measure 22
00000200
00000000
00000310
00002000
00000000
00003100
00020000
00000000
,  // measure 23
00032000
00000000
00103000
00010000
00001000
00000100
00000020
00000000
,  // measure 24
00000031
00000000
00001002
00000000
00000103
00000010
00001000
00000000
,  // measure 25
00000100
00000000
00000000
00000000
00010100
00000000
00000000
00010000
00001000
00000000
00000100
00000000
00001000
00000000
00010000
00000000
,  // measure 26
00200000
00000000
01300000
00020000
00000000
00130000
00002000
00000000
,  // measure 27
00023000
00000000
00030010
00001000
00010000
01000000
00200000
00000000
,  // measure 28
13300000
00000000
12000000
00000000
03100000
00001000
00010000
00000000
,  // measure 29
00000100
00000000
00000000
00000000
00010100
00000000
00000000
00010000
00001000
00000000
00000100
00000000
00000010
00000000
00001000
00000000
,  // measure 30
00000200
00000000
00000310
00000002
00000000
00001003
00000010
00000100
,  // measure 31
00000020
00000000
00001030
00000100
00000001
00000100
00020000
00000000
,  // measure 32
00032000
00000000
01003000
00100000
02000000
00000000
03001000
00000000
,  // measure 33
01000000
00001000
00100000
00010000
01000000
00100000
10000000
00000000
,  // measure 34
00010000
00000000
00110000
00000000
00010000
01000000
00100000
00000000
,  // measure 35
20100000
00000000
30010000
00100000
10000000
00100000
00002000
00000000
,  // measure 36
00023000
00000000
00030010
00000100
00000020
00000000
00002030
00000000
,  // measure 37
00003001
00000010
00000002
00000000
00001003
00000000
00000010
00000000
,  // measure 38
00001000
00000100
00000010
00000001
00000100
00000010
00010000
00001000
,  // measure 39
00100000
01000000
10000000
00010000
01000000
00100000
01000000
00000000
,  // measure 40
20010000
00000000
00100000
00000000
00010000
00000000
01000000
32000000
,  // measure 41
00000000
03000000
00000000
10000000
01000000
00010000
00001000
00000000
,  // measure 42
00012000
00000000
00100000
00000000
01000000
00000000
00013000
00020000
,  // measure 43
00000000
00030000
00000000
00010000
00001000
00000100
00000010
00001000
,  // measure 44
00000002
00000000
00000010
00000000
00001000
00000000
00000103
00000100
,  // measure 45
00000010
00001010
00000101
00000110
,  // measure 46
00002002
00000000
00003003
00000000
00001000
00000000
00000100
00010000
,  // measure 47
00002000
00000000
01003000
00100000
00010000
00100000
20000000
00000000
,  // measure 48
30010000
00000000
00100000
00000000
00001000
00000000
01000000
00001000
,  // measure 49
00020000
00000000
00030010
00000100
00001000
00000100
00000002
00000000
,  // measure 50
00001003
00000100
00000010
00000001
00000100
00000010
00001000
00000100
,  // measure 51
00010000
00000000
00000000
00000000
00000000
00001000
01000000
00000000
,  // measure 52
20010000
00000000
30100000
01000000
00100000
10000000
30010000
00000000
,  // measure 53
10000000
00000000
00000000
10000000
01000000
00000000
00000000
01000000
00010000
00000000
00000000
00010000
00001000
00000000
00000000
00001000
,  // measure 54
00000020
00000003
00000031
00000100
00000020
00000000
00001030
00000010
,  // measure 55
00000001
00000010
00002000
00000000
00003100
00010000
00001000
00000000
,  // measure 56
00011000
00101000
00010010
00021000
,  // measure 57
01030000
00100000
00002000
00000000
00023000
00000000
00030010
00000000
,  // measure 58
00002010
00000030
00003001
00000010
00000200
00000000
00010300
00001000
,  // measure 59
00010000
00001000
00000100
00000010
00001000
00000001
00000010
00000000
,  // measure 60
00001002
00000000
00000103
00000010
00000100
00000001
00001003
00000000
,  // measure 61
00000001
00000000
00000000
00000001
00000010
00000000
00000000
00000010
00001000
00000000
00000000
00001000
00010000
00000000
00000000
00010000
,  // measure 62
02000000
30000000
13000000
00100000
02000000
00000000
03010000
10000000
,  // measure 63
00200000
02300000
03032000
00023000
,  // measure 64
00030100
00000000
00010100
00000000
00010000
00000000
00001000
00010000
,  // measure 65
00031000
01000000
00100000
10000000
01000000
00100000
00010000
00000000
,  // measure 66
00210000
00000000
10300000
00100000
00010000
01000000
00100000
00000000
,  // measure 67
20000000
30020000
00032000
00003002
,  // measure 68
00000103
00000000
00000001
00000010
00001000
00000000
00001000
00000010
,  // measure 69
00000001
00000100
00000020
00000000
00000130
00000001
00001000
00000000
,  // measure 70
00000100
00000100
00010000
00001000
01000000
00000000
00022000
00000000
,  // measure 71
00033000
00000000
00010000
00000100
00000010
00000001
00002000
00000000
,  // measure 72
00003020
00000000
00000130
00001000
00020000
00000000
00031000
00100000
,  // measure 73
00001000
00010000
00000010
00000100
00000001
00001000
00000100
00000000
,  // measure 74
00001200
00000000
00000301
00000100
00001000
00000010
00000100
00000000
,  // measure 75
00000002
00002003
00023000
20030000
,  // measure 76
30100000
00000000
10000000
01000000
00010000
00000000
00010000
01000000
,  // measure 77
20000000
00000000
30200000
00000000
01300000
00010000
10000000
00000000
,  // measure 78
00010000
00100000
01000000
10000000
01000000
00100000
00010000
01000000
,  // measure 79
00002000
00013000
00020200
00030300
,  // measure 80
00010000
00000010
00000100
00000002
00000000
00000000
00000013
00000100
,  // measure 81
00002000
00000000
00003200
00000000
00010330
00001000
02000000
00000000
,  // measure 82
03302000
00100000
00010000
00100000
,  // measure 83
00010000
00100000
00010000
00100000
,  // measure 84
00023000
00000010
00001000
00000010
,  // measure 85
00001000
00000000
00000010
00000000
00001000
00000000
00000010
00000300
,  // measure 86
00032000
00000000
00103000
02000000
00000000
13000000
00200000
00000000
,  // measure 87
01300000
00002000
00000000
00013000
00000200
00000000
00000320
00000000
,  // measure 88
00000031
00001000
00000001
00001000
00000010
00000100
00000010
00000100
,  // measure 89
00001000
00010000
00001000
00010000
01000000
00100000
01000000
00100000
;

//---------------dance-double - ----------------
#NOTEDATA:;
#CHARTNAME:;
#STEPSTYPE:dance-double;
#DESCRIPTION:;
#CHARTSTYLE:;
#DIFFICULTY:Medium;
#METER:9;
#RADARVALUES:0.460349,0.571612,0.228963,1.424659,0.000000,380.000000,353.000000,27.000000,168.000000,0.000000,0.000000,0.000000,0.000000,0.000000,0.460349,0.571612,0.228963,1.424659,0.000000,380.000000,353.000000,27.000000,168.000000,0.000000,0.000000,0.000000,0.000000,0.000000;
#CREDIT:Ben Speirs;
#NOTES:
00000000
00000000
00000000
00000000
,
00000000
00000000
00000000
00000000
,
00000000
00000000
00000000
00000000
,
00000000
00000000
00000000
00000000
,
00002000
00000000
00000000
00200000
00000000
00000000
00303000
00000000
,
00002000
00000000
00000000
00020000
00000000
00000000
00033000
00000000
,
00020000
00000000
00000000
00000020
00000000
00000000
00030030
00000000
,
00000020
00000000
00000000
00030230
00000000
00000000
00002300
00000000
,
00023000
00000000
00000000
00000200
00000000
00000000
00030300
00000000
,
00020000
00000000
00000000
00002000
00000000
00000000
00033000
00000000
,
00002000
00000000
00000000
02000000
00000000
00000000
03003000
00000000
,
02000000
00000000
03200000
00000000
10300000
00010000
10000000
00000000
,
00020000
00030000
00220000
00330000
,
00002000
00003000
00022000
00033000
,
00020000
00030000
00002020
00003030
,
00000002
00000000
00000000
00000023
00000003
00000000
00000230
00000000
,
00001300
00000001
00000100
00000010
,
00010000
00001000
00100000
01000000
,
10000000
01000000
10000000
00000000
00010000
01000000
00010000
00000000
,
10010000
00000000
00000000
00000000
00000000
10000000
00100000
00000000
,
10100000
00020000
00230000
00302000
,
00023000
00030020
00000230
00000302
,
00001003
00000000
00000001
00000010
00000000
00000010
00000100
00000000
,
00001000
00000000
00000001
00001000
00000010
00001000
00000002
00000000
,
00000003
00002000
00003200
00020300
,
00032000
02003000
03200000
20300000
,
30010000
00000000
10000000
01000000
00000000
01000000
00100000
00000000
,
00010000
00000000
10000000
00010000
01000000
00010000
10000000
00000000
,
10010000
20000000
30200000
02300000
,
03002000
00000000
00023000
00000000
02030000
00300000
03020000
00000000
,
00031030
00000000
00010000
00000010
00000000
00000010
00000200
00000000
,
00000302
00000000
00001003
00000100
00000010
00000100
00002000
00000000
,
00003002
00000000
00000103
00000020
00000000
00000000
00010030
00000000
,
00001000
00100000
00010000
00000000
10000000
00000000
00100000
00000000
,
01000000
00000000
00010000
00100000
01000000
00000000
10000000
00010000
,
20000000
00000000
30100000
01000000
00100000
01000000
00002000
00000000
,
00023000
00000000
00000000
00000010
00000000
00000000
00000100
00000000
,
00000000
00002000
00000000
00000000
00000000
00000000
00033000
00000000
,
00002000
00000000
00000000
01000000
00000000
00000000
00100000
00000000
,
00000000
00020000
00000000
00333000
00011000
00000000
00011000
00000000
,
00020200
00000000
00000300
00000000
00030010
00000000
00001000
00000010
,
00000200
00000000
00000301
00000000
00001000
00000100
00010000
00000000
,
00202000
00000000
00300000
00000000
01003000
00000000
00010000
01000000
,
00200000
00000000
10300000
00000000
00010000
00100000
00001000
00000000
,
00022000
00000000
00003000
00000000
00030100
00000000
00001000
00000100
,
00000010
00000002
00000203
00000310
,
00002002
00003003
00001000
00000200
,
00020300
00000000
00032000
00000000
01003000
00100000
02000000
00000000
,
03010000
00100000
01000000
20000000
,
30020000
00000000
00230000
00000000
00301000
00013000
00002000
00000000
,
00013000
00000000
00000010
00000000
00000100
00000001
00001000
00000001
,
00000100
00000000
00000000
00000000
00000000
00000001
00001000
00000000
,
00002002
00000000
00003303
00000002
,
00000203
00002300
00023000
00230000
,
01300000
00000000
00010000
00100000
01000000
00000000
10000000
00100000
,
01000000
00100000
20000000
00000000
30010000
00000000
00100000
00000000
,
00110000
00110000
00101000
00022000
,
00033000
00000020
00000230
00000320
,
00020030
00000000
00031000
00100000
00002000
00000000
00103000
01000000
,
00100000
01000000
00100000
01000000
10000000
00010000
10000000
00000000
,
20020000
00000000
30330000
20000000
,
30200000
00320000
00032000
00003200
,
00000310
00000000
00001000
00000100
00000010
00000000
00000001
00000100
,
00000020
00002030
00003203
00020300
,
00031000
00000000
00001000
00000000
00100000
00000000
00001000
00010000
,
00000010
00000100
00000010
00000100
00000001
00001000
00000001
00000000
,
00000202
00000000
00000303
00001002
,
00000023
00002030
00023000
02030000
,
13000000
00000000
00010000
01000000
00100000
00000000
10000000
01000000
,
00100000
01000000
20000000
00000000
30010000
00000000
00100000
00000000
,
00101000
00011000
00010100
00022000
,
00033000
00002000
02003000
03100000
,
20000000
00000000
30010000
00100000
02000000
00000000
13000000
00010000
,
01000000
00100000
01000000
00100000
10000000
00010000
10000000
00000000
,
20200000
00000000
30300000
20010000
,
32000000
03020000
00032000
00003020
,
00000031
00000000
00001000
00000010
00000200
00000000
00000301
00000010
,
00000200
00020300
00032000
02003000
,
03100000
10000000
00100000
00000000
10000000
01000000
10000000
00000000
,
00020000
00130000
00022000
00033000
,
00010000
00000010
00000100
00000020
00000000
00000000
00001030
00000001
,
00001000
00000000
00000000
00000000
,
00000002
00000023
00000032
00000023
,
00000032
00000023
00000032
00000023
,
00000230
00020300
00030200
00020300
,
00030200
00020300
00030200
00020300
,
00032000
02003000
03002000
02003000
,
03002000
02003000
03002000
02003000
,
03020000
20030000
30020000
20030000
,
30020000
00000000
20030000
00000000
30010000
00100000
01030000
10000000
;

//---------------dance-double - ----------------
#NOTEDATA:;
#CHARTNAME:;
#STEPSTYPE:dance-double;
#DESCRIPTION:;
#CHARTSTYLE:;
#DIFFICULTY:Easy;
#METER:5;
#RADARVALUES:0.247135,0.304860,0.067841,0.296804,0.000000,204.000000,196.000000,8.000000,35.000000,0.000000,0.000000,0.000000,0.000000,0.000000,0.247135,0.304860,0.067841,0.296804,0.000000,204.000000,196.000000,8.000000,35.000000,0.000000,0.000000,0.000000,0.000000,0.000000;
#CREDIT:Ben Speirs;
#NOTES:
00000000
00000000
00000000
00000000
,
00000000
00000000
00000000
00000000
,
00000000
00000000
00000000
00000000
,
00000000
00000000
00000000
00000000
,
00001000
00000000
00000000
00001000
00000000
00000000
00000000
00000000
,
00010000
00000000
00000000
00010000
00000000
00000000
00000000
00000000
,
00001000
00000000
00000000
00001000
00000000
00000000
00000000
00000000
,
00100000
00000000
00001000
00000000
,
00010000
00000000
00000000
00010000
00000000
00000000
00000000
00000000
,
00001000
00000000
00000000
00001000
00000000
00000000
00000000
00000000
,
00010000
00000000
00000000
00010000
00000000
00000000
00000000
00000000
,
00000010
00000000
00010000
00000000
,
00001000
00000000
00100000
00000000
,
01000000
00000000
10000000
00000000
,
00100000
00000000
01000000
00000000
,
00001000
00000000
00001000
00000000
,
00010000
00000000
00000100
00000000
,
00000010
00000000
00000001
00000000
,
00001000
00000010
00000100
00000001
,
00001000
00000000
00000000
00000000
,
00001001
00000000
00000001
00000000
,
00000010
00000001
00001000
00000000
,
00000100
00010000
00001000
00000000
,
01000000
00010000
00100000
00000000
,
00010000
00000000
10000000
00000000
,
00010000
10000000
00100000
00000000
,
01000000
00001000
00010000
00000000
,
00000100
00001000
00000010
00000000
,
00001001
00000000
00001000
00000000
,
00000100
00000100
00010000
00000000
,
00001000
00100000
00010000
00000000
,
10000000
00100000
01000000
00000000
,
00100000
00100000
00100000
00000000
,
10000000
00000000
00010000
00000000
,
00100000
00000000
00100000
00000000
,
00001000
00010000
00001000
00000000
,
00010000
00000000
00000000
00000100
00000000
00000000
00010000
00000000
,
00000000
00002000
00000000
00000000
00000000
00000000
00003000
00000000
,
00001000
00000000
00000000
01000000
00000000
00000000
00001000
00000000
,
00000000
00020000
00000000
00000000
00000000
00000000
00030000
00000000
,
00000200
00000000
00000300
00000010
,
00000001
00000000
00001000
00000000
,
00000020
00000000
00000030
00010000
,
00001000
00000000
00100000
00000000
,
02000000
00000000
03000000
10000000
,
00010000
00000000
01000000
00000000
,
20020000
00000000
30030000
00000000
,
10000000
00100000
01000000
00000000
,
00010000
00100000
00001000
00000000
,
00010000
00000010
00000100
00000000
,
00000010
00001000
00000001
00000010
,
00000100
00000000
00000000
00000000
,
00002002
00000000
00003003
00000001
,
00001000
00000010
00000100
00000010
,
00020000
00030000
00002000
00003000
,
00100000
00200000
00300000
00010000
,
01000000
00100000
10000000
00020000
,
00030000
10000000
01000000
00100000
,
02000000
03000000
20000000
30000000
,
00100000
01000000
00010000
00000000
,
20020000
00000000
30030000
10000000
,
00010000
01000000
00100000
01000000
,
00002000
00003000
00020000
00030000
,
00000100
00000100
00000310
00000010
,
00000001
00000000
00001000
00000000
,
00000001
00000100
00000010
00000000
,
00002002
00000000
00003003
00001000
,
00000100
00010000
00001000
01000000
,
00200000
00300000
00200000
00300000
,
10000000
00020000
00030000
00000000
,
10000000
01000000
00100000
00020000
,
00030000
01000000
01000000
00001000
,
00002000
00003000
00200000
00300000
,
00010000
01000000
00100000
00000000
,
20020000
00000000
30030000
00010000
,
00100000
00001000
00010000
00000010
,
00000200
00000300
00000200
00000300
,
00000001
00000010
00000100
00001000
,
00000010
00000000
00010000
00000000
,
00001000
00000000
00001000
00000000
,
00100000
00000000
01000000
00000000
,
10010000
00000000
00000000
00000000
,
20000000
00000000
00000000
00000000
,
00000000
00000000
30000000
00000000
,
00020000
00000000
00000000
00000000
,
00000000
00000000
00000000
00030000
,
00002000
00000000
00000000
00000000
,
00000000
00000000
00000000
00003000
,
00000002
00000000
00000000
00000000
,
00000000
00000000
00000000
00000000
00000000
00000000
00000000
00000003
;
