#VERSION:0.83;
#TITLE:ずっとサマーで恋してる;
#SUBTITLE:;
#ARTIST:虹のコンキスタドール;
#TITLETRANSLIT:Zutto Summer de Koishiteru;
#SUBTITLETRANSLIT:;
#ARTISTTRANSLIT:Niji no Conquistador;
#GENRE:;
#ORIGIN:;
#CREDIT:;
#BANNER:Zutto Summer de Koishiteru.png;
#BACKGROUND:Zutto Summer do Koishiteru-bg.png;
#PREVIEWVID:;
#JACKET:Zutto Summer de Koishiteru-jacket.png;
#CDIMAGE:;
#DISCIMAGE:;
#LYRICSPATH:;
#CDTITLE:;
#MUSIC:Zutto Summer de Koishiteru.ogg;
#OFFSET:-0.042315;
#SAMPLESTART:74.340370;
#SAMPLELENGTH:16.000000;
#SELECTABLE:YES;
#BPMS:0.000=240.000;
#STOPS:;
#DELAYS:;
#WARPS:;
#TIMESIGNATURES:0.000=4=4;
#TICKCOUNTS:0.000=4;
#COMBOS:0.000=1;
#SPEEDS:0.000=1.000=0.000=0;
#SCROLLS:0.000=1.000;
#FAKES:;
#LABELS:0.000=Song Start;
#BGCHANGES:;
#KEYSOUNDS:;
#ATTACKS:
;

//---------------dance-single - ----------------
#NOTEDATA:;
#CHARTNAME:;
#STEPSTYPE:dance-single;
#DESCRIPTION:;
#CHARTSTYLE:;
#DIFFICULTY:Hard;
#METER:16;
#RADARVALUES:0.766342,0.926249,0.295914,0.857392,0.041731,707.000000,668.000000,39.000000,113.000000,0.000000,0.000000,0.000000,0.000000,0.000000,0.766342,0.926249,0.295914,0.857392,0.041731,707.000000,668.000000,39.000000,113.000000,0.000000,0.000000,0.000000,0.000000,0.000000;
#CREDIT:nobarben;
#NOTES:
0000
0000
0000
0000
,
0000
0000
0000
0000
,
0000
0000
0000
0000
,
0000
0000
0000
0000
,
0000
0000
0000
0000
,
0000
0000
0000
0000
,
0000
0000
0000
0000
,
1001
0000
0000
0000
,
1000
0000
0001
0100
0001
0000
1000
0000
0100
0000
0010
0000
0100
0000
0010
0000
,
0001
0000
0100
0000
0110
0000
0010
1000
,
0001
1000
0000
0100
0000
0010
0001
0000
,
1000
0000
0010
0000
0110
0000
1000
0001
,
1000
0100
0000
0010
0000
0001
1000
0000
,
0001
0000
0010
0000
0110
0000
0001
1000
,
0001
0100
0000
0010
0000
1000
0001
0000
,
0001
0010
0100
1000
0000
0010
0000
0210
,
0000
0301
0000
1002
0000
0000
0103
0000
,
0010
0000
1000
0000
0101
0000
0010
1000
,
0001
0010
0000
0110
0000
1000
0001
0000
,
0010
0000
0001
0000
1100
0000
0001
1000
,
0010
0100
0000
0110
0000
1000
0001
0000
,
1000
0010
0100
0010
1000
0010
0100
0010
,
1000
0100
0010
0001
1000
0010
0100
0001
,
1000
0000
0001
0010
0001
0000
0010
0000
0100
0000
1000
0000
0001
0000
0100
0000
,
0000
0000
0000
0000
0000
0000
0010
1000
,
0000
1000
0100
1000
0001
0000
0010
0100
,
2000
3020
0230
0302
,
2003
0000
3001
0010
0200
0000
0310
0002
,
0000
1003
0010
0100
0001
0000
0010
0100
,
0000
0010
0001
0010
0100
0010
0000
0001
,
0200
0320
2030
3002
,
0023
0000
0130
1000
0002
0000
1003
0010
,
0000
0010
0100
0000
0001
0010
0100
1000
,
0002
0000
1003
0100
0002
0000
0103
1000
,
0020
0000
0130
0002
0000
1003
0001
0010
,
0000
0010
0100
1000
0001
0000
0100
0020
,
0000
1030
0001
0000
2000
0000
3100
0010
,
0000
0010
0100
0010
0100
0010
0000
0010
,
0002
2003
3020
0230
,
0301
0010
0100
1000
0001
0100
0010
1000
,
0200
0000
0010
0000
0010
0000
0310
0001
,
0000
1000
0010
0100
0010
1000
0000
1000
,
0002
0023
0230
2300
,
3002
0000
0103
0010
2000
0000
3100
0010
,
0000
0010
1000
0010
0001
0000
1000
0010
,
0000
0010
0100
0010
0100
2000
0000
3100
,
0002
2003
3200
0320
,
0032
0000
1003
0010
0200
0000
0310
1000
,
0000
0000
0000
0000
0001
0000
0100
0001
0100
0000
0001
0000
0100
0000
0001
0000
,
2000
0000
3001
0010
2000
0000
3010
0001
,
0200
0000
0310
1000
0000
0001
0100
0010
,
0000
0010
1000
0100
0010
0000
0001
1000
,
0000
1000
0001
0000
1000
0100
1000
0010
,
0000
0010
0100
0000
1000
0000
0100
0001
,
0010
0000
0110
0000
1000
0000
0001
0100
,
0020
0000
1030
0100
0000
1000
0001
0000
,
0100
0000
0010
1000
0010
0000
0100
0000
0001
0000
0010
0000
0100
0000
1000
0000
,
0001
0000
1000
0100
0010
0100
1000
0000
,
0010
0000
0100
0001
0000
1000
0001
0010
,
0000
0010
0001
0100
0010
0100
0001
0000
,
1000
0000
0010
0100
0000
0001
0010
0100
,
0000
0100
1000
0000
0001
0000
1000
0010
,
0000
0010
0100
0000
0001
0000
1000
0000
,
0001
0100
0001
0020
0000
0130
1000
0200
,
0000
1300
0010
0200
0000
0310
1000
0000
,
0001
0100
0010
0100
1000
0100
0010
1000
,
0000
1000
0100
0010
0001
1000
0010
0000
,
0100
0001
0100
0001
0010
0001
0100
0010
,
0000
0010
1000
0000
0001
0010
0100
1000
,
0010
0101
0010
1100
,
0001
1010
0100
0011
,
1000
0100
1000
0010
0000
1000
0100
1000
,
0001
0100
0001
0010
0000
0100
0010
0000
,
0001
0100
0010
1000
0001
0010
0100
1000
,
1001
0000
0000
2000
0000
0000
3200
0000
,
0320
0000
0031
2000
0000
3020
0000
0032
,
0000
0013
0100
0002
0000
1003
0002
0000
,
0023
0000
0130
2000
0000
3001
0000
0020
,
0000
0130
0010
0001
2000
0000
3020
0000
,
0230
0000
0301
2000
0000
3200
0000
0302
,
0000
0103
0010
0200
0000
1300
0010
0000
,
0001
0010
0100
0020
0000
1030
0000
2100
,
0000
3001
0000
1002
0000
0000
0103
0000
,
0110
0000
0010
1000
0001
1000
0100
1000
,
0001
0010
0000
0200
0000
0310
0001
2000
,
0000
3001
0100
0010
0100
0001
0100
0010
,
1000
0001
0000
0020
0000
0130
0010
0000
,
0110
0000
1000
0100
0010
0100
2000
0000
,
3020
0000
0130
0002
0000
1003
0200
0000
,
0302
0000
0103
0020
0000
0031
0100
0000
,
0101
0000
0100
0020
0000
0000
1030
0000
,
1002
0000
1003
0200
0000
0310
0000
0012
,
0000
1003
0010
0200
0000
1300
0100
0000
,
0102
0000
0013
0100
0000
1000
0000
0102
,
0000
1003
0010
0000
2000
0000
3100
0000
,
0021
0000
0130
0020
0000
1030
0000
0210
,
0000
1300
0010
0200
0000
1300
0100
0000
,
0201
0000
0310
1000
0000
0001
0000
0021
,
0000
0130
0010
0000
0002
0000
0023
0000
,
0031
0100
0010
0100
0001
0100
0010
1000
,
0100
0000
0010
0100
1000
0000
0001
0000
0100
0000
0010
0000
1000
0000
0001
0000
,
1001
0000
0000
0000
,
0000
0000
0000
0000
0000
0000
0001
0100
0001
0100
0001
1000
,
0100
0000
0000
0000
,
0010
0000
0001
1000
0001
0000
1000
0000
0010
0000
0100
0000
0010
0000
0100
0000
,
0001
0000
0011
0000
0010
0100
0000
0100
,
1000
0000
1000
0001
0000
0001
0100
0000
,
0010
1000
0001
0010
1000
0000
0010
0001
,
0100
1000
0000
0100
0020
0000
0030
0000
,
2000
0000
3200
0000
0302
0000
0103
2000
,
0000
3020
0000
0032
0000
0000
0013
0000
,
2000
0000
3200
0000
0320
0000
1030
0002
,
0000
0203
0000
2300
0000
0000
3010
0000
,
0110
0000
0100
0001
0000
0001
0010
0000
,
0010
1000
0000
1000
0001
0000
0001
0100
,
1000
0010
0000
0210
0000
0301
0000
1002
,
0000
0013
0100
0000
1100
0000
0101
0000
,
1000
0010
0100
0010
1000
0001
0010
0100
,
1000
0100
0001
0100
0010
0001
0100
0010
,
0001
0010
0001
0010
1000
0010
1000
0010
,
0100
1000
0001
0010
1000
0001
0010
0100
,
0010
0100
0000
0020
0000
0031
0100
0001
,
0000
2000
0000
3010
0100
0010
0001
0010
,
1000
0010
0000
0200
0000
0310
1000
0100
,
0000
0020
0000
0130
0010
0001
0010
0100
,
1000
0000
0000
0000
,
0001
0000
0100
0010
1000
0000
0001
0000
0010
0000
0100
0000
0010
0000
0001
0000
,
0011
0000
1000
1100
0000
0001
0202
0000
,
0000
0000
0303
0000
;

//---------------dance-single - ----------------
#NOTEDATA:;
#CHARTNAME:;
#STEPSTYPE:dance-single;
#DESCRIPTION:;
#CHARTSTYLE:;
#DIFFICULTY:Medium;
#METER:13;
#RADARVALUES:0.551723,0.682499,0.159338,0.569066,0.000000,509.000000,488.000000,21.000000,75.000000,0.000000,0.000000,0.000000,0.000000,0.000000,0.551723,0.682499,0.159338,0.569066,0.000000,509.000000,488.000000,21.000000,75.000000,0.000000,0.000000,0.000000,0.000000,0.000000;
#CREDIT:nobarben;
#NOTES:
0000
0000
0000
0000
,
0000
0000
0000
0000
,
0000
0000
0000
0000
,
0000
0000
0000
0000
,
0000
0000
0000
0000
,
0000
0000
0000
0000
,
0000
0000
0000
0000
,
0110
0000
0000
0000
,
1000
0001
1000
0001
1000
0000
0000
0000
,
0001
0100
0100
0010
,
1000
0001
0000
1000
0000
0000
0100
0000
,
0010
0100
0100
1000
,
0001
0100
0000
0010
0000
0000
0100
0000
,
0001
0010
0010
0100
,
1000
0001
0000
1000
0000
0000
0010
0000
,
0100
0001
0100
0001
0000
1000
0000
0200
,
0000
0010
0000
0320
0000
0000
0000
0000
,
0031
0100
0100
0010
,
1000
0001
0000
0010
0000
0000
0100
0000
,
0010
0001
0001
1000
,
0010
0100
0000
1000
0000
0000
0100
0000
,
0001
0100
0001
0000
0100
0010
0100
0000
,
0010
1000
0010
0000
1000
0001
1000
0000
,
0001
1000
0001
1000
0001
1000
0001
1000
,
0000
0000
0000
0000
,
0001
0100
1000
0100
,
0001
0010
0100
1000
,
0002
0000
0000
1003
0020
0000
0000
0130
,
0000
0001
1000
0000
0100
0000
0100
0000
,
1000
0100
0001
0100
,
1000
0010
0100
0001
,
0020
0000
0000
0130
2000
0000
0000
3001
,
0000
0100
0001
0000
0100
0010
0100
0000
,
0020
1030
0200
1300
,
0020
0000
0130
0001
0000
0000
0000
1000
,
0000
0001
0010
0000
0100
0000
1000
0001
,
0000
0000
0100
0100
,
0010
0000
1000
0000
0100
0010
0100
0000
,
0010
0000
0001
0000
0100
0010
0100
0000
,
0001
1000
0001
1000
0000
0001
0100
0000
,
0110
0000
0000
0000
0000
0000
0000
1000
,
0000
0001
0100
0000
0001
0100
0000
0001
,
0010
0100
1000
0001
,
0200
0000
0000
0310
2000
0000
3000
0002
,
0000
0013
0100
0010
0100
0000
1000
0010
,
0000
1000
0100
1000
0200
0000
0000
0310
,
0001
1000
0010
0100
,
0020
0000
0000
1030
0002
0000
0000
0000
,
0013
0000
0010
0000
0100
1000
0100
0000
,
0020
0031
0200
0301
,
0020
0000
0130
1000
0000
0000
0000
0001
,
0000
0100
0001
0100
0010
0000
1000
0001
,
0000
0000
0000
0000
1000
0000
0100
0010
,
0000
0000
0001
0000
0010
0000
0001
1000
,
0010
0001
0010
1000
,
0002
0000
0013
0100
0000
1000
0001
0000
,
1001
0000
0001
0100
,
0020
1030
0020
0031
,
0020
0000
1030
0001
0000
0010
0000
0100
,
0000
0100
0010
0000
1000
0000
0010
0000
,
0001
0000
0010
0100
0000
0000
0000
0200
,
0000
1300
0010
0000
0100
0000
0010
2000
,
0000
3100
0010
0000
0001
0000
1000
0000
,
0020
0000
0000
0230
0000
0000
0000
0302
,
0000
0000
0000
2003
0000
0000
0000
0000
,
3001
0000
0010
0000
0100
0000
1000
0010
,
0000
0100
0001
1000
,
0100
0000
0100
0000
0010
0000
0001
0200
,
0000
0000
0310
1000
,
0001
0101
1000
1100
,
0001
0101
1000
1100
,
0002
0000
0000
0203
0000
0000
0310
0000
,
2000
0000
0000
3200
0000
0000
0310
0000
,
0001
1000
0001
1000
0001
1000
0001
1000
,
0010
0000
0000
0200
0000
0000
0310
0000
,
2000
0000
0000
3100
0000
0010
0000
0002
,
0000
0000
0000
2003
0000
0000
3001
0000
,
0200
0000
0310
1000
0000
0100
0000
0020
,
0000
0030
0100
0010
,
0002
0000
0000
1003
0000
0010
0000
0200
,
0000
0000
0300
0020
0000
0000
1030
0000
,
0001
0000
0010
0100
0000
1000
0000
0002
,
0000
0000
0000
2003
0000
0000
3010
0000
,
0100
0000
0010
1000
0010
0000
1000
0000
,
0100
1000
0000
0002
0000
0003
0000
0010
,
0000
0100
0010
0001
0010
0000
0001
0000
,
0100
0010
0000
2000
0000
0000
3001
0000
,
0020
0100
0130
1000
,
0020
0000
0000
0230
0000
0000
0301
0000
,
0020
0000
0000
0230
0000
0000
1300
0000
,
2001
0000
0000
3020
0000
0000
0130
0000
,
0102
0000
0000
1003
0000
0100
0000
0120
,
0000
0000
0000
0032
0000
0000
1003
0000
,
0001
0000
0100
1000
0000
0100
0000
0002
,
0000
0003
0010
0100
,
0210
0000
0000
1300
0000
0010
0000
0210
,
0000
0000
0000
0302
0000
0000
0013
0000
,
0002
0000
0103
0010
0000
1000
0000
0002
,
0000
0003
1000
0100
,
0001
0000
0100
0000
1000
0000
0100
0002
,
0000
0103
1000
0010
,
0110
0000
1000
0000
0001
0000
1000
0020
,
0000
0031
0010
0100
,
0110
0000
0001
0000
1000
0000
0001
0020
,
0000
1030
0010
0001
,
1000
0000
0001
0000
1000
0010
0000
1000
,
0010
0000
0100
0001
0000
0100
0001
0000
,
0010
0100
0010
0100
0010
0000
0100
0000
,
1000
0001
0000
1000
0010
0000
0000
0000
,
1000
0000
0100
0000
0010
0000
0100
1000
,
0000
0100
0000
0020
0000
0000
0130
0000
,
1000
0000
0010
0000
0100
0000
0001
0010
,
0000
0100
0000
2000
0000
0000
3001
0000
,
1000
0000
0001
0100
0000
0001
0100
0000
,
0010
1000
0000
0010
1000
0000
0010
1000
,
0001
0010
0000
0100
0000
0010
0000
0002
,
0000
0103
0010
1000
,
0001
0100
0001
0000
0100
0010
1000
0000
,
0001
1000
0001
0000
1000
0100
0010
0000
,
0001
1000
0010
0000
0100
0001
0010
0000
,
0100
0010
0001
0000
0100
0010
1000
0000
,
0001
0000
0000
0012
0000
0000
1003
0000
,
0000
2010
0000
0000
3001
0000
0100
0000
,
0010
0000
0000
0102
0000
0000
0013
0000
,
0000
2100
0000
0000
3010
0000
0010
0000
,
1000
0000
0100
0000
0001
0000
0100
2000
,
0000
3001
0100
0010
,
1010
0000
0000
0101
0000
0000
2200
0000
,
0000
0000
3300
0000
;

//---------------dance-single - JA XO FS SJ----------------
#NOTEDATA:;
#CHARTNAME:;
#STEPSTYPE:dance-single;
#DESCRIPTION:JA XO FS SJ;
#CHARTSTYLE:;
#DIFFICULTY:Challenge;
#METER:18;
#RADARVALUES:0.982045,1.169999,0.940855,0.523540,0.083463,906.000000,782.000000,124.000000,69.000000,0.000000,0.000000,0.000000,0.000000,0.000000,0.982045,1.169999,0.940855,0.523540,0.083463,906.000000,782.000000,124.000000,69.000000,0.000000,0.000000,0.000000,0.000000,0.000000;
#CREDIT:nobarben;
#NOTES:
// measure 0
0000
0000
0000
0000
,  // measure 1
0000
0000
0000
0000
,  // measure 2
0000
0000
0000
0000
,  // measure 3
0000
0000
0000
0000
,  // measure 4
0000
0000
0000
0000
,  // measure 5
0000
0000
0000
0000
,  // measure 6
0000
0000
0000
0000
,  // measure 7
1001
0000
0000
0000
,  // measure 8
0001
0000
0010
0100
1000
0000
0001
0000
0100
0000
0100
0000
0010
0000
0010
0000
,  // measure 9
1000
0000
0001
0010
1000
0010
0001
1000
,  // measure 10
0010
0010
0000
0110
0000
1000
0001
0000
,  // measure 11
0010
0000
0001
0100
1000
0100
0001
1000
,  // measure 12
0100
0100
0000
0110
0000
0001
1000
0000
,  // measure 13
0010
0000
1000
0100
0001
0100
1000
0001
,  // measure 14
0100
0100
0000
0110
0000
1000
0001
0000
,  // measure 15
0011
0010
0100
2100
0000
3010
0000
0012
,  // measure 16
0000
0103
0000
1002
0000
0100
0203
0000
,  // measure 17
2300
0000
3100
0001
0010
1000
0010
0001
,  // measure 18
1000
1000
0000
1010
0000
1000
0200
0000
,  // measure 19
0301
0000
0100
1000
0010
0001
0010
0100
,  // measure 20
0001
0001
0000
0011
0000
0001
0200
0000
,  // measure 21
1300
0100
0001
0100
1000
0100
0001
0010
,  // measure 22
1000
0010
0001
0010
1000
0010
0001
0100
,  // measure 23
0010
0000
1000
0100
0010
0000
0010
0000
0001
0000
0001
0000
1000
0000
1000
0000
,  // measure 24
0020
0032
2003
3200
0302
0013
0110
0000
,  // measure 25
1000
0100
1000
0100
0001
0100
0001
0100
,  // measure 26
1000
1000
0010
0010
0100
0100
0001
0001
,  // measure 27
1000
1000
0010
0100
0100
0010
1000
0002
,  // measure 28
0000
0013
0100
0010
0001
0100
0010
1000
,  // measure 29
0001
0100
0001
0100
1000
0100
1000
0100
,  // measure 30
0001
0001
0010
0010
0100
0100
1000
1000
,  // measure 31
0001
0001
0100
0010
0010
0100
0001
2000
,  // measure 32
0000
3100
0010
0100
1000
1000
0010
0010
,  // measure 33
0100
0100
0001
0010
0100
0100
1000
0010
,  // measure 34
0100
0100
0001
0020
0000
0130
1000
0001
,  // measure 35
0000
0001
0010
0010
0100
0100
1000
0002
,  // measure 36
0000
1003
0010
0000
0100
0100
0001
0001
,  // measure 37
1000
0100
0010
1000
0010
0100
1000
0001
,  // measure 38
0100
0100
0010
0010
1000
1000
0001
0001
,  // measure 39
0020
0100
0130
1000
0001
0100
0110
0000
,  // measure 40
2001
0001
3001
1100
,  // measure 41
0001
0010
0001
0010
1000
0010
1000
0010
,  // measure 42
0001
0001
0100
0100
0010
0010
1000
1000
,  // measure 43
0001
0001
0010
1000
1000
0010
0100
2000
,  // measure 44
0000
3010
0001
0010
1000
0001
0010
0100
,  // measure 45
1000
0100
1000
0100
0001
0100
0001
0100
,  // measure 46
1000
1000
0010
0010
0100
0100
0001
0001
,  // measure 47
1000
1000
0100
0001
0001
0100
0010
0002
,  // measure 48
0000
0000
0103
0000
1000
0000
0100
0001
1000
0000
1000
0000
0100
0000
0100
0000
,  // measure 49
0010
0010
0001
0100
0010
0010
1000
0100
,  // measure 50
0010
0010
0001
2000
0000
3001
0100
0010
,  // measure 51
0000
0010
1000
1000
0100
0100
0010
0001
,  // measure 52
0000
0001
1000
0000
0001
0100
0010
1000
,  // measure 53
0001
0100
0010
0100
1000
0100
0010
0100
,  // measure 54
0001
0001
1000
1000
0100
0100
0010
0010
,  // measure 55
0002
0010
0013
2000
0010
3010
0002
0100
,  // measure 56
0103
0000
0010
1000
0001
0000
0100
0000
0001
0000
0010
0000
0100
0000
1000
0000
,  // measure 57
0001
0000
1000
0010
0001
0010
0100
0000
,  // measure 58
0020
0000
1000
1000
0000
0100
0130
0002
,  // measure 59
0000
0013
0001
0010
1000
0010
0100
0000
,  // measure 60
0020
0000
0001
0001
0000
0100
0130
2000
,  // measure 61
0000
3100
0010
0100
0001
0100
1000
0002
,  // measure 62
0000
0103
0010
0100
1000
0100
0001
0000
,  // measure 63
2000
0010
3010
0200
0000
1000
1300
0200
,  // measure 64
0000
0001
0301
0020
0000
0100
0130
0000
,  // measure 65
1000
1000
0100
0100
0010
0010
0001
2000
,  // measure 66
0000
3010
0100
0100
0001
0001
1000
0000
,  // measure 67
0100
0100
0010
0010
1000
1000
0010
0002
,  // measure 68
0000
1003
0010
0000
0100
0100
0001
0001
,  // measure 69
1000
0100
0110
0000
0001
0100
0110
0000
,  // measure 70
1000
0001
0011
0000
0001
1000
1010
0000
,  // measure 71
1000
0100
0100
0001
0010
0010
1000
0001
,  // measure 72
1000
0010
0010
0001
0100
0100
1000
0001
,  // measure 73
1000
0010
0001
0010
1000
0100
0001
0100
,  // measure 74
0110
0000
0000
0100
1000
0000
1000
0000
0001
0000
0001
0000
0100
0000
0100
0000
,  // measure 75
0110
0000
1000
1010
0000
0110
0000
0102
,  // measure 76
0000
1003
0100
0120
0000
0031
0011
0000
,  // measure 77
0201
0000
0310
1010
0000
1100
0000
0102
,  // measure 78
0000
1000
1003
0000
1100
0000
0101
0000
,  // measure 79
0021
0000
0130
0110
0000
0011
0000
2001
,  // measure 80
0000
3001
0100
0120
0000
1030
1010
0000
,  // measure 81
0101
0010
1000
1100
0000
0101
0000
0011
,  // measure 82
0000
1010
0000
2001
0000
0000
3010
0000
,  // measure 83
0101
0000
0001
0100
0100
1000
0010
0001
,  // measure 84
0010
0100
0000
0110
0000
1000
0100
1100
,  // measure 85
0000
0100
1000
0100
0100
0001
0010
1000
,  // measure 86
0010
0100
0000
0110
0000
1000
0001
0000
,  // measure 87
0201
0000
1300
0100
0001
1000
0100
0010
,  // measure 88
0002
0010
0013
2000
0010
3010
0001
1000
,  // measure 89
0010
0000
0100
0010
0100
0000
1000
0000
0100
0000
0100
0000
0001
0000
1000
0000
,  // measure 90
1001
0000
0010
0210
0000
0000
0310
0000
,  // measure 91
1001
0000
0001
0101
0000
0110
0000
2010
,  // measure 92
0000
3001
0010
0120
0000
0031
1001
0000
,  // measure 93
0201
0000
0310
1010
0000
1100
0000
1002
,  // measure 94
0000
0010
0013
0000
0110
0000
0011
0000
,  // measure 95
2001
0000
3010
0110
0000
0101
0000
2001
,  // measure 96
0000
3100
0010
0012
0000
1003
1001
0000
,  // measure 97
0201
0000
0310
0110
0000
1010
0000
1002
,  // measure 98
0000
0010
0013
0000
1100
0000
0101
0000
,  // measure 99
0101
0100
0110
0010
1010
1000
1001
0001
,  // measure 100
0011
0000
0010
0100
1000
0000
0001
0000
0100
0000
1000
0000
0100
0000
0001
0000
,  // measure 101
1001
0000
0000
0000
,  // measure 102
0000
0000
0000
0000
0000
0000
1000
0100
0010
0001
0100
0010
,  // measure 103
1000
0000
0000
0000
,  // measure 104
0001
0000
0010
0001
0100
0000
0010
0000
1000
0000
1000
0000
0001
0000
0001
0000
,  // measure 105
1001
0000
0002
0000
1003
0010
0010
0001
,  // measure 106
0100
0100
1000
0100
0100
0001
0020
0000
,  // measure 107
1030
0010
0001
0100
2000
0000
3001
0010
,  // measure 108
1000
0200
0000
0010
0310
0000
0001
0000
,  // measure 109
1100
0000
0101
0000
0011
0000
1000
1100
,  // measure 110
0000
0101
0000
0021
0000
0000
0130
0000
,  // measure 111
1100
0000
1010
0000
0110
0000
0101
0011
,  // measure 112
0000
0110
0000
2100
0000
0000
3001
0000
,  // measure 113
0001
0010
0010
1000
0100
0100
0001
0100
,  // measure 114
0100
1000
0010
0010
0001
0100
0010
1000
,  // measure 115
0100
0110
0000
1001
0000
0110
0000
1002
,  // measure 116
0000
0013
1100
0000
0101
0000
0011
0000
,  // measure 117
1100
0100
0110
0010
0011
0001
1000
0001
,  // measure 118
0101
0100
0110
0010
1010
1000
0001
0010
,  // measure 119
0110
0100
0001
0100
0110
0010
0001
0100
,  // measure 120
0110
0000
0010
0000
0001
0000
0010
0000
0110
0000
0100
0001
1000
0001
1000
0001
,  // measure 121
0010
0100
0000
1200
0000
1300
1010
0010
,  // measure 122
0000
0201
0000
0301
0011
0010
0100
0010
,  // measure 123
0011
0001
0000
0102
0000
0103
0110
0010
,  // measure 124
0000
2010
0000
3100
0110
0001
0100
0010
,  // measure 125
0110
0000
0000
0000
,  // measure 126
0010
0000
0000
0000
0000
0000
1000
0000
0000
0100
0000
0000
0010
0000
0000
0000
0001
0000
0000
0000
0100
0000
0000
0000
0010
0000
0000
0000
1000
0000
0000
0000
0100
0000
0000
0000
0010
0000
0000
0000
0001
0000
0000
0000
1000
0000
0000
0000
,  // measure 127
1010
1000
0001
0011
0001
1000
2200
0000
,  // measure 128
0000
0000
3300
0000
;
