#TITLE:ZZ;
#SUBTITLE:;
#ARTIST:D.J.Amuro;
#TITLETRANSLIT:;
#SUBTITLETRANSLIT:;
#ARTISTTRANSLIT:;
#GENRE:;
#CREDIT:;
#MUSIC:ZZ.ogg;
#BANNER:ZZ.png;
#BACKGROUND:ZZ-bg.png;
#CDTITLE:;
#SAMPLESTART:64.410;
#SAMPLELENGTH:12.468;
#SELECTABLE:YES;
#OFFSET:-0.514;
#BPMS:0.000=154.000;
#STOPS:;
#BGCHANGES:;
#FGCHANGES:;

//--------------- dance-single - ----------------
#NOTES:
     dance-single:
     :
     Beginner:
     4:
     0,0,0,0,0:
0000
0000
0000
0000
,
0000
0000
0000
0000
,
0000
0000
0000
0000
,
0000
0000
0000
0000
,
1000
0000
0000
1000
,
0001
0000
0000
0001
,
0100
0000
0000
0100
,
0010
0000
1000
0000
,
1001
0000
0000
0000
,
0001
0000
0000
0000
,
0010
0000
0000
0000
,
0100
0000
1000
0000
,
0001
0000
0000
0000
,
0100
0000
0000
0000
,
0010
0000
0000
0000
,
1000
0000
0001
0000
,
1001
0000
0000
0000
,
1000
0000
0000
0000
,
0100
0000
0000
0000
,
0010
0000
0001
0000
,
1001
0000
0000
0000
,
1000
0000
0000
0000
,
0010
0000
0000
0000
,
0100
0000
0001
0000
,
1000
0000
1000
0000
,
0001
0000
0000
0000
,
0010
0000
0000
0000
,
0100
0000
0100
0000
,
1000
0000
0001
0000
,
0100
0000
0000
0000
,
0010
0000
0000
0000
,
1000
0000
1000
0000
,
0001
0000
0000
0000
,
0110
0000
0000
0000
,
1000
0000
1000
0000
,
0001
0000
0001
0000
,
0100
0000
0100
0000
,
0010
0000
0000
0000
,
1000
0000
0100
0000
,
1000
0000
0001
0000
,
0100
0000
0000
0100
,
0010
0000
0000
0010
,
1000
0000
0000
1000
,
0001
0000
0000
0000
,
0010
0000
0100
0000
,
0110
0000
0000
0010
,
0001
0000
0000
0001
,
0100
0000
0000
0100
,
0010
0000
1000
0001
,
1001
0000
0000
1000
,
0100
0000
0000
0100
,
0010
0000
0000
0010
,
0001
0000
1000
0010
,
1001
0000
0000
0001
,
0010
0000
0000
0100
,
0010
0000
0000
0100
,
1000
0000
0001
0100
,
0010
0000
0000
0000
,
1000
0000
0000
0000
,
0001
0000
0000
0000
,
0010
0000
0100
0000
,
1000
0000
0001
0100
,
0001
0000
1000
0100
,
1000
0000
0010
0100
,
0010
0000
1000
0000
,
0001
0000
0000
1000
0000
0000
0010
0000
,
0000
0000
0000
1001
0000
0000
0000
0000
;

//--------------- dance-single - ----------------
#NOTES:
     dance-single:
     :
     Easy:
     8:
     0,0,0,0,0:
0000
0000
0000
0000
,
0000
0000
0000
0000
,
0000
0000
0000
0000
,
0000
0000
0000
0000
,
0002
0000
0000
0003
,
0200
0000
0000
0300
,
0020
0000
0000
0030
,
2000
3000
0002
0003
,
1001
0000
0001
0100
,
0010
0000
1000
0100
,
0010
0000
0100
1000
,
0001
0100
0010
1000
,
0001
0000
1000
0100
,
0010
0000
0001
0010
,
0100
0000
1000
0001
,
0100
0000
0010
0010
,
1000
0100
0010
0001
,
1000
0010
0100
0001
,
1000
0100
0010
0001
,
0100
0000
0010
1000
,
0001
0010
0100
1000
,
0001
0100
0010
1000
,
0001
0010
0100
1000
,
0001
0000
0100
0010
,
1000
0000
0000
0001
0000
0000
1000
0000
,
0001
0000
0100
0000
,
0010
1000
0001
0010
,
0100
0100
0100
0000
,
1000
0001
0100
0000
,
0110
0000
0010
1000
,
0001
0010
0001
1000
,
0010
0010
0010
0000
,
0100
0001
1000
1000
,
0100
0010
0100
1000
,
0010
0100
0010
1000
,
0001
0010
0100
0010
,
0001
0100
0010
0100
,
0001
0000
1000
0100
,
0010
0001
1000
0010
,
0100
0001
1000
0000
,
0100
0000
0000
0100
0000
0000
0010
0000
,
0001
0100
0010
1000
,
0001
0010
0100
1000
,
0001
0100
0010
1000
,
0001
0001
1000
0010
,
1000
0100
0010
0001
,
1000
0010
0100
0001
,
1000
0100
0010
0001
,
1000
0000
0010
0100
,
0001
0000
0010
0000
0100
1000
0100
0000
,
0010
0000
0001
0000
1000
0001
1000
0000
,
0010
0000
0100
0000
0001
0100
0001
0000
,
1000
0100
0010
0001
,
0100
0000
0010
0000
1000
0001
1000
0000
,
0100
0000
0010
0000
0001
1000
0001
0000
,
0100
0000
0010
0000
1000
0100
1000
0000
,
0001
0100
0010
0010
,
2002
3003
0000
2000
,
3002
0000
0203
0000
,
0320
0000
2030
0000
,
3001
0000
0001
0000
1000
0001
1000
0000
,
0100
0000
0010
0000
0001
0100
0001
0000
,
0100
0000
0010
0000
1000
0100
1000
0000
,
0010
0000
0100
0000
0001
1000
0001
0000
,
0010
0000
0100
0000
1000
0001
1000
0000
,
0010
0000
0000
0100
0000
0000
0110
0000
,
0000
0000
0000
2002
0000
0000
3003
0000
;

//--------------- dance-single - ----------------
#NOTES:
     dance-single:
     :
     Medium:
     13:
     0,0,0,0,0:
0000
0000
0000
0000
,
0000
0000
0000
0000
,
0000
0000
0000
0000
,
0000
0000
0000
0000
,
2000
0000
0000
3010
,
0002
0000
0000
0013
,
2002
0000
0000
3003
,
0001
0010
0100
1000
0001
0000
0200
0000
,
0301
0000
0000
1000
0000
0000
0010
0000
1000
0000
0001
0000
0010
0000
0000
0000
,
0100
0000
0000
1000
0000
0000
0001
0000
0100
0000
0001
0000
0010
0000
0000
0000
,
0100
0000
0000
1000
0000
0000
0010
0000
0100
0000
0001
0000
1000
0000
0000
0000
,
0100
0010
0001
0000
0100
0010
1000
0000
,
0100
0000
0000
1000
0000
0000
0001
0000
0100
0000
0010
0000
0100
0000
0000
0000
,
0001
0000
0000
0010
0000
0000
0100
0000
1000
0000
0001
0000
0100
0000
0000
0000
,
0010
0000
0000
1000
0000
0000
0001
0000
0010
0000
0100
0000
0010
0000
0000
0000
,
0001
0000
1000
0000
0010
0010
0010
0000
,
0100
0000
0000
0001
1000
0000
0100
0000
1000
0000
0010
0000
0100
0000
0000
0000
,
0001
0000
0000
0010
0100
0000
0010
0000
0001
0000
1000
0000
0010
0000
0000
0000
,
0100
0000
0000
0001
1000
0000
0100
0000
1000
0000
0001
0000
0100
0000
0000
0000
,
0010
1000
0001
0010
0100
1000
0001
0000
,
0100
0000
0000
0010
1000
0000
0001
0000
1000
0000
0010
0000
0100
0000
0000
0000
,
0001
0000
0000
0010
0100
0000
1000
0000
0100
0000
0010
0000
0001
0000
0000
0000
,
1000
0000
0000
0010
0100
0000
0001
0000
0100
0000
0010
0000
1000
0000
0000
0000
,
0100
0000
0000
0100
0010
0000
0000
0010
0001
0000
0001
0000
1000
0000
0000
0000
,
0010
0010
0100
0010
0010
0100
0001
0000
,
1000
0100
0010
0001
0010
0000
0100
1000
,
0001
0000
0001
0100
1000
0000
1000
0100
,
0001
0001
0010
0001
0001
0010
0100
0000
,
1000
0001
0200
0000
0310
1000
0001
0000
,
1001
0000
1000
0100
0001
0000
0100
1000
,
0020
0230
0302
2003
0000
3100
0100
0010
,
0001
0000
0100
0000
1000
0000
0100
0000
0001
0000
0000
0001
0010
0000
0100
0000
,
2000
3000
0020
0030
0200
0300
0002
0003
,
1000
0100
0010
0001
0100
0010
1000
0100
,
0010
0001
0100
1000
0100
0001
0010
0100
,
0001
0100
1000
0001
0100
0010
1000
0000
,
0100
0100
0010
0010
0001
0001
1000
0000
,
1001
0000
0001
0100
1000
0100
0001
1000
,
0100
0000
0000
0100
0010
0000
0100
0000
0000
0100
0010
0000
0001
0000
1000
0000
,
0001
0000
0100
1000
0100
0001
0100
0000
,
0001
1000
0000
0001
1000
0000
0010
0100
0000
0010
0100
0000
1001
0000
0000
0000
,
1000
0000
0000
1000
0010
0000
0100
0000
0001
0000
1000
0000
0010
0000
0000
0000
,
1000
0000
0000
1000
0100
0000
0010
0000
0001
0000
1000
0000
0100
0000
0000
0000
,
0010
0000
0000
0010
0001
0000
1000
0000
0010
0000
0100
0000
0001
0000
0000
0000
,
0001
0010
0100
1000
0001
0100
0010
1000
,
0010
0000
0000
0010
0100
0000
0001
0000
0010
0000
0100
0000
1000
0000
0000
0000
,
0001
0000
0000
0001
0100
0000
0010
0000
1000
0000
0001
0000
0010
0000
0000
0000
,
0100
0000
0000
0100
1000
0000
0001
0000
0100
0000
0001
0000
1000
0000
0000
0000
,
1000
0001
0010
0000
0100
0100
1000
1000
,
0001
0100
0000
0001
0100
0000
0010
0000
1000
0000
0001
0000
0010
0000
0001
0000
,
1000
0100
0000
1000
0100
0000
0010
0000
0001
0000
0100
0000
1000
0000
0100
0000
,
0010
1000
0000
0010
1000
0000
0001
0000
0010
0000
0100
0000
0001
0000
0100
0000
,
1000
0010
0001
0010
1000
0100
0001
0100
,
0010
0001
0000
0100
0001
0000
1000
0000
0010
0000
0100
0000
1000
0000
0100
0000
,
0010
1000
0000
0100
1000
0000
0001
0000
0010
0000
0100
0000
0001
0000
0100
0000
,
0010
0001
0000
1000
0010
0000
0100
0000
0001
0000
0010
0000
1000
0000
0010
0000
,
0100
1000
0001
0100
0001
0001
1000
1000
,
2002
0000
3003
0002
0000
0000
0023
0000
,
0230
0000
2300
0000
,
3020
0000
0000
0230
0000
0000
0301
0000
,
0101
0000
1100
0000
0001
0010
0100
1000
,
0001
0100
0000
0010
0100
0000
0001
0000
1000
0000
0100
0000
0010
0000
0001
0000
,
1000
0100
0000
0010
0100
0000
1000
0000
0001
0000
0100
0000
0010
0000
1000
0000
,
0001
0010
0000
0100
0010
0000
0001
0000
1000
0000
0010
0000
0001
0000
0010
0000
,
0100
0001
0010
1000
0001
0100
1000
0010
,
1000
0001
0000
0100
0001
0000
1000
0100
0000
1000
0001
0000
0100
0000
0100
0010
,
0000
0000
0000
2002
0000
0000
3003
0000
;

//--------------- dance-single - ----------------
#NOTES:
     dance-single:
     :
     Hard:
     16:
     0,0,0,0,0:
0000
0000
0000
0000
,
0000
0000
0000
0000
,
0000
0000
0000
0000
,
0000
0000
0000
0000
,
0002
0000
0100
0010
,
2003
0000
0100
0010
,
3002
0000
1000
0010
,
0103
0001
0100
0010
1000
0001
0020
0000
,
0130
1000
0000
0010
1000
0000
0001
0000
0100
0000
0010
0000
1000
0000
0010
0000
,
0100
0001
0000
0010
0001
0000
1000
0000
0100
0000
0010
0000
0001
0000
0010
0000
,
0100
1000
0000
0010
1000
0000
0001
0000
0100
0000
0010
0000
1000
0000
0001
0000
,
0010
0000
0100
1000
0100
0000
1000
0010
1000
0000
0001
0010
0001
0000
1000
0000
,
0100
0010
0000
0100
1000
0000
0001
0000
0100
0000
0010
0000
1000
0000
0001
0000
,
0100
0010
0000
0100
0001
0000
1000
0000
0100
0000
0010
0000
0001
0000
1000
0000
,
0010
0100
0000
0010
1000
0000
0001
0000
0010
0000
0100
0000
1000
0000
0001
0000
,
0100
0000
0000
0100
0001
0000
0000
0001
0010
0000
0100
0010
0100
0000
1000
0000
,
0001
0100
0010
0100
0001
0000
1000
0000
0100
0000
0010
0000
0010
0000
0001
0000
,
1000
0100
0010
0100
1000
0000
0001
0000
0100
0000
0010
0000
0010
0000
1000
0000
,
0001
0010
0100
0010
0001
0000
1000
0000
0100
0000
0010
0000
0010
0000
0001
0000
,
1000
0000
0001
0010
0001
0000
1000
0010
1000
0000
0100
0010
0100
0000
0010
0000
,
0001
1000
0010
0100
0001
0000
1000
0000
0100
0000
0010
0000
0010
0000
0100
0000
,
1000
0001
0010
0100
1000
0000
0001
0000
0100
0000
0010
0000
0010
0000
0100
0000
,
0001
1000
0100
0010
0001
0000
1000
0000
0010
0000
0100
0000
0100
0000
0010
0000
,
1000
0000
0100
1000
0100
0000
0010
0001
0010
0000
0001
0100
0001
0000
0001
0000
,
1000
0010
1000
0010
1000
0000
0001
0010
0001
0010
0001
0000
0100
0000
0010
0100
,
0010
0000
0000
0000
1000
0000
0100
0010
0002
0000
0000
0000
1003
0010
0100
0001
,
1000
0100
0010
0100
0001
0100
1000
0001
,
0100
0001
0100
0000
0010
0000
0100
0001
0100
0000
0010
0000
1000
0000
0001
0000
,
0010
0000
0100
1000
0001
0000
1000
0000
0010
0000
0000
0010
0100
0000
0001
0000
,
1001
0000
0000
0000
0001
0000
0010
0100
2000
0000
0000
0000
3001
0100
0010
1000
,
0001
0000
0010
0000
0100
0000
0002
0000
0000
0000
0103
0010
0001
0000
0100
0000
,
0010
1000
0001
0000
0010
0001
1000
0000
0100
0000
0000
0100
0010
0000
0001
0000
,
1000
0010
0000
0000
0001
0010
0000
0000
1000
0100
0000
0000
0001
0100
0000
0000
,
0010
0000
0001
1000
0001
0000
0100
0000
0010
0000
1000
0001
1000
0000
0100
0000
,
0010
0000
0001
0100
0001
0000
1000
0000
0010
0000
1000
0100
1000
0000
0001
0000
,
0010
0000
0100
1000
0001
0000
1000
0000
0010
0000
0100
0001
1000
0000
0000
0000
,
0001
0010
0001
0010
0100
1000
0100
1000
0001
0000
0100
0000
0010
0000
1000
0000
,
1001
0000
0000
0000
1000
0000
0001
0010
0100
0000
1000
0100
0010
0000
0001
0000
,
1000
0100
0000
1000
0001
0000
1000
0010
0000
1000
0001
0000
0010
0000
0100
0000
,
1001
0000
0002
0100
2003
0100
3010
0010
,
1000
0100
1000
0100
0010
0000
0001
0100
0001
0100
0010
0000
1001
0000
0000
0000
,
1000
0010
0100
0001
0100
0010
1000
0000
0001
0000
0010
0000
0001
0000
0100
0000
,
0001
0010
0100
1000
0100
0010
0001
0000
1000
0000
0010
0000
1000
0000
0100
0000
,
1000
0010
0100
0001
0100
0010
1000
0000
0001
0000
0100
0000
0001
0000
0010
0000
,
0100
0000
1000
0001
0100
0000
0001
1000
0100
0000
0010
0001
1000
0000
0001
0000
,
0100
0010
1000
0001
1000
0010
0100
0000
0001
0000
1000
0000
0010
0000
1000
0000
,
0100
0010
0001
1000
0001
0010
0100
0000
1000
0000
0001
0000
0010
0000
0001
0000
,
0100
0010
1000
0001
1000
0010
0100
0000
0001
0000
0010
0000
0100
0000
1000
0000
,
0001
0000
0000
0001
0100
0000
0000
0100
0010
0000
0010
1000
0001
0000
1000
0000
,
0001
0010
0100
1000
0001
1000
0100
0010
0001
0000
0100
0000
0100
0000
0001
0000
,
1000
0010
0100
0001
1000
0001
0100
0010
1000
0000
0100
0000
0110
0000
0010
0000
,
0001
0100
0010
1000
0001
1000
0010
0100
0001
0000
0010
0000
0110
0000
0100
0000
,
1000
0000
0010
0100
0001
0000
0010
0100
1000
0000
0010
1000
0001
0000
0100
0000
,
0010
0100
0001
1000
0100
1000
0001
0100
0010
0000
1000
0000
1001
0000
0001
0000
,
0010
0100
1000
0001
0100
0001
1000
0100
0010
0000
0001
0000
1001
0000
1000
0000
,
0100
0010
0001
1000
0010
1000
0001
0010
0100
0000
1000
0000
1001
0000
0001
0000
,
0100
0000
0010
1000
0001
0000
0010
0100
1000
0000
1000
0001
0100
0000
0100
0000
,
0220
0000
0330
2000
0000
0000
3002
0000
,
0023
0000
0230
0000
,
2300
0000
0000
3002
0000
0000
0103
0000
,
0110
0000
0000
0010
1000
0000
0000
1000
0001
0000
0001
0000
0010
0000
0100
0000
,
1000
0100
0010
0001
0100
0001
0010
0100
1000
0000
0001
0000
0011
0000
1000
0000
,
0001
0100
0010
1000
0100
1000
0010
0100
0001
0000
1000
0000
1010
0000
0001
0000
,
1000
0100
0010
0001
0100
0010
1000
0100
0010
0000
0001
0000
0110
0000
1000
0000
,
0001
0000
0010
0100
1000
0000
0010
0100
0001
0000
0101
0000
1000
0000
1100
0000
,
0001
0010
0100
0010
0001
0000
1000
0010
0100
0010
1000
0000
0100
0010
0100
0010
,
0000
0000
0001
1000
0010
0000
2002
0000
0000
0000
0000
0000
3003
0000
0000
0000
;
