#TITLE:ZADAMGA;
#SUBTITLE:;
#ARTIST:onoken;
#TITLETRANSLIT:;
#SUBTITLETRANSLIT:;
#ARTISTTRANSLIT:;
#GENRE:Baroque Step;
#CREDIT:;
#BANNER:ZADAMGA.png;
#BACKGROUND:ZADAMGA-bg.png;
#LYRICSPATH:;
#CDTITLE:cdtitle.png;
#MUSIC:ZADAMGA.ogg;
#OFFSET:-0.964000;
#SAMPLESTART:11.631000;
#SAMPLELENGTH:10.667000;
#SELECTABLE:YES;
#BPMS:0.000000=90.000000
,16.000000=180.000000
,320.000000=90.000000
;
#STOPS:
;
#BGCHANGES:;
#KEYSOUNDS:;
#ATTACKS:;

//---------------dance-single - ----------------
#NOTES:
     dance-single:
     :
     Beginner:
     4:
     0.209210,0.327105,0.104033,0.080026,0.000000,183.000000,170.000000,13.000000,10.000000,0.000000,0.000000,0.209210,0.327105,0.104033,0.080026,0.000000,183.000000,170.000000,13.000000,10.000000,0.000000,0.000000:
// measure 0
0000
0000
0000
0000
,  // measure 1
0000
0000
0000
0000
,  // measure 2
0001
0000
0010
0000
,  // measure 3
0100
0000
1000
0000
,  // measure 4
0001
0001
0001
0000
,  // measure 5
0100
0000
0010
0000
,  // measure 6
1000
1000
1000
0000
,  // measure 7
0010
0000
1001
0000
,  // measure 8
0001
0001
0001
0000
,  // measure 9
0010
0000
0100
0000
,  // measure 10
1000
1000
1000
0000
,  // measure 11
0001
1000
1001
0000
,  // measure 12
0010
0000
0000
0000
,  // measure 13
0000
0000
0000
0000
,  // measure 14
0000
1000
0000
0001
,  // measure 15
0000
0010
0100
0010
,  // measure 16
0000
0000
0000
0000
,  // measure 17
0000
0000
0000
0000
,  // measure 18
0000
0000
0001
0000
,  // measure 19
1000
0000
0010
0100
,  // measure 20
0010
0000
1000
0000
,  // measure 21
0001
0001
0001
0000
,  // measure 22
1000
0010
1000
0000
,  // measure 23
0001
0001
0001
0000
,  // measure 24
0010
0000
0100
0000
,  // measure 25
1000
1000
1000
0000
,  // measure 26
0001
0000
0010
0000
,  // measure 27
0001
1000
0001
0000
,  // measure 28
1000
0010
1000
0000
,  // measure 29
0010
0000
0100
0000
,  // measure 30
0001
0100
0001
0000
,  // measure 31
0100
0000
1001
0000
,  // measure 32
1000
0100
1000
0000
,  // measure 33
0100
0000
0010
0000
,  // measure 34
0001
0010
0001
0000
,  // measure 35
1000
0001
1001
0000
,  // measure 36
0002
0000
0000
0000
,  // measure 37
0000
0000
0003
0000
,  // measure 38
0200
0000
0000
0000
,  // measure 39
0000
0000
0300
0000
,  // measure 40
0020
0000
0000
0000
,  // measure 41
0000
0000
0030
0000
,  // measure 42
2000
0000
0000
0000
,  // measure 43
0000
0000
3000
0000
,  // measure 44
0001
0000
0001
0000
,  // measure 45
1000
0000
1000
0000
,  // measure 46
0100
0000
0100
0000
,  // measure 47
0010
0000
0010
0000
,  // measure 48
0001
0000
1000
0000
,  // measure 49
0010
0000
0100
0000
,  // measure 50
0001
0000
1000
0000
,  // measure 51
0200
0000
0300
0000
,  // measure 52
0010
0000
0010
0000
,  // measure 53
0001
1000
0001
0000
,  // measure 54
0100
0100
0100
0000
,  // measure 55
0001
0000
1001
0000
,  // measure 56
0010
0000
0010
0000
,  // measure 57
1000
0001
1000
0000
,  // measure 58
0100
0000
0100
0000
,  // measure 59
1000
0000
1001
0000
,  // measure 60
1001
0000
1001
0000
,  // measure 61
1001
0000
1001
0000
,  // measure 62
0001
1000
0001
1000
,  // measure 63
0002
0000
0003
0000
,  // measure 64
1000
1000
1000
0000
,  // measure 65
0010
0000
0100
0000
,  // measure 66
0001
0001
0001
0000
,  // measure 67
0010
0100
1000
0000
,  // measure 68
0001
0001
0001
0000
,  // measure 69
0010
0000
0100
0000
,  // measure 70
1000
0000
0001
0000
,  // measure 71
1000
1000
1001
0000
,  // measure 72
0001
0100
0010
0000
,  // measure 73
0100
0000
0010
0000
,  // measure 74
1000
0100
0010
0000
,  // measure 75
0001
0000
1001
0000
,  // measure 76
0001
0010
0100
0000
,  // measure 77
0010
0000
0100
0000
,  // measure 78
1000
0010
0100
0000
,  // measure 79
0001
1000
1001
0000
,  // measure 80
0002
0003
0020
0030
,  // measure 81
0200
0300
2000
3000
;

//---------------dance-single - ----------------
#NOTES:
     dance-single:
     :
     Easy:
     8:
     0.352113,0.458647,0.216069,0.600192,0.000000,308.000000,281.000000,27.000000,75.000000,0.000000,0.000000,0.352113,0.458647,0.216069,0.600192,0.000000,308.000000,281.000000,27.000000,75.000000,0.000000,0.000000:
// measure 0
0000
0000
0000
0000
,  // measure 1
0000
0000
0000
0000
,  // measure 2
0001
0000
0010
0000
1000
0100
0001
0000
,  // measure 3
1000
0010
0001
0100
1000
0001
2002
3003
,  // measure 4
0001
0100
0010
0000
,  // measure 5
0001
0000
0100
0000
0010
1000
0010
0000
,  // measure 6
1000
0100
0010
0000
,  // measure 7
1000
0000
0100
0000
0010
0002
0000
0003
,  // measure 8
1000
0010
0100
0000
,  // measure 9
1000
0000
0010
0000
0100
0001
0100
0000
,  // measure 10
0001
0010
0100
0000
,  // measure 11
0002
0000
0013
2002
,  // measure 12
3003
1000
1000
0010
,  // measure 13
0010
0200
0302
2003
,  // measure 14
3100
1100
0000
0011
,  // measure 15
0000
0101
1000
1010
,  // measure 16
0000
0001
0001
0010
,  // measure 17
0010
0200
2300
3002
,  // measure 18
0103
0010
0110
0000
,  // measure 19
0110
1001
0001
1000
,  // measure 20
0200
0000
0320
0000
,  // measure 21
0031
1000
0002
0000
,  // measure 22
1003
0010
0100
0001
,  // measure 23
1000
0100
0020
0000
,  // measure 24
0032
0000
2003
0000
,  // measure 25
3010
0100
0002
0000
,  // measure 26
1003
1000
0001
0001
,  // measure 27
1001
0110
1001
0000
,  // measure 28
1000
0100
0010
0000
,  // measure 29
1000
0000
0100
0000
0010
0001
1000
0000
,  // measure 30
0001
0100
0010
0000
,  // measure 31
0001
0000
0010
0000
0100
2000
0000
3000
,  // measure 32
0001
0010
0100
0000
,  // measure 33
0001
0000
0010
0000
0100
1000
0001
0000
,  // measure 34
1000
0010
0100
0000
,  // measure 35
2000
0000
3100
0120
,  // measure 36
0031
0000
0001
0000
,  // measure 37
0001
0000
0011
0000
,  // measure 38
1000
0000
1000
0000
,  // measure 39
1000
0000
1010
0000
,  // measure 40
0001
0000
0001
0000
,  // measure 41
0001
0000
0101
0000
,  // measure 42
1000
0000
1000
0000
,  // measure 43
1000
0000
1100
1000
,  // measure 44
0001
0001
0100
0100
,  // measure 45
0010
0010
1000
1000
,  // measure 46
0001
0010
0100
1000
,  // measure 47
0001
0100
0010
1000
,  // measure 48
0100
0001
0100
1000
,  // measure 49
0010
0001
0010
1000
,  // measure 50
0200
0320
0032
2003
,  // measure 51
3020
0000
0130
0110
,  // measure 52
0002
0000
0100
0000
,  // measure 53
2003
0100
0100
0000
,  // measure 54
3002
0010
2003
0010
,  // measure 55
3002
1000
2000
3003
,  // measure 56
2000
0000
0100
0000
,  // measure 57
3002
0100
0100
0000
,  // measure 58
2003
0010
3002
0010
,  // measure 59
1003
1001
2002
3003
,  // measure 60
0022
0033
2200
3300
,  // measure 61
2020
3030
0202
0303
,  // measure 62
0001
0010
0100
1000
,  // measure 63
0020
0000
0032
0023
,  // measure 64
1030
0010
0100
0001
,  // measure 65
1000
0000
1000
0000
0010
1000
0001
0000
,  // measure 66
1000
0100
0010
0001
,  // measure 67
0100
0000
0010
0000
1000
0002
0000
1003
,  // measure 68
0001
0010
0100
1000
,  // measure 69
0001
0000
0001
0000
0010
0001
1000
0000
,  // measure 70
2002
3003
0220
0330
,  // measure 71
0001
0100
0010
0000
2020
0000
3030
0000
,  // measure 72
0002
0013
1000
0000
,  // measure 73
0001
0000
0010
0000
0100
1000
0001
0000
,  // measure 74
2000
3010
0001
0000
,  // measure 75
1000
0000
0010
0000
0100
0002
0000
1003
,  // measure 76
2000
3100
0001
0000
,  // measure 77
1000
0000
0100
0000
0010
0001
1000
0000
,  // measure 78
0002
0103
1000
0000
,  // measure 79
0001
0000
0001
0000
1000
0001
2000
0000
,  // measure 80
3002
0003
0020
0030
2000
3200
0302
0003
,  // measure 81
2000
3020
0032
0203
2300
3002
2003
3000
;

//---------------dance-single - ----------------
#NOTES:
     dance-single:
     :
     Medium:
     11:
     0.488156,0.556928,0.280090,1.064341,0.000000,427.000000,392.000000,35.000000,133.000000,0.000000,0.000000,0.488156,0.556928,0.280090,1.064341,0.000000,427.000000,392.000000,35.000000,133.000000,0.000000,0.000000:
0000
0000
0000
0000
,
0000
0000
0000
0000
,
0001
0000
0010
0000
1000
0100
0001
0000
,
1000
0010
0001
0100
1000
0001
2002
3003
,
0001
0100
0001
0100
0010
0000
0001
0100
,
0020
0000
2030
0000
3100
0010
0001
0000
,
1000
0010
1000
0010
0100
0000
1000
0010
,
0200
0000
0302
0000
1003
2002
0000
3003
,
1000
0100
1000
0100
0010
0000
1000
0100
,
0020
0000
0032
0000
0103
0010
1000
0000
,
0001
0010
0001
0010
0100
0000
0001
0010
,
0200
0000
0000
0000
1300
0001
2002
0000
,
3003
1000
0010
0100
,
0001
2000
3200
0320
,
0031
0000
0011
0000
0000
1000
1010
0000
,
1000
0000
1100
0000
0001
0100
0202
0000
,
0303
0000
0001
0000
0010
0000
0100
1000
,
0010
0200
0302
2003
,
3100
0000
0010
0000
0210
0000
1300
0001
,
0100
0000
0120
0000
1030
0001
0010
0000
,
0002
0100
2003
0010
,
3002
0000
0203
0000
0310
1000
0001
0000
,
2000
3200
0302
0203
,
2300
0000
3020
0000
0031
0010
1000
0010
,
2000
0100
3002
0010
,
2003
0000
3200
0000
0310
0001
1000
0000
,
1010
0101
0011
1100
,
1001
0110
2002
3003
,
1000
0100
0010
0100
1000
0000
0010
0100
,
2000
0000
3002
0000
0103
0010
1000
0000
,
0001
0010
0100
0010
0001
0000
0100
0010
,
0002
0000
2003
0000
3010
0220
0000
0330
,
0001
0100
0010
0100
0001
0000
0010
0100
,
0002
0000
2003
0000
3100
0010
0001
0000
,
1000
0010
0100
0010
1000
0000
0100
0010
,
2000
0000
0000
0000
3100
0010
0120
0000
,
0032
0003
0000
0000
0002
0003
0000
0000
,
0002
0003
0000
0000
0012
0003
1000
0000
,
2000
3000
0000
0000
2000
3000
0000
0000
,
2000
3000
0000
0000
2010
3000
0001
0000
,
0002
0003
0000
0000
0020
0030
0000
0000
,
0200
0300
0000
0000
2100
3000
0001
0000
,
2000
3000
0000
0000
0020
0030
0000
0000
,
0200
0300
0000
0000
0102
0003
1000
0000
,
0200
0300
0010
0000
0200
0300
0010
0000
,
0002
0003
1000
0000
0002
0003
1000
0000
,
0002
0003
0100
0000
2000
3000
0100
0000
,
0002
0003
0010
0000
2000
3000
0010
0000
,
0012
0003
1000
0000
2010
3000
0001
0000
,
0102
0003
1000
0000
2100
3000
0001
0000
,
0200
0000
0320
0000
2030
0000
3001
0010
,
0200
0000
0000
0000
0310
0100
1001
0000
,
0002
1000
0203
0001
,
0320
0032
0023
0000
,
0130
0001
0020
0000
0130
0001
0200
0000
,
0310
0001
0100
0000
0120
0000
1030
0001
,
2000
0001
3200
1000
,
0320
2030
3020
0000
,
0130
1000
0020
0000
0130
1000
0200
0000
,
0301
0101
2002
3003
,
2000
0100
3200
0010
,
0320
0001
0032
1000
,
0103
0010
0100
0010
1000
0001
1000
0001
,
0020
0000
0031
0010
2000
0000
3020
0000
,
0031
0010
0001
0000
0100
0001
0100
0000
,
0010
1000
0010
1000
0100
1000
0100
0000
,
0010
0100
1000
0000
0001
0010
0100
0000
,
1000
0010
0100
0001
1000
2001
0000
3001
,
1000
0010
1000
0000
0100
1000
0100
0000
,
0010
0001
0010
0001
0100
0001
0100
0000
,
2010
3100
0012
0103
,
0001
0100
1000
0100
0002
0000
1003
0000
,
0002
0013
0100
0010
1000
0000
0001
0010
,
0200
0000
2300
0000
3010
0100
0001
0000
,
2000
3100
0010
0100
0001
0000
1000
0100
,
0020
0000
0032
0000
1003
2001
0000
3001
,
2000
3010
0100
0010
0001
0000
1000
0010
,
0200
0000
0302
0000
0013
0100
1000
0000
,
0002
0103
0010
0100
1000
0000
0001
0100
,
0020
0000
0130
0010
1000
0001
1001
0000
,
0002
0003
0020
0030
2000
3200
0302
0003
,
2000
3020
0032
0203
2300
3002
2003
3000
;

//---------------dance-single - ----------------
#NOTES:
     dance-single:
     :
     Hard:
     15:
     0.679074,0.753491,0.264085,1.024328,0.468150,594.000000,561.000000,33.000000,128.000000,0.000000,0.000000,0.679074,0.753491,0.264085,1.024328,0.468150,594.000000,561.000000,33.000000,128.000000,0.000000,0.000000:
0000
0000
0000
0000
,
0000
0000
0000
0000
,
0001
0000
0010
0000
1000
0100
0001
0000
,
1000
0010
0001
0100
1000
0001
2002
3003
,
0001
0000
0100
0000
0100
0000
0010
0100
0010
0000
0000
0000
0001
0000
0100
0000
,
0010
0000
0000
0100
0000
0000
0010
0000
0000
0000
0000
0000
1000
0000
0000
0000
0100
0000
0000
0000
0010
0000
0000
0000
0002
0000
0000
0000
0000
0000
0010
0000
0000
0000
0000
0000
2003
0000
0000
0000
0000
0000
0010
0000
0000
0000
0000
0000
,
3001
0000
0010
0000
0010
0000
0100
0010
0100
0000
0000
0000
0001
0000
0010
0000
,
0001
0000
1000
0000
0001
0000
1000
0000
0010
0000
0100
0000
0001
0000
0000
2001
0000
0000
0000
0000
0000
3010
0000
0000
,
1000
0000
0100
0000
0100
0000
0010
0100
0010
0000
0000
0000
1000
0000
0100
0000
,
0010
0000
0000
0100
0000
0000
0010
0000
0000
0000
0000
0000
0001
0000
0000
0000
0100
0000
0000
0000
0010
0000
0000
0000
2000
0000
0000
0000
0000
0000
0010
0000
0000
0000
0000
0000
3002
0000
0000
0000
0000
0000
0010
0000
0000
0000
0000
0000
,
1003
0000
0010
0000
0010
0000
0100
0010
0100
0000
0000
0000
1000
0000
0010
0000
,
0100
0000
0000
0000
0001
0000
0000
0000
1000
0000
0000
0000
0100
0000
0000
0000
0000
0000
0010
0000
0000
0001
0000
0000
1000
0000
0000
0000
0000
0000
0001
0000
0000
0000
0000
0000
2002
0000
0000
0000
0000
0000
0000
0000
0000
0000
0000
0000
,
3003
1000
0010
1000
0001
0010
0001
1000
,
0010
0100
0002
0000
2003
0000
3200
0000
,
0301
0000
0000
2100
0000
0000
3001
0100
0010
0200
0000
0000
,
1300
0000
0000
0102
0000
0000
1003
0100
0010
0002
0000
0000
,
0003
1000
0010
0100
0010
0100
0001
2001
,
3100
0010
0200
0000
0320
0000
0032
0000
,
1003
0000
0010
0000
2010
0000
3001
0010
,
0012
0000
1003
0000
0010
0100
0110
0000
,
2001
0000
3100
0010
2000
0000
3010
0100
,
1000
0000
0001
0000
0100
0000
0010
1000
0010
0000
1000
0000
1001
0000
0000
0000
,
1000
0100
0001
0100
1000
0010
0001
0010
,
1000
0000
0100
0000
0010
0000
0001
0000
1000
0001
0100
0000
0010
0100
0010
0100
,
0002
0000
0103
0010
0002
0000
0013
0100
,
0001
0000
1000
0000
0100
0000
0010
0001
0010
0000
0001
0000
1001
0000
0000
0000
,
0002
0203
2300
3020
,
0031
0100
0010
1000
0000
0000
2002
0000
0000
3003
0000
0000
,
1000
0000
0100
0000
0100
0000
0010
0100
1000
0000
0000
0000
0010
0000
0100
0000
,
1000
0000
0000
0001
0000
0000
0100
0000
0000
0000
0000
0000
0010
0000
0000
0000
1000
0000
0000
0000
0001
0000
0000
0000
2000
0000
0000
0000
0000
0000
0100
0000
0000
0000
0000
0000
3002
0000
0000
0000
0000
0000
0100
0000
0000
0000
0000
0000
,
1003
0000
0010
0000
0010
0000
0100
0010
1000
0000
0000
0000
0100
0000
0010
0000
,
1000
0000
0001
0000
1000
0000
0001
0000
0010
0000
0100
0000
1000
0000
0000
1002
0000
0000
0000
0000
0000
0013
0000
0000
,
0001
0000
0100
0000
0100
0000
0010
0100
0001
0000
0000
0000
0010
0000
0100
0000
,
0001
0000
0000
1000
0000
0000
0100
0000
0000
0000
0000
0000
0010
0000
0000
0000
0001
0000
0000
0000
1000
0000
0000
0000
0002
0000
0000
0000
0000
0000
0100
0000
0000
0000
0000
0000
2003
0000
0000
0000
0000
0000
0100
0000
0000
0000
0000
0000
,
3001
0000
0010
0000
0010
0000
0100
0010
0001
0000
0000
0000
0100
0000
0010
0000
,
0100
0000
0000
0000
1000
0000
0000
0000
0001
0000
0000
0000
0100
0000
0000
0000
0000
0000
0010
0000
0000
1000
0000
0000
0001
0000
0000
0000
0000
0000
1000
0000
0000
0000
0000
0000
1002
0000
0000
0000
0000
0000
0000
0000
0000
0000
0000
0000
,
0203
0300
0000
0000
0200
0300
0000
0000
,
0200
0300
0000
0000
1002
0003
0010
0000
,
0200
0300
0000
0000
0200
0300
0000
0000
,
0200
0300
0000
0000
2001
3000
0010
0000
,
0200
0300
0000
0000
0020
0030
0000
0000
,
2000
3000
0000
0000
0102
0003
0010
0000
,
0200
0300
0000
0000
0020
0030
0000
0000
,
0002
0003
0000
0000
2100
3000
0010
0000
,
0200
0300
0010
0000
0200
0300
0010
0000
,
2000
3000
0001
0000
2000
3000
0001
0000
,
0020
0000
0000
0030
0100
0000
0000
0000
0010
0000
0000
0000
0002
0000
0000
0003
1000
0000
0000
0000
0001
0000
0000
0000
,
0200
0000
0000
0300
0010
0000
0000
0000
1000
0000
0000
0000
0200
0000
0000
0300
0010
0000
0000
0000
0001
0000
0000
0000
,
2000
0000
0000
3000
0001
0000
0100
0000
0001
0000
0000
0000
2000
0000
0000
3000
0001
0000
0010
0000
0001
0000
0000
0000
,
2000
0000
0000
3000
0001
0000
0100
0000
0010
0000
0000
0000
2000
0000
0000
3000
0100
0000
0010
0000
0001
0000
0000
0000
,
0200
0000
0000
0000
0000
0000
0300
0000
0010
0000
0000
0000
1000
0000
0000
0000
0001
0000
0000
0000
1000
0000
0000
0000
0200
0000
0000
0000
0000
0000
0000
0000
0000
0000
0000
0000
0310
0000
0000
0001
0000
0000
1000
0000
0000
0001
0000
0000
,
0200
0000
0000
0300
0100
0010
1001
0000
,
0002
0010
0010
0000
2003
0010
0010
0000
,
3002
0000
0203
0000
0320
0100
0100
0000
,
2030
3100
0020
1030
0020
0031
0200
1300
,
0200
0000
0000
0000
0302
0000
1003
0000
0001
0010
0100
1000
0001
0000
0000
0000
,
2000
0010
0010
0000
3002
0010
0010
0000
,
2003
0000
3200
0000
0320
0100
0100
0000
,
0032
0103
0020
0031
0020
1030
0200
0301
,
0100
0010
0110
0000
2002
0000
3003
0000
,
2100
3001
0102
1003
,
2010
3001
0012
1003
,
0002
0103
0200
0310
0020
1030
2000
3001
,
2002
0000
3003
0000
1000
0010
1000
0001
0020
0000
0000
0000
1000
0000
0000
0000
,
0031
0000
1000
0100
1000
0000
0001
0100
0001
0000
1000
0000
0100
0000
0010
0000
,
0001
0010
0001
0000
0100
0001
0100
0000
0010
0000
1000
0001
0010
0000
0100
0000
,
1000
0000
1000
0001
0000
0001
0100
0000
0100
0010
0000
0010
,
1000
0000
0100
0000
0010
0000
0001
0000
0100
0000
0010
0000
1000
0000
0000
2002
0000
0000
3003
0000
0000
1002
0000
0000
,
0013
0000
0001
0100
0001
0000
1000
0100
1000
0000
0001
0000
0100
0000
0010
0000
,
1000
0010
1000
0000
0100
1000
0100
0000
0010
0000
0001
1000
0010
0000
0100
0000
,
0110
0000
1000
0010
1000
0001
0010
0000
0001
0010
0001
1000
,
0010
0000
0010
0000
0100
0000
0001
0000
1000
0100
0010
0001
1000
0000
0000
0000
,
0002
0000
0103
0010
0100
0000
0010
0100
1000
0000
0000
0000
0001
0000
0100
0000
,
0010
0000
0000
0100
0000
0000
0001
0000
0000
0000
0000
0000
1000
0000
0000
0000
0100
0000
0000
0000
0010
0000
0000
0000
0002
0000
0000
0000
0000
0000
0100
0000
0000
0000
0000
0000
2003
0000
0000
0000
0000
0000
0010
0000
0000
0000
0000
0000
,
3002
0000
0013
0100
0010
0000
0100
0010
1000
0000
0000
0000
0001
0000
0010
0000
,
0100
0000
0010
0000
0100
0000
1000
0000
0010
0000
0100
0000
0001
0000
0000
2002
0000
0000
3003
0000
0000
1001
0000
0000
,
2000
0000
3100
0010
0100
0000
0010
0100
0001
0000
0000
0000
1000
0000
0100
0000
,
0010
0000
0000
0100
0000
0000
1000
0000
0000
0000
0000
0000
0001
0000
0000
0000
0100
0000
0000
0000
0010
0000
0000
0000
2000
0000
0000
0000
0000
0000
0100
0000
0000
0000
0000
0000
3002
0000
0000
0000
0000
0000
0010
0000
0000
0000
0000
0000
,
2003
0000
3010
0100
0010
0000
0100
0010
0001
0000
0000
0000
1000
0000
0010
0000
,
0100
0000
0000
0000
0001
0000
0000
0000
1000
0000
0000
0000
0100
0000
0000
0000
0000
0000
0010
0000
0000
0001
0000
0000
0100
0000
0000
0000
0000
0000
0010
0000
0000
0000
0000
0000
2001
0000
0000
0000
0000
0000
0000
0000
0000
0000
0000
0000
,
3002
0003
0020
0030
2000
3200
0302
0003
,
2000
3020
0032
0203
2300
3002
2003
3000
;

//---------------dance-single - ----------------
#NOTES:
     dance-single:
     :
     Challenge:
     17:
     0.852844,0.950054,0.248079,0.752241,0.992318,746.000000,715.000000,31.000000,94.000000,0.000000,0.000000,0.852844,0.950054,0.248079,0.752241,0.992318,746.000000,715.000000,31.000000,94.000000,0.000000,0.000000:
0000
0000
0000
0000
,
0000
0000
0000
0000
,
0001
0000
0010
0000
1000
0100
0001
0000
,
1000
0010
0001
0100
1000
0001
2002
3003
,
0001
0000
0100
0000
0001
0100
0001
0100
0010
0000
0000
0000
0001
0000
0100
0000
,
0001
0000
0000
0100
0000
0000
0010
0000
0000
1000
0000
0000
0001
0000
0000
0000
0010
0000
0000
0000
0100
0000
0000
0000
2000
0000
0000
0000
0000
0000
0010
0000
0000
0000
0000
0000
3002
0000
0000
0000
0000
0000
0010
0000
0000
0000
0000
0000
,
1003
0000
0010
0000
1000
0010
1000
0010
0100
0000
0000
0000
1000
0000
0010
0000
,
0100
0000
0000
0000
0001
0000
0000
0000
1000
0000
0000
0000
0100
0000
0000
0000
0010
0000
0000
0000
0001
0000
0000
0000
1000
0000
0000
0000
0000
0000
1002
0000
0000
0000
0000
0000
0103
0000
0000
0010
0000
0000
0100
0000
0000
0010
0000
0000
,
1000
0000
0100
0000
1000
0100
1000
0100
0010
0000
0000
0000
1000
0000
0100
0000
,
1000
0000
0000
0100
0000
0000
0010
0000
0000
0001
0000
0000
1000
0000
0000
0000
0010
0000
0000
0000
0100
0000
0000
0000
0002
0000
0000
0000
0000
0000
0010
0000
0000
0000
0000
0000
2003
0000
0000
0000
0000
0000
0010
0000
0000
0000
0000
0000
,
3001
0000
0010
0000
0001
0010
0001
0010
0100
0000
0000
0000
0001
0000
0010
0000
,
1000
0000
0000
0000
0010
0000
0000
0000
0100
0000
0000
0000
0010
0000
0000
0001
0000
0000
1000
0000
0000
0001
0000
0000
0100
0000
0000
0000
0000
0000
0110
0000
0000
0000
0000
0000
2020
0000
0000
0000
0000
0000
0000
0000
0000
0000
0000
0000
,
3030
1000
0010
1000
0001
0010
0001
1000
,
0010
0000
0000
0100
0000
0000
0001
0000
1000
0000
0001
0000
1000
0000
0100
0000
1000
0000
0100
0000
0010
0000
0001
0000
,
0200
0000
0000
0000
0000
0000
1300
0000
0100
0000
0001
0000
1000
0000
0000
0100
0000
0000
0001
0000
0100
0000
1000
0000
,
0001
0000
1000
0010
0100
0001
0010
0100
1000
0002
0000
0000
,
0003
1000
0010
0100
0010
0100
0001
2001
,
3100
0000
0000
0010
0000
0000
0100
0000
0010
0000
0001
0000
0010
0000
0100
0000
1000
0000
0001
0000
0100
0000
0010
0000
,
2000
3000
0200
0300
0012
0003
0200
0310
,
1010
0000
0101
0000
1001
0010
1001
0000
,
1000
0100
1000
0100
0001
0100
0001
0100
,
1000
0000
0010
0000
0001
0000
0010
0100
0010
0000
1000
0000
1010
0000
0000
0000
,
0001
0100
1000
0100
0001
0010
1000
0010
,
0001
0000
0100
0000
1000
0000
0100
0000
0001
1000
0100
0010
0001
0010
0100
1000
,
0001
0100
0001
0100
1000
0100
1000
0100
,
0001
0000
0010
0000
1000
0000
0010
0100
0010
0000
0001
0000
0011
0000
0000
0000
,
1001
0000
0001
0100
0000
0100
1000
0000
1000
0100
0000
0010
,
0100
0001
1000
0001
0000
0001
0010
1000
0010
0001
0000
0000
,
1000
0000
0010
0000
1000
0010
0100
0010
1000
0000
0000
0000
0100
0000
0010
0000
,
1000
0000
0000
0010
0000
0000
0100
0000
0000
0001
0000
0000
1000
0000
0000
0000
0100
0000
0000
0000
0010
0000
0000
0000
0002
0000
0000
0000
0000
0000
0100
0000
0000
0000
0000
0000
2003
0000
0000
0000
0000
0000
0100
0000
0000
0000
0000
0000
,
3001
0000
0100
0000
0001
0100
0010
0100
0001
0000
0000
0000
0010
0000
0100
0000
,
0010
0000
0000
0000
1000
0000
0000
0000
0001
0000
0000
0000
0010
0000
0000
0000
0100
0000
0000
0000
1000
0000
0000
0000
0001
0000
0000
0000
0000
0000
2001
0000
0000
0000
0000
0000
3010
0000
0000
0100
0000
0000
0001
0000
0000
1000
0000
0000
,
0001
0000
0010
0000
0001
0010
0100
0010
0001
0000
0000
0000
0100
0000
0010
0000
,
0001
0000
0000
0010
0000
0000
0100
0000
0000
1000
0000
0000
0001
0000
0000
0000
0100
0000
0000
0000
0010
0000
0000
0000
2000
0000
0000
0000
0000
0000
0100
0000
0000
0000
0000
0000
3002
0000
0000
0000
0000
0000
0100
0000
0000
0000
0000
0000
,
1003
0000
0100
0000
1000
0100
0010
0100
1000
0000
0000
0000
0010
0000
0100
0000
,
0001
0000
0000
0000
0100
0000
0000
0000
0010
0000
0000
0000
0100
0000
0000
1000
0000
0000
0001
0000
0000
1000
0000
0000
0010
0000
0000
0000
0000
0000
0110
0000
0000
0000
0000
0000
0102
0000
0000
0000
0000
0000
0000
0000
0000
0000
0000
0000
,
2003
3000
0000
0000
2000
3000
0000
0000
,
2000
3000
0000
0000
2100
3000
0010
0100
,
0002
0003
0000
0000
0002
0003
0000
0000
,
0002
0003
0000
0000
0102
0003
0010
0100
,
2000
3000
0000
0000
0020
0030
0000
0000
,
0200
0300
0000
0000
2010
3000
0100
0010
,
0002
0003
0000
0000
0020
0030
0000
0000
,
0200
0300
0000
0000
0012
0003
0100
0010
,
2000
0000
0000
3000
0001
0000
0100
0000
0001
0000
0000
0000
2000
0000
0000
3000
0001
0000
0010
0000
0001
0000
0000
0000
,
0200
0000
0000
0300
0010
0000
1000
0000
0010
0000
0000
0000
0200
0000
0000
0300
0001
0000
0010
0000
0100
0000
1000
0000
,
0002
0000
0000
0003
0100
0000
0010
0000
1000
0000
0000
0000
2000
0000
0000
3000
0100
0000
0010
0000
0001
0000
0000
0000
,
0002
0000
0000
0003
0100
0000
0010
0000
1000
0000
0000
0000
2000
0000
0000
3000
0100
0000
0010
0000
0001
0000
1000
0000
,
0200
0300
0010
0100
1000
0001
0200
0300
0010
0100
0001
0010
,
0002
0003
0010
0100
1000
0010
2000
3000
0010
0100
0001
1000
,
0200
0000
0000
0000
0310
0000
0000
0000
1000
0000
0000
0000
0010
0000
0000
0000
0001
0000
0000
0000
1000
0000
0000
0000
0010
0000
0000
0000
0001
0000
0000
0000
0010
0000
0000
0000
1000
0000
0000
0001
0000
0000
1000
0000
0000
0001
0000
0000
,
0010
0000
0100
0000
0010
0000
0100
0000
1000
0000
0001
0000
0100
0000
0000
0010
0000
0000
1002
0000
0000
0000
0000
0000
,
0013
0001
1000
0001
0020
0000
0000
0000
0130
0010
0001
0100
0020
0000
0000
0000
,
1030
0010
1000
0010
0100
0000
0001
0000
0010
0100
0010
0100
2000
0000
0000
0000
,
3001
0000
0000
0010
0000
0000
0100
0000
0000
1000
0000
0000
0001
0000
0000
0000
0000
0000
0100
0000
0000
0000
0000
0000
0010
0000
0000
0000
0100
0000
0000
0000
0001
0000
0000
0000
1000
0000
0000
0000
0000
0000
0100
0000
0000
0000
0000
0000
,
0010
0100
1000
0000
0010
0100
0001
0000
0100
0001
0010
0001
0100
0000
0000
0000
,
0010
1000
0001
1000
0020
0000
0000
0000
0130
0010
1000
0100
0020
0000
0000
0000
,
0130
0010
0001
1000
0010
0100
0001
1000
0100
0020
0000
0000
,
0130
1000
0001
0100
0010
0000
0100
0000
0010
0100
0001
1000
0100
0000
0010
0000
,
0001
1000
0010
0000
1000
0001
0010
0000
0220
0000
0000
0000
0330
0000
0000
0000
,
2100
3001
0102
1003
,
2010
3001
0012
1003
,
0002
0100
2003
0100
3002
0010
2003
0010
,
3001
0010
0100
1000
0001
0100
0010
1000
0100
0000
0010
0100
0002
0000
0000
0000
,
0103
0000
0010
0001
0010
0000
0001
1000
0001
0000
0100
0001
0100
0001
0100
0010
,
1000
0001
0010
0000
0100
1000
0001
0000
1000
0010
1000
0010
0100
0000
0001
1000
,
0100
0000
0000
0000
0010
0000
0000
0000
0001
0000
0000
0000
0100
0000
0000
0000
0001
0000
0000
0000
0010
0000
0000
0000
0100
0000
0000
0000
1000
0000
0000
0000
0001
0000
0000
0000
0100
0000
0000
0010
0000
0000
0100
0000
0000
0010
0000
0000
,
0001
0000
0010
0000
1000
0000
0100
0000
0001
0000
0100
0000
1000
0000
0000
2002
0000
0000
3003
0000
0000
1002
0000
0000
,
0103
0000
0010
1000
0010
0000
1000
0001
1000
0000
0100
1000
0100
1000
0100
0010
,
0001
1000
0010
0000
0100
0001
1000
0000
0010
0100
0001
1000
0100
0010
0100
0010
,
1000
0010
0001
0100
1000
0100
0001
0010
0100
1000
0010
0100
,
0001
1000
0100
0010
0001
1000
0100
0010
0001
1000
0001
1000
0001
0000
0000
0000
,
0002
0000
0100
0003
0001
0100
0010
0100
1000
0000
0000
0000
0001
0100
0001
0100
,
0010
0000
0000
1000
0000
0000
0001
0000
0000
1000
0000
0000
0100
0000
0000
0000
0010
0000
0000
0000
0001
0000
0000
0000
2000
0000
0000
0000
0000
0000
0100
0000
0000
0000
0000
0000
3002
0000
0000
0000
0000
0000
0010
0000
0000
0000
0000
0000
,
2003
0000
0010
3000
1000
0010
0100
0010
0001
0000
0000
0000
1000
0010
1000
0010
,
0100
0000
0000
0000
0001
0000
0000
0000
1000
0000
0000
0000
0100
0000
0000
0000
0010
0000
0000
0000
0001
0000
0000
0000
0100
0000
0000
0000
0000
0000
0120
0000
0000
0000
0000
0000
1030
0000
0000
0010
0000
0000
0100
0000
0000
0001
0000
0000
,
2000
0000
0100
3000
1000
0100
0010
0100
0001
0000
0000
0000
1000
0100
1000
0100
,
0010
0000
0000
0001
0000
0000
1000
0000
0000
0001
0000
0000
0100
0000
0000
0000
0010
0000
0000
0000
1000
0000
0000
0000
0002
0000
0000
0000
0000
0000
0100
0000
0000
0000
0000
0000
2003
0000
0000
0000
0000
0000
0010
0000
0000
0000
0000
0000
,
3002
0000
0010
0003
0001
0010
0100
0010
1000
0000
0000
0000
0001
0010
0001
0010
,
0100
0000
0000
0000
1000
0000
0000
0000
0001
0000
0000
0000
1000
0000
0000
0010
0000
0000
0100
0000
0000
0010
0000
0000
0001
0000
0000
0000
0000
0000
0110
0000
0000
0000
0000
0000
2001
0000
0000
0000
0000
0000
0000
0000
0000
0000
0000
0000
,
3002
0003
0020
0030
2000
3200
0302
0003
,
2000
3020
0032
0203
2300
3002
2003
3000
;
