#TITLE:夢花火;
#SUBTITLE:;
#ARTIST:豚乙女;
#TITLETRANSLIT:YumeHANABI;
#SUBTITLETRANSLIT:;
#ARTISTTRANSLIT:BUTAOTOME;
#GENRE:Maimai;
#CREDIT:Melody Love;
#MUSIC:YumeHANABI.ogg;
#BANNER:YumeHANABI.png;
#BACKGROUND:YumeHANABI-bg.png;
#CDTITLE:;
#SAMPLESTART:55.929;
#SAMPLELENGTH:20.625;
#SELECTABLE:YES;
#OFFSET:-0.230;
#BPMS:0.000=186.000;
#STOPS:67.000=0.323
,70.000=0.323
,77.000=0.323
,80.000=0.323
,83.000=0.323
,160.000=1.613
,191.000=0.161
,191.500=0.161
,226.000=0.161
,227.500=0.161
,233.000=0.161
,234.500=0.161
,240.000=0.161
,241.500=0.161
,247.000=0.161
,248.500=0.161
,286.000=1.613
,289.000=0.161
,289.500=0.161
,290.000=0.161
,290.500=0.161
,291.000=0.161
,291.500=0.161
,322.000=0.161
,322.500=0.161
,357.000=0.161
,358.500=0.161
,364.000=0.161
,365.500=0.161
,371.000=0.161
,372.500=0.161
,378.000=0.161
,379.500=0.161
;
#JACKET:YumeHANABI-jacket.png;
#BGCHANGES:-1.230=YumeHANABI.avi=1.000=1=0=0=StretchNoLoop==CrossFade==,
99999.000=-nosongbg-=1.000=0=0=0=StretchNoLoop====
;
#FGCHANGES:;

//--------------- dance-single - Melody Love ----------------
#NOTES:
     dance-single:
     Melody Love:
     Beginner:
     3:
     0,0,0,0,0:
0000
0000
0000
0000
,
0000
0000
0000
0000
,
0000
0000
0000
0000
,
0000
0000
0000
0000
,
0000
0000
0000
0000
,
0000
0000
0000
0000
,
0000
0000
0000
0000
,
0000
0000
0000
0000
,
0000
1000
0000
0000
,
0000
0001
0000
0001
,
0000
0100
0000
0000
,
0000
0010
0000
0010
,
0000
1000
0000
0000
,
0000
0001
0000
0001
,
0000
0010
0000
0000
,
0000
0100
0000
0100
,
0000
2000
0000
3000
,
2000
0000
3000
0001
,
0000
0001
0000
0001
,
0000
0001
0200
0000
,
0300
0200
0000
0300
,
0010
0000
0010
0000
,
0010
0000
0000
0000
,
0100
0000
0000
0000
,
0100
0000
0000
0000
,
0010
0000
0000
0000
,
0010
0000
0000
0000
,
1000
0000
0000
0000
,
1000
0000
0000
0000
,
0001
0000
0000
0000
,
0001
0000
0000
0000
,
1000
0000
0000
0000
,
1000
0000
1000
0000
,
0010
0000
0000
0000
,
0010
0000
0010
0000
,
0100
0000
0000
0000
,
0100
0000
0100
0000
,
0001
0000
0000
0000
,
0001
0000
0000
0000
,
1000
0000
0000
0000
,
1001
0000
0000
0001
,
0000
1000
0000
0001
,
0000
0000
0000
1000
,
0000
0001
0000
1000
,
0000
0000
0000
0010
,
0000
0000
0000
0100
,
0000
0000
0000
0100
,
0000
0000
0000
0020
,
0030
0000
1000
0000
,
0001
0000
1000
0000
,
0000
0000
0001
0000
,
1000
0000
0001
0000
,
0000
0000
0100
0000
,
0100
0000
0010
0000
,
0000
0000
0010
0000
,
0010
0000
0100
0000
,
0000
0000
0001
0000
,
0000
1000
0000
0000
,
0000
0100
0000
0000
,
0010
0000
0000
0000
,
0001
0000
0000
0001
,
0000
0000
0000
1000
,
0000
0000
1000
0000
,
0000
0000
0001
0000
,
0001
0000
1000
0000
,
0000
0000
1000
0000
,
1000
0000
0001
0000
,
0000
0000
0100
0000
,
0000
0000
0001
0000
,
0000
0000
0010
0000
,
0000
0000
0100
0000
,
0000
0000
1000
0000
,
0000
0200
0000
0000
,
0000
0000
0310
0000
,
0001
0000
0010
0000
,
0000
0000
0100
0000
,
1000
0000
0100
0000
,
0000
0000
0010
0000
,
0000
0000
0100
0000
,
0000
0000
0100
0000
,
0000
0000
0020
0030
,
0000
0100
0000
0010
,
0000
0100
0000
0000
,
0000
0010
0000
0100
,
0000
0010
0000
0000
,
0000
0001
0000
0001
,
0000
0001
0000
0000
,
0000
1000
0000
1000
,
0000
1000
0000
0000
,
0000
0001
0000
0000
,
1000
0000
0000
0000
,
0010
0000
0000
0100
,
0000
0000
0000
0001
,
0000
0000
1000
0000
,
0000
0000
1000
0000
,
0000
0001
0000
1001
;

//--------------- dance-single - Melody Love ----------------
#NOTES:
     dance-single:
     Melody Love:
     Easy:
     6:
     0,0,0,0,0:
0000
0000
0000
0000
,
0000
0000
0000
0000
,
0000
0000
0000
0000
,
0000
0000
0000
0000
,
0000
0000
0000
0000
,
0000
0000
0000
0000
,
0000
0000
0000
0000
,
0000
0000
0000
0000
,
0000
1000
0000
1000
,
0000
1000
0100
0010
,
0001
0001
0000
0001
,
0000
0001
0010
0100
,
1000
1000
0000
1000
,
0000
1000
0010
0100
,
0001
0001
0000
0001
,
0000
0100
0010
1000
,
0001
0100
0100
0100
,
0010
0010
0010
1000
,
1000
0001
0001
1000
,
0001
0100
0010
0010
,
0010
0100
0100
0100
,
0001
0001
1000
1000
,
0020
0000
0000
0000
0000
0030
0000
0000
,
0100
0000
0100
0010
,
1000
0010
0100
0000
,
0001
0000
0001
0010
,
0100
1000
0100
0000
,
0010
0000
0010
0100
,
1000
0100
0010
0000
,
0001
0000
0001
0100
,
0010
0100
0010
0000
,
1000
1000
0001
0000
,
0001
0001
1000
0000
,
0010
0100
0010
0010
,
0100
0010
0200
0300
,
0001
0001
1000
0000
,
1000
1000
0001
0000
,
0001
0010
0100
1000
,
1000
0100
0010
0001
,
0001
0100
0010
1000
,
2200
3300
0000
1000
,
0100
0010
0100
1000
,
0010
0100
0010
1000
,
0100
0010
0001
0100
,
0010
1000
0000
0001
,
0002
0013
0000
1000
,
2000
3100
0000
0001
,
0002
0103
0000
0100
,
0100
0000
0001
0100
,
0010
0100
0001
0010
,
0100
0010
0001
0100
,
0010
1000
0100
0010
,
0001
0000
1000
2000
,
3010
0000
0001
0002
,
0103
0000
1000
2000
,
3100
0000
0100
0010
,
0100
0000
0010
0000
0001
0000
0000
1000
,
0000
2000
0001
3100
,
0000
0000
1000
0000
0000
0001
0000
0000
,
0002
1000
0103
0000
,
0100
0000
0000
0010
0000
0000
0200
0000
,
0010
0301
0000
0010
,
0000
0100
0000
0000
0200
0000
0010
0000
,
1300
0000
1000
1000
,
1000
0000
0002
0010
,
2003
0100
3001
0001
,
0001
0000
2000
0010
,
3002
0100
1003
1000
,
1000
0000
0001
0001
,
0001
0000
0100
0100
,
0010
0010
1000
1000
,
0001
0001
1001
0000
,
0000
0002
2003
3002
,
2003
0000
3001
0100
,
0010
0100
0001
0010
,
0100
0010
0001
0100
,
0010
1000
0100
0010
,
0001
0000
1000
0002
,
0013
0000
0001
2000
,
3100
0000
1000
0002
,
0103
0000
0100
0100
,
0000
0010
0010
0100
,
0100
0001
0001
1000
,
1000
0100
0100
0010
,
0010
0001
0001
1000
,
1000
0010
0100
0010
,
0010
0100
0010
0100
,
0100
0001
1000
0001
,
1000
0001
0001
1000
,
1000
0000
1001
0000
0000
0001
0000
0000
,
0002
1000
0103
0000
,
0001
0000
0000
1000
0000
0000
2000
0000
,
0001
3100
0000
0010
,
0000
0100
0000
0000
0020
0000
0100
0000
,
0031
0000
0000
0000
0100
0000
0000
0010
,
0000
0010
0100
0110
;

//--------------- dance-single - Melody Love ----------------
#NOTES:
     dance-single:
     Melody Love:
     Medium:
     10:
     0,0,0,0,0:
0000
0000
0000
0000
,
0000
0000
0000
0000
,
0000
0000
0000
0000
,
0000
0000
0000
0000
,
0000
0000
0000
0000
,
0000
0000
0000
0000
,
0000
0000
0000
0000
,
0000
0000
0000
1001
,
0000
0000
1000
0000
0100
0000
1000
0001
,
1000
0010
0100
0001
,
1000
0000
0001
0000
0100
0000
0001
1000
,
0001
0010
0100
1000
,
0001
0000
1000
0000
0100
0000
1000
0010
,
1000
0100
0010
0001
,
1000
0000
0001
0000
0100
0000
0001
0010
,
0001
0000
0100
0000
0010
0000
1000
0001
,
1000
0100
0100
1100
,
0010
0010
0011
0100
,
0010
0100
0010
1001
,
0100
1001
0010
0010
,
1010
0100
0100
0101
,
0010
0000
0100
0000
0010
1000
0002
0000
,
2000
0000
0000
0000
0000
3003
0000
0000
,
1000
0100
0001
0100
,
1000
0010
2010
0000
,
3001
0100
1000
0100
,
0001
0010
0012
0000
,
1003
0010
0001
0010
,
1000
0100
1000
0000
2100
0000
0000
0000
,
3001
0010
1000
0010
,
0001
0100
0001
0000
0102
0000
0000
0000
,
1003
0100
0010
0001
0100
0000
0000
0000
,
0001
0100
0010
1000
0100
0000
0000
0000
,
1000
0001
1000
0000
0001
1000
0001
0000
,
0100
0010
0110
0000
,
1000
0010
0100
0001
1000
0000
0000
0000
,
0001
0010
0100
1000
0001
0000
0000
0000
,
1010
0000
0010
0100
0010
0000
0100
0000
,
0101
0000
0100
0010
0100
0000
0010
0000
,
2002
0000
3003
0000
0001
1000
0001
1000
,
0020
0100
0130
0001
,
0100
0010
1000
0000
0100
0000
1000
0000
,
0100
0010
0001
0000
0100
0000
0100
0000
,
0010
0000
1000
0010
2000
0000
0010
0000
,
0001
0000
3100
0000
0000
0000
0010
0001
,
0010
0001
0010
0000
0010
0000
0100
1000
,
0100
1000
0100
0000
0100
0000
0010
0000
,
0100
0000
0010
0000
0100
0000
2000
3001
,
1001
0000
0000
0000
1000
0000
0010
0100
,
0001
0000
0010
0000
0001
0000
0010
0100
,
1000
0010
0010
0100
,
0001
0100
0002
0000
0010
0000
1000
0000
,
0103
0000
0200
0302
,
0203
2300
3200
0302
,
1003
0000
0100
0010
,
0100
0000
0010
0000
0001
1000
0001
0000
,
1000
0001
1000
0000
1002
0000
0000
0203
,
0000
0310
0010
0010
,
0000
0000
0210
0000
0000
0302
0000
0000
,
1003
0000
1000
0001
1000
0000
0000
0000
,
2001
0000
0000
3020
0000
0000
0130
0000
,
0100
0100
0000
0120
,
0000
2030
0000
0000
3001
0000
0001
1000
,
0001
0000
1000
0100
,
0010
0000
0001
0000
1000
0100
0010
0000
,
0100
0010
0001
0000
1000
0000
0010
0000
,
0100
0000
0001
0000
1000
0010
0100
0000
,
0010
0100
0001
0000
1000
0000
0100
0000
,
0010
0000
0001
0000
1000
0100
0010
0000
,
0100
0010
0001
0000
1000
0100
0010
0000
,
0010
0100
1000
0000
0001
0100
0010
0000
,
0010
0100
0001
0000
1001
0000
0000
0000
,
0000
0000
0100
0100
0001
0001
1000
1000
,
0020
0000
0000
0000
1030
0000
0001
0100
,
0010
1000
0001
0000
0001
0000
1000
0100
,
0010
0001
1000
0000
1000
0000
0100
0000
,
1000
0100
2000
0000
0010
0000
0001
0000
,
3100
0000
0000
0000
0100
1000
0100
1000
,
0100
0000
0010
0000
0010
0001
0010
0001
,
0010
0100
1000
0010
,
0100
0000
0001
0000
1000
0001
1001
0000
,
0000
1000
0100
1100
,
1100
0001
0100
0101
,
0101
1000
0010
1010
,
1010
0001
0010
0011
,
0011
0000
0010
0100
0010
0100
1000
0001
,
1000
0000
0100
0010
0100
0010
0001
1000
,
0001
0000
0100
0001
0100
0000
0010
1000
,
0010
0000
0100
0001
0100
0010
1000
0100
,
0010
0000
0002
0000
0000
0203
0000
0000
,
0310
1000
0001
1000
,
2001
0000
0000
3200
0000
0000
0310
0000
,
0001
0000
1000
0010
0010
0000
2010
0000
,
0000
3020
0000
0000
1030
0000
0010
0100
,
0001
0000
0100
0000
0102
0000
0000
0203
,
0000
0000
0301
0000
0010
0100
1000
0000
;

//--------------- dance-single - Melody Love ----------------
#NOTES:
     dance-single:
     Melody Love:
     Hard:
     14:
     0,0,0,0,0:
0000
0000
0000
0000
,
0000
0000
0000
0000
,
0000
0000
0000
0000
,
0000
0000
0000
0000
0000
0000
0000
0001
,
0001
0000
0000
0000
,
0000
0000
0000
0000
,
0000
0000
0000
0000
,
0000
0000
0000
1000
,
0000
0000
1100
0000
0200
0000
0310
0001
,
0010
0100
1000
0010
0001
0010
1000
0000
,
0200
0000
0310
0000
0002
0000
0103
0010
,
1000
0010
0100
0001
0010
1000
0010
0001
,
0100
0010
1000
0000
0200
0000
0310
0001
,
0100
0010
1000
0100
0001
0100
1000
0000
,
0020
0000
0130
0000
0002
0000
0013
0100
,
1000
0000
0010
0000
0100
0000
0001
0100
0001
0000
1000
0100
1000
0000
0001
0100
,
0001
1000
0001
0000
0100
0000
0201
0300
,
0001
0000
0010
0000
0012
0003
2000
0000
,
0100
3002
0010
0100
,
1003
0000
2010
3000
0001
0000
0100
0000
,
0201
0300
0010
0000
1000
0000
2010
3000
,
0002
0100
2003
0010
,
0100
0000
0000
0000
3001
0000
0000
0000
0001
0100
0001
1000
0100
0000
1000
0000
,
0002
0000
0000
0103
0000
0000
0010
0000
1000
0000
0100
0000
0010
0000
0100
0000
,
1000
0010
0100
0010
0200
0000
0301
0000
,
2000
0000
0000
3100
0000
0000
0010
0000
0001
0000
0100
0000
0010
0000
0100
0000
,
0001
0010
0100
0010
0200
0000
1300
0000
,
0002
0000
0000
0013
0000
0000
0100
0000
1000
0000
0010
0000
0100
0000
0010
0000
,
1000
0100
0010
0100
2000
0000
3010
0000
,
1000
0000
0000
1000
0010
0000
0100
0000
0001
0000
0010
0000
0100
0000
0010
0000
,
0001
0100
0010
1000
0001
0000
0000
0000
,
0001
0000
0100
0010
0100
0000
0001
0000
0010
0000
0010
0000
0100
0000
0100
0000
,
1000
0000
0100
0010
0100
0000
1000
0000
0010
0000
0010
0000
0100
0000
0100
0000
,
0001
1000
0100
1000
0100
0001
0100
0001
,
0100
1000
0001
2000
0002
0000
3003
0000
,
0001
0000
0010
0100
0010
0000
0001
0000
0100
0000
0100
0000
0010
0000
0010
0000
,
1000
0000
0010
0100
0010
0000
1000
0000
0100
0000
0100
0000
0010
0000
0010
0000
,
0001
0100
0010
1000
0100
0010
0001
0010
,
0100
1000
0010
0100
0001
0010
0100
1000
,
0100
0000
0010
0000
0001
0000
0100
0000
0010
1000
0010
0000
0100
0001
0100
0000
,
0020
0000
0000
0000
0100
0000
0000
0000
0130
0000
0000
0000
0002
0000
0000
0023
,
0000
0000
0230
0000
0000
0300
1000
0000
0200
0300
0200
0300
0002
0000
0000
0023
,
0000
0000
0230
0000
0000
0300
1000
0000
0200
0300
0200
0300
0001
0000
0000
0001
,
0100
0020
0000
2030
0000
3010
0000
0100
,
0001
0020
0001
0000
0130
0010
0100
0000
,
1000
0010
0000
0010
1000
0100
0000
0100
,
0010
0000
0001
0000
0000
0000
0001
0000
0010
0000
0100
0000
1000
0000
0000
1000
,
0010
0000
0200
0000
0000
0300
0001
0000
0010
0000
1000
0000
0020
0000
0130
0000
,
0110
0000
0000
0000
0000
0000
0000
0000
2000
0000
0000
3020
0000
0000
0230
0000
,
0000
0300
0001
0000
0200
0300
0200
0300
2000
0000
0000
3020
0000
0000
0230
0000
,
0000
0300
0001
0000
0200
0300
0200
0300
1000
0000
0000
1000
0010
0000
0200
0000
,
0000
0302
0000
0103
0000
0010
1000
0200
,
1000
0000
0310
0100
2000
0000
3100
0200
,
0000
0302
0000
0023
0000
1030
0010
0001
,
0000
0000
0001
0000
0010
0000
1000
0000
0100
0000
0000
0100
0010
0000
0001
0000
,
0000
0010
1000
0010
0001
1000
0001
0100
,
0001
0010
0001
1000
0100
0000
0001
1100
,
0000
0001
1100
0001
0100
0010
1000
0000
,
0001
0000
0101
0000
1000
0101
0000
1000
,
0101
1000
0010
0100
0001
0010
0010
0000
,
0110
0000
0001
0110
0000
0001
0110
0100
,
0010
0010
0001
0000
1000
0000
1001
0000
,
0010
1001
0000
0010
1001
1000
0010
0010
,
0100
0000
0000
0000
0000
0000
0000
0000
0100
0000
0001
0010
0100
0000
1000
0000
,
0010
0000
0100
0000
0001
0000
0010
0000
0100
0010
0100
0000
1000
0000
0001
0000
,
0100
0010
0100
0000
0001
0000
1000
0000
0100
0000
1000
0100
0010
0000
0001
0000
,
0100
0000
0010
0000
1000
0000
0100
0000
0010
0100
0010
0000
0001
0000
1000
0000
,
0010
0100
0010
0000
1000
0000
0001
0000
1000
0000
0010
0100
0001
0000
0010
0000
,
0100
0000
1000
0000
0100
0000
0010
0000
0001
0010
0001
0000
0100
0000
0010
0000
,
1000
0010
1000
0000
0010
0000
0100
0000
0001
0010
0100
0000
1000
0000
0010
0000
,
1000
0010
0100
0000
0001
0000
0010
0000
0001
0100
0010
0000
1000
0000
0100
0000
,
1000
0100
0010
0000
0001
0000
0100
0000
0020
0000
0000
0000
1000
0000
0000
0000
,
1030
0000
2000
3200
0302
0023
2030
3200
,
0320
0000
0000
0000
0000
0000
0000
0000
0230
0000
0000
2300
0000
0000
3001
0000
,
0020
0030
0020
0030
1000
0000
0200
0300
0200
0000
0000
0302
0000
0000
1003
0000
,
0200
0300
0200
0300
0001
0000
0020
0030
0020
0000
0000
0030
1000
0000
0002
0000
,
0000
0203
0000
0310
0000
0100
0010
2000
,
0010
0000
0000
0000
3001
0000
0010
0000
0100
0000
0000
0100
0010
0000
0001
0000
,
0000
0001
0010
1000
0000
1000
0010
0001
,
0000
0000
0001
0000
1000
0000
0010
0000
0100
0000
0000
0100
0001
0000
0020
0000
,
0000
0030
0001
0000
0100
0000
1000
0000
0200
0000
0310
0000
0110
0000
0000
0000
,
0000
0000
0000
0000
1000
0000
0001
0000
0200
0300
0200
0300
1000
0000
0001
0000
,
0200
0300
0200
0300
1000
0000
0001
0000
0020
0030
0020
0030
1000
0000
0001
0000
,
0020
0030
0020
0030
1000
0000
0010
0000
1000
0000
0100
0000
0010
0000
0001
0000
,
0100
0010
1000
0010
0100
0001
0010
0100
,
1000
0000
0001
0000
0100
0000
0010
0100
0001
0000
0010
0000
1000
0000
0010
0000
,
0100
0000
0010
0000
0001
0000
0100
0010
1000
0000
0100
0000
0001
0000
0100
0000
,
0010
0100
1000
0010
0100
0001
0010
1000
,
0010
0000
0100
0000
0010
0100
1000
0000
0010
0100
0001
0000
0010
0100
1000
0000
,
0010
0100
0001
1000
0010
0000
0000
0000
1000
0000
0101
0000
0000
0000
1000
0000
,
0011
0001
0010
0100
1000
0000
0001
0000
,
1010
0000
0001
1100
0000
0001
1010
1000
,
0010
0100
0001
0010
0010
0000
0110
0000
,
1000
0110
0000
0001
0110
0100
0010
0001
,
1000
0000
0010
0000
1001
0000
0100
1001
,
0000
0010
1001
1000
0010
0100
0101
0000
;

//--------------- dance-single - Melody Love ----------------
#NOTES:
     dance-single:
     Melody Love:
     Challenge:
     16:
     0,0,0,0,0:
0000
0000
0000
0000
,
0000
0000
0000
0000
,
0000
0000
0000
0000
,
0000
0000
0000
0000
0000
0000
0000
0001
,
0001
0000
0000
0000
,
0000
0000
0000
0000
,
0000
0000
0000
0000
,
0000
0000
0000
1000
,
0000
0000
0000
0000
1100
0000
0000
0000
0100
0000
0000
0010
0001
0000
1000
0000
,
0100
0000
0010
0000
0001
0000
0100
0001
0100
0000
0010
0000
0010
0000
0000
0000
,
1000
0000
0000
0000
1010
0000
0000
0000
0010
0000
0000
0100
0001
0000
1000
0000
,
0010
0000
0100
0000
0001
0000
0010
0001
0010
0000
0100
0000
0100
0000
1000
0000
,
0001
0000
0100
0000
0101
0000
0000
0000
0100
0000
0000
0010
1000
0000
0001
0000
,
0100
0000
0010
0000
1000
0000
0100
1000
0100
0000
0010
0000
0010
0000
0000
0000
,
0001
0000
0000
0000
0011
0000
0000
0000
0010
0000
0000
0100
1000
0000
0001
0000
,
0010
0000
0100
0000
1000
0000
0010
1000
0010
0000
0100
0001
0100
0010
1000
0100
,
0010
0001
0010
0100
1000
0000
0000
0000
0100
0000
0000
0000
1200
0000
0000
0000
,
0301
0100
0201
2300
,
3200
0302
0203
2300
,
3010
2010
3001
0100
,
0201
1300
0100
1200
,
0302
0203
2300
3200
,
0302
0000
0000
0000
0103
0000
0000
0000
0001
0100
0001
1000
0010
1000
0100
0010
,
0001
0000
0000
0001
0010
0000
0100
0000
0010
0000
0001
0000
0100
0000
0010
0000
,
0100
0001
0010
1000
0020
0001
0130
0000
,
0100
0000
0000
1000
0010
0000
0100
0000
1000
0000
0100
0000
0010
0000
1000
0000
,
0100
0001
0100
1000
0020
0100
1030
0000
,
1000
0000
0000
1000
0100
0000
0010
0000
0100
0000
1000
0000
0010
0000
0100
0000
,
0010
1000
0100
0001
0200
1000
0310
0000
,
0010
0000
0000
0001
0010
0000
0100
0000
0010
0000
1000
0000
0010
0000
0001
0000
,
0100
0010
0100
0001
2000
0100
3001
0000
,
0001
0000
0100
0010
0100
0000
0001
0000
1000
0000
0100
0010
0100
0000
1000
0000
,
0001
0000
0100
1000
0100
0000
0001
0000
1000
0000
0100
0001
0100
0000
1000
0000
,
0100
1000
0100
0100
0010
0001
0010
0010
,
0002
0100
2003
0100
3002
0010
2003
0010
,
3001
0000
0010
0100
0010
0000
0001
0000
1000
0000
0010
0100
0010
0000
1000
0000
,
0001
0000
0010
1000
0010
0000
0001
0000
1000
0000
0010
0001
0010
0000
1000
0000
,
1100
0100
0010
0001
0010
0100
1000
0010
,
0101
0001
0100
0010
1000
0100
0010
0001
,
0011
0000
0001
0000
0100
0000
0010
0000
0100
0010
1000
0001
0010
0100
1000
0001
,
0200
0000
0000
0000
1000
0000
0000
0000
1300
0000
0000
0000
0010
0000
0000
0100
,
0001
0000
0020
0030
0020
0030
1000
0000
0100
0000
0100
0000
0010
0000
0000
0010
,
0001
0000
0200
0300
0200
0300
1000
0000
0010
0000
0010
0000
0100
0000
0000
0100
,
0001
0000
0020
0000
0000
0000
0230
0000
0000
0000
1300
0000
0000
0000
0010
1000
,
0100
0000
0020
0000
0000
0000
0001
0000
0100
0000
0031
0000
0001
0000
0000
0010
,
0100
0000
1000
0000
0000
0000
1000
0100
0010
0000
0001
0000
0000
0000
0001
0100
,
0010
0000
1000
0000
0000
0000
1000
0010
0100
0000
0001
0000
0101
0000
0000
0001
,
0010
0200
0000
1000
0310
0001
0102
1000
,
0013
0000
0000
0001
0100
0000
0010
0000
0100
0000
0000
0010
1000
0000
0200
0300
,
0200
0300
0001
0000
0010
0000
0010
0000
0100
0000
0000
0100
1000
0000
0020
0030
,
0020
0030
0001
0000
0100
0000
0100
0000
0010
0000
0000
0010
1000
0000
0200
0000
,
0000
0000
0320
0000
0000
0000
0031
0000
0000
0000
0100
0001
0010
0000
0200
0000
,
0000
1000
0010
1300
2000
0000
3200
0302
,
0000
0000
0023
0000
0000
0000
1030
0000
0000
0000
1000
0010
0100
0000
0001
0000
,
0000
0000
0001
0100
0010
0000
1000
0000
0100
0000
0000
0100
0010
0000
0001
0000
,
0000
0010
0100
1000
0001
1000
0010
0001
,
0010
1000
0100
0001
0201
0300
1000
1200
,
0000
0301
0100
1000
0100
0001
0100
0000
,
1000
0000
1020
0030
0001
0021
0000
1030
,
0010
0001
0010
1000
0010
0100
0100
0000
,
0201
0300
1000
1200
0000
0301
0100
1000
,
0100
0001
0010
0000
1000
0000
1020
0030
,
0001
0021
0000
1030
0010
0001
0010
0100
,
1000
0000
0000
0000
0001
0000
0000
0000
0101
0000
0001
0010
0001
0000
1000
0000
,
0100
0000
0010
0000
0001
0000
0010
0000
0100
1000
0100
1000
0010
0000
0010
0000
,
0100
0001
0100
0001
0010
0000
0010
0000
0100
0000
1000
0010
1000
0000
0001
0000
,
0100
0000
0010
0000
1000
0000
0100
0000
0010
0001
0010
0001
0100
0000
0100
0000
,
0010
1000
0010
1000
0100
0000
0100
0000
0010
0000
0100
1000
0100
0000
0010
0000
,
0001
0000
0100
0000
0010
0000
1000
0000
0100
0010
0100
0010
0001
0000
0001
0000
,
0100
0010
0100
0010
1000
0000
1000
0000
0010
0100
0001
0010
0100
0000
0100
0000
,
0010
0100
1000
0010
0100
0000
0100
0000
0010
0100
0001
0010
0100
0000
0100
0000
,
0010
0100
1000
0010
0100
0000
0100
0000
0020
0000
0000
0000
0001
0000
0000
0000
,
1030
0000
0200
0302
0023
2030
3200
0302
,
2003
0000
0000
0000
0000
0000
0000
0000
3010
0000
0000
0100
0001
0000
0020
0030
,
0020
0030
1000
0000
0200
0300
0200
0300
0001
0000
0000
0001
1000
0000
0020
0030
,
0020
0030
0001
0000
0200
0300
0200
0300
1000
0000
0000
1000
0100
0000
0020
0000
,
0000
0000
0032
0000
0000
0000
1003
0000
0000
0000
0010
1000
0100
0000
0020
0000
,
0000
0000
0001
0000
0100
0000
0031
0000
1000
0000
0000
1000
0010
0000
0001
0000
,
0000
0000
0001
0010
1000
0000
0001
0000
0000
0000
1000
0001
0010
0000
1000
0000
,
0000
0000
1000
0010
0001
0000
1000
0000
0010
0000
0000
0010
0100
0000
0002
0000
,
0000
0000
0100
0000
0010
0000
1003
0000
2100
0000
0001
0000
3010
0000
0000
1000
,
0001
0000
1000
0000
0200
0300
0200
0300
0010
0100
0001
1000
0010
0000
0100
0000
,
0001
0000
1000
0000
0020
0030
0020
0030
0100
1000
0001
0010
0100
0000
1000
0000
,
0001
0000
0100
0000
0010
0000
1000
0000
0020
0030
0020
0030
0001
0000
1000
0000
,
0200
0300
0200
0300
0001
0000
1000
0000
0020
0030
0020
0030
0001
0000
1000
0000
,
0200
0300
0200
0300
0001
0000
0010
0100
1000
0000
0010
0000
0100
0000
0001
0000
,
0010
0000
0100
0000
1000
0000
0100
0010
0001
0000
0100
0000
0010
0000
1000
0000
,
0100
0000
0010
0000
0001
0000
0010
0000
0100
0000
1000
0010
0100
0000
0001
0100
,
0010
0000
1000
0000
0010
0100
0001
0010
0100
1000
0010
0100
0010
1000
0100
0010
,
0001
0100
0010
1000
0200
0000
0300
0000
1000
0000
0012
0000
0000
0000
0103
0000
,
1000
0100
0001
0010
1000
0000
0010
0000
,
0021
0030
0001
2100
0000
3010
0001
0010
,
1000
0100
0001
0100
0100
0000
0201
0300
,
1000
2100
0000
3001
0100
1000
0100
0001
,
0010
0000
1000
0000
1020
0030
0001
0011
,
0000
0002
0203
2300
3020
0031
0011
0000
;
