#TITLE:Your Rain;
#SUBTITLE:;
#ARTIST:Akira Yamaoka & Mary Elizabeth McGlynn;
#CREDIT:;
#MUSIC:Akira Yamaoka & Mary Elizabeth McGlynn - Your Rain.ogg;
#SELECTABLE:YES;
#BACKGROUND:;
#BANNER:;
#CDTITLE:;
#DISPLAYBPM:94.000:94.000;
#OFFSET:-0.636939;
#SAMPLESTART:60.956;
#SAMPLELENGTH:20.745;
#BPMS:0=94.0031,1=93.9998,2=94.0031,3=93.9998,5=94.0031,6=93.9998,11=94.0031,12=93.9998,14=94.0031,15=93.9998,26=94.0031,27=93.9998,30=94.0031,31=93.9998,41=94.0031,42=93.9998,49=94.0031,50=93.9998,57=94.0031,58=93.9998,65=94.0031,66=93.9998,111=94.0031,112=93.9998,148=93.9964,149=93.9998,157=94.0031,158=93.9998;
#STOPS:;

//---------------dance-single - ----------------
#NOTES:
     dance-single:
     :
     Hard:
     11:
     0.000,0.000,0.000,0.000,0.000:
0000
0000
0000
0000
,
0000
0000
0000
0000
,
0000
0000
0000
0000
,
0000
0000
0000
0000
0000
0000
0001
0010
,
0001
2000
0000
3000
0200
0300
0010
0001
,
1000
0020
0000
0030
1000
0200
0000
0000
,
0300
0000
0000
0000
0002
0003
2000
3000
,
0000
0020
0000
0030
0002
1003
1000
0010
,
1000
0002
0000
0003
0020
0030
0100
1000
,
0001
0020
0000
0030
2000
3000
0002
0000
,
0000
0003
0000
0000
0200
0300
2000
3000
,
0000
0000
1001
0010
1000
0001
1002
0000
,
0000
0000
0000
0000
0020
0003
0000
0000
0000
0000
0000
0000
0000
0000
0000
0000
0200
0030
0000
0000
0000
0000
0000
0000
2300
0000
0000
0000
0000
0000
0000
0000
,
3000
0000
0020
0000
0000
0000
0000
0000
0032
0000
0000
0003
0020
0000
0000
0000
,
0200
0030
0000
0000
0302
0000
0000
0000
0000
0000
0000
0000
0023
0000
0000
0000
0230
0000
0000
0000
0000
0000
0000
0000
0000
0000
0000
0000
0000
0000
0000
0000
,
1300
0000
0001
0000
1000
0001
1000
0000
0001
0000
0100
0010
0200
0000
0000
0000
,
0000
0000
0000
0000
0320
0000
0000
0000
0000
0000
0000
0000
0000
0000
0000
0000
2000
0030
0000
0000
3000
0000
0000
0000
0200
0000
0000
0000
0000
0000
0000
0000
,
0000
0000
0320
0000
0000
0000
0000
0000
2030
0000
0000
3000
0020
0000
0000
0000
,
0032
0203
0300
0020
2030
0000
0000
0000
,
3001
1000
1001
0001
0010
0100
2000
0000
,
3001
0000
1000
0100
1000
0000
0010
0000
0100
0000
0001
1000
0001
0000
0010
0000
,
0100
0000
0010
0001
1000
0000
0010
1000
0001
0000
0010
0001
1000
0000
0010
0000
,
1000
0000
0001
1000
0001
0000
0100
0000
0010
0000
1000
0010
1000
0000
0100
0000
,
0010
0000
0001
0010
0001
0000
0100
0010
1000
0010
1000
0001
0100
0000
0100
0000
,
0010
0000
1000
0001
1000
0000
0100
0000
1000
0000
0001
0100
0001
0000
0010
0000
,
0100
0000
2000
0000
0010
0000
3002
0000
1000
0000
1003
0010
1000
0000
0010
0000
,
0100
0000
0001
1000
0001
0000
0010
0000
0100
0000
1000
0010
1000
0000
0001
0000
,
1000
0000
0020
0000
0100
0000
0100
0000
0130
0000
0010
0100
0001
0000
1000
0000
,
0100
0000
0010
0001
0010
0000
0001
0000
0100
0000
0010
1000
0010
0000
0100
0000
,
0010
0000
0200
0000
0001
0000
0320
0000
1000
0000
1030
0001
1000
0000
0001
0000
,
0010
0000
0001
0100
0001
0000
0100
0000
0010
0000
1000
0010
2000
0000
0000
0000
,
3200
0320
0000
0000
0032
2003
3001
0001
,
1000
0100
0000
0100
1000
0000
0001
1000
0001
0000
0000
0000
0100
0000
0001
0000
,
0100
0010
0000
0010
1000
0000
0001
0100
0001
0000
0000
0000
1000
0000
0100
0000
,
0010
0001
0000
0001
1000
0000
0010
0100
0010
0000
0000
0000
1000
0000
0001
0000
,
0010
0100
0000
0100
1000
0000
0001
1000
0001
1000
0001
0000
2001
0000
0000
0000
,
0000
3020
0000
0000
0230
0000
0302
0000
,
0003
0000
0020
0000
0000
0000
0000
0000
2030
0000
0000
3000
0020
0000
0000
0000
,
0230
2300
0000
3002
0203
0000
0000
0000
,
0301
1001
0000
1000
0001
0010
0020
0000
,
0000
2030
0000
0000
3200
0000
0302
0000
,
0000
0023
0000
0000
0032
0000
2003
0000
,
3200
0320
0030
0002
2003
0000
0000
0000
,
3010
0010
0100
0010
1001
0000
2000
0000
,
3001
0000
1000
0100
2000
0000
0010
0000
3010
0000
0001
1000
0002
0000
0100
0000
,
0103
0000
0001
0010
0100
0000
1000
0100
0010
0000
0001
0010
0200
0000
1000
0000
,
1300
0000
0001
1000
0002
0000
0100
0000
0103
0000
0010
0100
0020
0000
1000
0000
,
1030
0000
0001
1000
0002
0000
1003
0001
1000
0001
0100
0010
0100
0000
0100
0000
,
0010
0000
1000
0001
0010
0000
0001
0000
1000
0000
0001
0100
0010
0000
1000
0000
,
0100
0000
0020
0000
0001
0000
0230
0000
1000
0000
1300
0001
0100
0000
0010
0000
,
1000
0000
0100
0010
0001
0000
0100
0000
0001
0000
1000
0010
0100
0000
0001
0000
,
1000
0000
0002
0000
0100
0000
1000
0000
0103
0000
0001
0100
0010
0000
1000
0000
,
0100
0000
0010
0001
1000
0000
0001
0000
0100
0000
0010
1000
0001
0000
1000
0000
,
0010
0000
2000
0000
0001
0000
3020
0000
0100
0000
1030
0001
0010
0000
0100
0000
,
1000
0000
0001
0100
0010
0000
1000
0000
0001
0000
0010
0100
2000
0000
0000
0000
,
3002
0203
0000
0000
0320
2030
0002
0000
,
0000
0000
0000
0000
0000
3003
0000
0000
,
0000
0000
0000
0000
;

//---------------dance-single - ----------------
#NOTES:
     dance-single:
     :
     Challenge:
     13:
     0.000,0.000,0.000,0.000,0.000:
0000
0000
0000
0000
,
0000
0000
0000
0000
,
0000
0000
0000
0000
,
0000
0000
0000
0000
0000
0000
0001
0010
,
0001
2000
0000
3000
0200
0300
0010
0001
,
1000
0020
0000
0030
1000
0200
0000
0000
,
0300
0000
0000
0000
0002
0003
2000
3000
,
0000
0020
0000
0030
0002
1003
1001
0010
,
1000
0002
0000
0003
0020
0030
0100
1000
,
0001
0020
0000
0030
2000
3000
0002
0000
,
0000
0003
0000
0000
0200
0300
2000
3000
,
0000
0000
1001
0010
1001
1010
1002
1000
,
1000
0000
0000
0000
0020
0003
0000
0000
0100
0000
0000
0000
0100
0000
0000
0000
0002
0030
0000
0000
1000
0000
0000
0000
0200
0003
0000
0000
0001
0000
0000
0000
,
0301
0000
0000
0000
2000
0000
0000
0000
0010
0000
0000
0000
0010
0000
0000
0000
0002
3000
0000
0000
1000
0000
0003
0000
0021
0000
0000
0000
0001
0000
0000
0000
,
0200
0030
0000
0000
2300
0000
0000
0000
0001
0000
0000
0000
0020
3000
0000
0000
0230
0000
0000
0000
0001
0000
0000
0000
0001
0000
0000
0000
0001
0000
0000
0000
,
0010
0000
0300
0000
0000
0000
1000
0000
0000
0000
0000
0000
0001
0000
0000
1000
0000
0000
0100
0000
0000
0000
0000
0000
1001
0000
0000
0000
0000
0000
0001
0000
0000
0100
0000
0000
0120
0000
0000
0000
0000
0000
1000
0000
0000
0000
0000
0000
,
1000
0000
0000
0000
0200
0030
0000
0000
0010
0000
0000
0000
0010
0000
0000
0000
0002
0300
0000
0000
0013
0000
0000
0000
0200
0000
0000
0000
1000
0000
0000
0000
,
1000
0000
0000
0000
0020
0300
0000
0000
0100
0000
0000
0000
0100
0000
0000
0000
0002
0030
0000
0000
0100
0000
0003
0000
2001
0000
0000
0000
0001
0000
0000
0000
,
0020
3000
0000
0000
0230
0000
0000
0000
0301
0000
0000
0000
0200
0000
0000
0000
0320
0000
0000
0000
1000
0000
0000
0000
1000
0000
0000
0000
1000
0000
0000
0000
,
0100
0030
0000
0010
0000
0000
1001
0000
0000
0011
0000
0000
0011
0000
0000
1001
0000
0000
2000
0000
0000
0000
0000
0000
,
3001
0000
0000
0000
1000
0000
0100
0000
0020
0000
0000
0000
0001
0000
0000
0000
0100
0030
0000
0000
0010
0000
0001
0000
2000
0000
0000
0000
0010
0000
0000
0000
,
0001
3000
0000
0000
0010
0000
0001
0000
0100
0000
0000
0000
0010
0000
1000
0000
0100
0000
0000
0000
0010
0000
0001
0000
0200
0000
0000
0000
0010
0000
0000
0000
,
0001
0300
0000
0000
1000
0000
0001
0000
0020
0000
0000
0000
0001
0000
0000
0000
0100
0030
0000
0000
1000
0000
0010
0000
0200
0000
0000
0000
0001
0000
0000
0000
,
0010
0300
0000
0000
1000
0000
0001
0000
0020
0000
0000
0000
0031
0000
1000
0000
0010
0000
0010
0000
1000
0000
0001
0000
1001
0000
0000
0000
0010
0000
0000
0000
,
0011
0000
0001
0010
0100
0010
0001
0000
1001
0000
1000
0001
0100
0010
1000
0000
,
1100
0000
0100
0000
1000
0010
1000
0001
0010
0000
0001
1000
0010
0000
0010
0000
,
0110
0000
0100
0001
1000
0100
0010
0000
0011
0000
0001
0100
0010
0000
1000
0000
,
1001
0000
0001
1000
0001
0100
0100
0010
1000
0000
0010
0010
1001
0000
1000
0000
,
1100
0000
0100
0010
0001
1000
0001
0000
0011
0000
0010
0001
1000
0000
0010
0000
,
0110
0000
0100
0010
1000
0001
0010
0000
0011
0000
0001
0100
0001
0000
1000
0000
,
1001
0000
0001
0010
0100
1000
0001
0000
1001
0000
1000
0010
0100
0000
0100
0000
,
0110
0000
0010
0010
1000
0010
0100
0001
1000
0100
1000
0001
0011
0000
0001
0000
,
1000
0100
0000
0100
1000
0010
0001
0010
1000
0100
0000
0000
1000
0001
1000
0000
,
0010
0100
0000
0100
0010
0100
1000
0100
0010
1000
0000
0001
0010
0001
1000
0000
,
0100
1000
0000
1000
0001
0010
1000
0010
0100
1000
0000
0001
1000
0100
1000
0000
,
0001
0100
0000
0010
1000
0001
0100
0010
0100
0100
0010
0010
2001
0000
0000
0000
,
0001
0000
0000
0000
0200
3000
0000
0000
0010
0000
0000
0000
0010
0000
0000
0000
2000
0300
0000
0000
0001
0000
0000
0000
0020
3000
0000
0000
0100
0000
0000
0000
,
0130
0000
0000
0000
0002
0000
0000
0000
1000
0000
0000
0000
1000
0000
0000
0000
0200
0003
0000
0000
0010
0000
0000
0000
0020
0300
0000
0000
1000
0000
0000
0000
,
0200
0030
0000
0000
0302
0000
0000
0000
0010
0000
0000
0000
2003
0000
0000
0000
3200
0000
0000
0000
0010
0000
0000
0000
0010
0000
0000
0000
0010
0000
0000
0000
,
1000
0300
0000
0000
1001
0000
0000
0000
0000
0000
0000
0000
1000
0000
0000
0000
1010
0000
0000
0000
0010
0000
0000
0000
0120
0000
0000
0000
0000
0000
0000
0000
,
0100
0000
0000
0000
2000
0030
0000
0000
0001
0000
0000
0000
0001
0000
0000
0000
0200
3000
0000
0000
0010
0000
0000
0000
2000
0300
0000
0000
0001
0000
0000
0000
,
0001
0000
0000
0000
0020
3000
0000
0000
0100
0000
0000
0000
0130
0000
0000
0000
0002
0000
0000
0000
1000
0000
0000
0000
0200
0003
0000
0000
0001
0000
0000
0000
,
0020
0300
0000
0000
2030
0000
0000
0000
0010
0000
0000
0000
0200
3000
0000
0000
0320
0000
0000
0000
0100
0000
0000
0000
0100
0000
0000
0000
0100
0000
0000
0000
,
0001
0000
0000
0000
0100
0000
0000
0000
0100
0030
0000
0000
0010
0000
0000
0000
1001
0000
0000
0000
0000
0000
0000
0000
2000
0000
0000
0000
0000
0000
0000
0000
,
3100
0000
0000
0000
1000
0000
0001
0000
0020
0000
0000
0000
1000
0000
0000
0000
0001
0030
0000
0000
1000
0000
0001
0000
0200
0000
0000
0000
1000
0000
0000
0000
,
0010
0300
0000
0000
1000
0000
0100
0000
0001
0000
0000
0000
0001
0000
0100
0000
1000
0000
0000
0000
1000
0000
0010
0000
0200
0000
0000
0000
1000
0000
0000
0000
,
0010
0300
0000
0000
1000
0000
0100
0000
0020
0000
0000
0000
1000
0000
0000
0000
0001
0030
0000
0000
0001
0000
1000
0000
0020
0000
0000
0000
0001
0000
0000
0000
,
1030
0000
0001
0010
0001
0000
1000
1000
0001
0001
0100
0010
0110
0000
1001
0000
,
0101
0000
0100
0010
0001
0010
1000
0000
0011
0000
0001
0010
0100
0000
1000
0000
,
1001
0000
0001
0100
1000
0100
0001
0000
0101
0000
0100
0001
1000
0000
0010
0000
,
1001
0000
1000
0100
0001
0100
0010
0000
0110
0000
0100
1000
0001
0000
0010
0000
,
0011
0000
0001
0000
1000
0100
0100
1000
0001
0000
0010
0010
1001
0000
0101
0000
,
0011
0000
0001
0010
1000
0010
0001
0000
1001
0000
1000
0001
0100
0000
0010
0000
,
0110
0000
0100
0000
0001
0010
0100
0000
1100
0000
1000
0001
0100
0000
0001
0000
,
1001
0000
1000
0010
0001
0010
0100
0000
0110
0000
0010
1000
0001
0000
0100
0000
,
1001
0000
1100
1000
0001
0010
0100
1000
0001
0100
0001
0010
0022
0000
0000
0000
,
0000
0000
0000
0000
0000
0000
0000
0033
,
0000
0000
0000
0000
;
