#VERSION:0.83;
#TITLE:You Mean the World to Me;
#SUBTITLE:;
#ARTIST:Mameyudoufu feat. Shully;
#TITLETRANSLIT:;
#SUBTITLETRANSLIT:;
#ARTISTTRANSLIT:;
#GENRE:;
#CREDIT:;
#MUSIC:You Mean the World to Me.ogg;
#BANNER:You Mean the World to Me-bn.png;
#BACKGROUND:You Mean the World to Me-bg.png;
#CDTITLE:;
#SAMPLESTART:89.677;
#SAMPLELENGTH:10.667;
#SELECTABLE:YES;
#OFFSET:1.323;
#BPMS:0.000=180.000;
#STOPS:;
#BGCHANGES:;
#FGCHANGES:;

//--------------- dance-single - SJ XO ----------------
#NOTEDATA:;
#STEPSTYPE:dance-single;
#DESCRIPTION:SJ XO;
#DIFFICULTY:Hard;
#METER:13;
#RADARVALUES:0,0,0,0,0;
#CREDIT:Talkion;
#NOTES:
0000
0000
0000
0000
,
0000
0000
0000
0000
,
0000
0000
0000
0000
,
0000
0000
0000
0000
,
1000
0000
0000
0100
0000
0000
0010
0000
0000
0000
0100
0000
1001
0000
0000
0000
,
1010
0000
0000
0011
0000
0000
1200
0000
,
0000
0000
0000
0310
0002
0000
1003
0000
,
1010
0000
0000
0011
0000
0000
1100
0000
,
0000
0101
0000
0000
1020
0000
0130
0000
,
0101
0000
0000
1100
0000
0000
0021
0000
,
0000
0000
0000
0130
2000
0000
3001
0000
,
0101
0000
0000
1100
0000
0000
0011
0000
,
0000
1010
0010
0100
0010
1000
0001
0000
,
0010
0000
0010
0000
0010
0010
0100
1000
,
0000
0001
0100
0020
0000
0130
0001
0010
,
0100
0000
1000
0000
0001
0100
0010
1000
,
0000
0100
0010
0002
0000
0003
1000
1000
,
0010
0000
0010
0000
0010
0100
0001
0020
,
0000
0130
1000
0020
0000
0130
1000
0100
,
0010
1000
0100
1100
0000
0010
0012
0000
,
0000
1003
0001
1000
0001
0100
0020
0030
,
1001
0000
0000
0000
,
0000
0000
2000
0100
3001
1000
0010
0100
,
0000
0001
1000
0010
1000
0100
0010
0002
,
0000
0100
0000
2003
0000
3100
0001
0000
,
0100
1000
0001
0100
0001
0010
0100
1000
,
0000
1010
0000
0101
0000
0100
0010
0100
,
0002
0000
1003
0100
1000
0010
0100
0002
,
0000
0010
0000
1003
0100
0010
1000
0000
,
0110
0010
0001
0000
0001
1000
0010
0100
,
0000
0101
0000
1010
0000
1000
0001
0010
,
0100
1000
0100
0010
0000
0011
0000
1001
,
0000
1010
0000
0201
0000
0310
0001
0000
,
0010
0100
0001
0100
0010
0000
1000
0100
,
0000
1100
0000
0011
0000
0000
0001
1000
,
0020
0000
0230
0000
0320
0000
1030
0100
,
0000
0200
0000
1300
0010
0100
1000
0100
,
0001
0000
0001
0000
0001
0000
1000
0100
,
0000
0010
0000
0010
0000
0000
0001
0100
,
0001
0000
1000
0100
1000
0000
0010
0100
,
0000
0001
0010
0002
0000
1003
0010
1000
,
0100
0000
1000
0000
1000
0000
0001
0010
,
0000
0100
0000
0100
0000
0000
1000
0010
,
0100
0000
1000
0100
0000
0010
0000
0002
,
0000
0000
0000
0013
0100
0010
1000
0000
,
0100
0000
0100
0000
0100
0010
0001
0200
,
0000
0310
1000
0100
0000
1000
0010
0002
,
0000
0013
1000
0002
0000
1003
0100
0002
,
0000
1003
0010
0002
0000
0103
0010
0010
,
1000
0000
0100
0010
0001
0010
0100
2000
,
0000
3001
0100
0020
0000
1030
0010
0100
,
0101
0001
0010
0110
0000
0100
1100
2000
,
0000
0000
0000
3000
,
1001
0000
0000
0000
0001
0000
0000
0000
0010
0000
0000
0001
0000
0000
0200
0000
,
0000
0310
0000
1000
0100
0010
1000
0000
,
0110
0000
0000
0000
0010
0000
0001
0000
1001
0000
0000
0101
0000
0000
1010
0000
,
0000
0000
2000
0000
0100
0000
0000
3001
0000
0000
0010
0000
0100
0000
0010
0000
,
0001
0000
0000
0000
0001
0000
0100
0000
0001
0000
0000
0011
0000
0000
2010
0000
,
0000
3100
0000
0102
0000
0013
0100
1000
,
1010
0000
0000
0000
0101
0000
0000
0000
1001
0000
0000
0110
0000
0000
1002
0000
,
0000
0013
1000
0010
0011
0000
1100
0000
,
1001
0001
0100
0001
1000
0100
0010
0012
,
0000
0103
0000
2100
0000
3010
0000
0100
,
0001
0000
0010
0000
0001
0000
0100
0000
0001
0000
0000
0011
0000
0000
2100
0000
,
0000
3010
0001
0020
0000
1030
0100
0010
,
0011
0000
0000
0000
0001
0000
0100
0000
0020
0000
0000
0130
0000
0000
2001
0000
,
0000
3100
0000
0010
0110
0000
1001
0000
,
0102
0000
0013
0000
1100
1000
0010
0002
,
0000
2003
3200
0320
,
1030
0001
2000
0000
3200
0000
0320
0000
,
1030
0010
0100
0010
0001
0000
0100
0000
,
0101
0000
0002
0010
0000
2003
0010
0000
,
3001
1000
0010
0100
2000
0000
3200
0000
,
0301
1000
0100
0010
2000
0000
3010
0100
,
0010
0001
1000
0001
0100
0000
0010
0000
,
1010
0000
2000
0100
0000
3001
0200
0010
,
0000
0301
0020
0100
0000
0031
1000
0010
,
0100
0000
0100
0000
0100
0010
1000
0200
,
0000
0310
0001
0100
0000
0001
0010
2000
,
0000
3010
0001
2000
0000
3001
0100
2000
,
0000
3001
0010
2000
0000
3100
0010
0010
,
0001
0000
0100
0010
1000
0010
0100
0002
,
0000
1003
0100
0020
0000
0031
0010
0100
,
1000
0001
0100
2000
0000
3100
0010
1002
,
0000
0103
0000
0002
0000
0013
0100
0010
,
0002
0000
0000
0000
,
0000
0000
0000
0000
0003
1000
0010
0100
,
0001
0000
0010
0000
0001
0100
0010
1000
,
0000
0001
0000
1000
0000
0100
0010
0001
,
2000
0000
0000
0000
0000
3010
0100
0010
,
0000
1000
0000
0001
0000
0000
0010
0000
,
0100
0000
2000
0100
0000
3020
0100
0000
,
0000
0000
0000
0000
0031
0010
0100
2000
,
0000
0000
0000
0000
,
0000
0000
0000
0000
,
3000
0000
0000
0000
;

//--------------- dance-single - SJ XO ----------------
#NOTEDATA:;
#STEPSTYPE:dance-single;
#DESCRIPTION:SJ XO;
#DIFFICULTY:Challenge;
#METER:15;
#RADARVALUES:0,0,0,0,0;
#CREDIT:Talkion;
#NOTES:
0000
0000
0000
0000
,
0000
0000
0000
0000
,
0000
0000
0000
0000
,
0000
0000
0000
0000
,
1100
0000
0000
0110
0000
0000
0011
0000
0000
0000
0010
0100
1000
0000
0000
0000
,
1001
0000
0000
1010
0000
0000
0012
0000
,
0000
0000
0000
0103
0020
0000
1030
0000
,
1001
0000
0000
1100
0000
0000
0101
0000
,
0000
0011
0000
0010
0120
0000
0031
0000
,
1001
0000
0000
0101
0000
0000
2100
0000
,
0000
0000
0000
3010
0200
0000
0301
0000
,
1001
0000
0000
0011
0000
0000
1010
0000
,
0000
1100
0100
0010
0100
1000
0001
0000
,
0101
0000
0000
0000
0100
0000
0000
0010
0100
0000
0100
0000
0001
0000
1000
0000
,
0000
0100
0010
0002
0000
0013
0100
1000
,
0001
0000
0010
0000
0001
0100
0010
1000
,
0000
0100
0010
0002
0000
0003
1000
1000
,
0010
0000
0000
0000
0010
0000
0000
0100
0010
0000
1000
0000
0100
0000
0020
0000
,
0000
0031
0100
0020
0000
0130
1000
0100
,
0101
0001
0010
1010
0000
0010
0012
0000
,
0000
0000
0000
0000
0000
0000
0000
0000
1003
0000
0001
0010
0001
0000
0100
0000
,
0110
0010
1000
0010
0100
0001
1000
0100
,
0000
0000
0100
0000
0020
0000
0100
0000
0031
0000
1000
0010
0100
0010
2000
0000
,
3100
1000
0001
0100
0001
0010
0100
2000
,
0000
0010
0000
3002
0000
0013
1000
0010
,
0100
1000
0001
0100
0001
0010
0100
1000
,
0000
1010
0000
0101
0000
0100
0010
0100
,
0002
0000
1003
0100
1000
0010
0100
0002
,
0000
0000
0010
0000
0000
0000
1003
0000
0010
0000
0100
0010
0001
0000
0010
0000
,
0110
0100
0001
0000
0001
0010
0100
1000
,
0000
1100
0000
0011
0000
0001
1000
0010
,
0100
0000
0010
0000
1000
0000
0001
0000
0000
0000
0010
0100
0000
0000
2000
0000
,
0000
0100
0000
3002
0000
0103
1000
0100
,
0110
0000
0010
0000
1000
0000
0001
0000
0100
0000
0001
1000
0001
0000
0010
0000
,
0000
0110
0000
1001
0000
1000
0100
1000
,
0020
0000
0000
0000
0130
0000
0001
0000
1000
0000
0100
0010
0000
0000
0002
0000
,
0000
0000
0100
0000
0000
0000
1003
0000
0100
0000
0010
0100
0001
0000
0100
0000
,
1000
0000
1000
0000
1000
0000
0002
0100
,
0000
1000
0000
0203
0000
0300
0001
0010
,
0100
0000
1000
0100
0010
0000
0001
2000
,
0000
3010
1000
0200
0000
0310
0001
0100
,
0010
0000
0010
0000
0010
0000
2000
0001
,
0000
0010
0000
3002
0000
0003
0010
0100
,
0002
0000
0103
0020
0000
1000
0000
0230
,
0000
0000
0300
1000
0100
1000
0001
0000
,
0101
0000
0000
0000
0100
0000
0010
0100
0010
0000
1000
0000
0100
0000
0020
0000
,
0000
0031
0100
0010
0000
1000
0100
0002
,
0000
0103
1000
0002
0000
1003
0010
0021
,
0000
0031
0010
2010
0000
3001
0010
0010
,
0100
0000
0000
0000
1000
0001
0010
0001
1000
0000
0010
0000
0100
0000
0002
0000
,
0000
0000
0013
0000
0100
1000
0200
0000
0000
0000
1300
0001
0100
0010
0100
0001
,
1000
0010
0001
0011
0000
0010
1010
2000
,
0000
0000
0000
0000
0000
0000
0000
0000
3001
0000
1000
0010
1000
0000
0100
0000
,
0110
0000
0000
0000
0010
0000
0000
0000
0001
0000
0000
0100
0000
0000
0020
0000
,
0000
0000
0130
0000
0001
0000
1000
0001
1000
0000
0100
0010
1000
0000
0000
0000
,
0110
0000
0000
0000
0010
0000
0001
0000
1001
0000
0000
1010
0000
0000
0101
0000
,
0000
0000
0100
0000
0010
0000
1000
0100
1000
0000
0001
0000
0100
0000
0001
1000
,
0001
0000
0000
0000
0001
0000
0100
0000
0001
0000
0000
0011
0000
0000
2010
0000
,
0000
3100
0000
0102
0000
0013
0100
1000
,
1010
0000
0000
0000
0101
0000
0000
0000
1001
0000
0000
0110
0000
0000
1002
0000
,
0000
0013
1000
0010
0011
0000
1100
0000
,
1001
0000
0001
0010
0001
0000
1000
0010
1000
0000
0100
0000
0010
0000
0012
0000
,
0000
0103
0000
2100
0000
3010
0000
0100
,
0001
0000
0010
0000
0001
0000
0100
0000
0001
0000
0000
0011
0000
0000
2100
0000
,
0000
0000
3010
0000
0001
0000
0020
0000
0000
0000
1030
0000
0001
0000
0010
0100
,
1000
0000
0000
0000
0001
1000
0010
1000
0001
0000
0000
0100
0010
0000
2010
0000
,
0000
3100
0000
0010
0110
0000
1001
0000
,
0101
0001
0010
0100
1100
1000
0010
0002
,
0000
2003
3200
0320
,
1030
0100
2000
3001
0200
0301
0020
0130
,
1000
0001
0010
0001
0100
0010
1000
0000
,
0001
0010
0001
1000
0010
1000
0100
0010
,
0100
1000
0010
0100
2000
0000
3200
0000
,
0301
1000
0100
0010
2000
3010
0200
0310
,
0001
1000
0010
1000
0100
0010
0001
0000
,
1000
0010
0100
0010
1000
0001
0010
1000
,
0010
0000
0001
0000
1000
0000
0010
0000
1000
0001
0100
0001
1000
0000
0200
0000
,
0000
0000
0310
0100
0010
0000
0001
1000
0001
0000
0100
0000
0010
0000
2010
0000
,
0000
3100
0010
0011
0000
0001
0100
1200
,
0000
1300
0100
0201
0000
0301
0010
1020
,
0000
1030
0010
0012
0000
1003
0010
0010
,
0200
0000
0000
0000
0301
1000
0010
1000
0001
0000
0010
0000
0100
0000
2100
0000
,
0000
0000
3010
0000
0100
0001
0200
0000
0000
0000
0301
1000
0100
0010
0100
1000
,
0001
0000
0010
0000
1000
0000
1020
0000
0000
0000
0031
0000
0010
0001
0200
0000
,
0000
1300
0000
0200
0000
0301
0010
0100
,
2000
0000
0000
0000
,
0000
0000
0000
0000
3000
0001
0100
0010
,
1000
0000
0100
0000
1000
0010
0100
0001
,
0000
1000
0000
0001
0000
0010
0100
1000
,
0002
0000
0000
0000
0000
0103
0010
0100
,
0000
0001
0000
1000
0000
0000
0100
0000
,
0010
0000
0002
0010
0000
0203
0010
0000
,
0000
0000
0000
0000
1300
0100
0010
0002
,
0000
0000
0000
0000
,
0000
0000
0000
0000
,
0003
0000
0000
0000
;
