#VERSION:0.83;
#TITLE:Yellow Sunrise;
#SUBTITLE:;
#ARTIST:xac;
#TITLETRANSLIT:;
#SUBTITLETRANSLIT:;
#ARTISTTRANSLIT:;
#GENRE:;
#CREDIT:NOWHERE Dance Club;
#MUSIC:Yellow Sunrise.ogg;
#BANNER:Yellow Sunrise-bn.png;
#BACKGROUND:Yellow Sunrise-bg.png;
#CDTITLE:cdtitle.png;
#SAMPLESTART:34.875;
#SAMPLELENGTH:22.069;
#SELECTABLE:YES;
#OFFSET:-0.047;
#BPMS:0.000=174.000
,197.000=87.000
,225.000=174.000
;
#STOPS:;
#DISPLAYBPM:174.000;
#BGCHANGES:0.136=Yellow Sunrise.avi=0.000=0=0=1,
99999.000=-nosongbg-=1.000=0=0=0=StretchNoLoop====
;
#FGCHANGES:;

//--------------- dance-single - NOWHERE Dance Club ----------------
#NOTEDATA:;
#STEPSTYPE:dance-single;
#DESCRIPTION:NOWHERE Dance Club;
#DIFFICULTY:Beginner;
#METER:5;
#RADARVALUES:0,0,0,0,0;
#NOTES:
0000
0000
0000
0000
,
0000
0000
0000
0000
,
0000
0000
0000
0000
,
0000
0000
0000
0000
,
0000
0001
0000
0000
,
0010
0001
0000
0000
,
0000
1000
0000
0000
,
0010
2000
0000
3001
,
0000
0010
0001
0100
,
0010
2000
3000
0001
,
0000
2000
3000
0001
,
0100
0020
0030
1000
,
0000
0200
0300
1000
,
0010
2000
3000
0001
,
0000
0020
0030
0001
,
0100
0002
0003
1000
,
0000
0200
0300
0010
,
0100
0020
0000
0031
,
0000
2000
0000
3001
,
0010
0002
0000
2003
,
0000
3200
0000
1300
,
0010
2000
0000
3002
,
0000
0023
0000
0031
,
0100
0020
0000
0100
,
0000
1000
0000
0100
,
0000
1030
0100
0010
,
0001
0200
0000
0320
,
0000
1030
0001
1000
,
0100
1000
0100
0010
,
0001
2000
0000
3010
,
1000
0002
0000
1003
,
0001
0100
0010
0100
,
0010
2000
0000
3200
,
0000
0310
0001
0010
,
0100
1000
0001
0100
,
0010
0120
0000
1030
,
0001
1000
0100
0010
,
0100
2000
0000
3002
,
0000
0103
0001
1000
,
0010
2000
0000
3002
,
0000
0203
0000
0320
,
0000
1030
0100
0000
,
1100
0000
0001
0000
,
0011
0000
1000
0000
,
1010
0000
0000
0000
0010
0100
0000
0110
,
0000
0000
1001
0000
,
1100
0000
0000
0000
0011
0000
0000
0001
,
0000
0100
0110
0000
,
1010
0000
0001
1000
,
0100
0020
0230
0320
,
0032
0023
2030
3020
,
0031
1000
0001
0000
0100
0000
0001
0000
,
1000
0100
0010
0000
0001
0000
0200
0000
,
0320
0000
1030
0001
2000
0000
3002
0000
,
0203
0000
0000
0000
0320
0000
0000
0000
0000
0000
0000
0000
1030
0000
0000
0001
,
0000
0000
2000
0000
0000
0000
0000
3010
0000
0000
0000
0000
2000
0000
0000
0000
,
0000
3200
0000
0000
,
0000
0000
0000
0000
,
0310
0001
0100
0010
,
0100
0001
0100
0010
,
2000
3001
1000
0100
,
1000
0100
0010
0100
,
0010
0001
1000
0001
,
0100
1000
0100
0001
,
1000
0010
1000
0100
,
0010
0002
0010
1000
,
0103
0001
0100
0100
,
0010
0010
1000
1000
,
0010
1000
0010
1000
,
0001
0100
0010
1000
,
1000
0000
0002
0000
0000
0023
0000
0000
,
0230
0000
0000
2300
0000
0000
3001
0000
,
1000
0020
0000
1000
,
0000
0100
0000
1030
,
0000
2002
0000
0000
,
0000
0000
0000
0000
,
0000
0000
0000
0000
,
0000
0000
0000
3003
0000
0000
0000
0000
;

//--------------- dance-single - NOWHERE Dance Club ----------------
#NOTEDATA:;
#STEPSTYPE:dance-single;
#DESCRIPTION:NOWHERE Dance Club;
#DIFFICULTY:Easy;
#METER:7;
#RADARVALUES:0,0,0,0,0;
#NOTES:
0000
0000
0000
0000
,
0000
0000
0000
0000
,
0000
0000
0000
0000
,
0000
0000
0000
0000
,
0000
0001
0000
0000
,
0100
0110
0000
0000
,
0000
0010
0000
0000
,
1000
0000
2010
0000
0000
3001
0000
0000
,
0001
1000
0001
0000
1000
0000
0100
0000
,
0010
0002
0000
0203
,
0310
2000
0000
3001
,
0010
0012
0000
0103
,
0010
2000
0000
3100
,
1000
1002
0000
0013
,
0001
0200
0000
0310
,
1000
2010
0000
3001
,
0010
0200
0000
1300
,
0001
1000
0100
0010
,
0001
0100
0010
2000
,
0010
3001
1000
0100
,
0010
0001
0010
0002
,
0100
1003
0001
1000
,
0100
1000
0001
0100
,
0010
2000
0001
0000
,
0100
0000
0001
0000
,
3001
1000
0001
0000
0100
0000
0001
0100
,
0010
0000
1000
0000
0010
0000
1000
0010
,
1000
0020
0000
2030
,
0000
0000
3001
0000
0001
0100
0000
0100
,
0010
0000
1000
0000
0100
1000
0000
1000
,
0001
0010
0100
1000
,
0001
0000
1000
0000
0100
0010
0000
0000
,
0001
0000
1000
0000
0001
0100
0000
0000
,
0010
0000
1000
0001
1000
0000
0001
0100
,
0001
0000
1000
0100
1000
0000
0001
0100
,
0001
0000
0020
0000
0000
0032
0000
0000
,
0203
0310
1000
0001
,
1000
0000
0100
0000
0000
0011
0000
0000
,
0001
0000
0000
0101
0000
0000
0010
0000
,
1000
0200
0000
0010
,
0000
1000
0000
0310
,
0000
0001
0101
0000
,
1010
1000
0100
0000
,
0011
0001
1000
0000
,
0101
0000
1000
0000
0100
0010
0000
0001
,
0010
0000
0001
0000
0101
0000
0000
0001
,
1000
0000
0001
0000
1001
0000
0000
1000
,
0010
0000
0100
0000
0110
0000
0000
0100
,
0010
1000
0001
0100
,
0010
1000
0002
0000
0023
0000
0032
0000
,
0103
0010
2000
0001
3002
0000
0023
0000
,
0031
0100
0002
0000
2003
0000
3200
0000
,
1300
0001
2000
0000
3020
0000
2030
0000
,
3020
2030
0000
0000
,
0001
0000
0000
0000
3200
0000
0000
0000
0000
0000
0000
0000
0320
0000
0000
0032
,
0000
0000
0100
0000
0000
0000
0000
0200
0003
0000
0000
0000
0320
0000
0000
0000
,
0000
2030
0001
0000
,
0100
0000
3002
0000
0000
2003
0000
0000
,
3001
0000
0001
0100
0020
0000
1030
0010
,
1000
0000
0100
0010
0002
0000
0013
0001
,
2000
0000
3002
0000
2003
0000
3100
0010
,
0002
0000
1003
0001
0100
0002
0000
2003
,
0000
3002
0203
2300
,
3200
0000
0301
0100
0010
2000
0000
3001
,
0010
0000
0012
0000
1003
0000
0010
1000
,
0010
0000
1000
0100
0010
0001
0000
0001
,
0100
0010
1000
0100
,
0010
0001
0100
0010
,
1000
0000
0012
0000
0000
1003
0000
0001
,
2000
3020
0032
0023
,
2030
0000
3001
0000
0100
0010
0020
0000
,
1030
0000
0100
0010
0020
0000
0031
0000
,
1000
0000
0010
1000
0100
0000
0010
0001
,
0100
0000
0010
1000
0100
0000
0010
0001
,
0100
2010
0000
0000
,
0000
0000
0000
0000
,
0000
0000
0000
0000
,
0000
0000
0000
3000
0000
0000
0000
0000
;

//--------------- dance-single - NOWHERE Dance Club ----------------
#NOTEDATA:;
#STEPSTYPE:dance-single;
#DESCRIPTION:NOWHERE Dance Club;
#DIFFICULTY:Medium;
#METER:13;
#RADARVALUES:0,0,0,0,0;
#NOTES:
0000
0000
0000
0000
,
0000
0000
0000
0000
,
0000
0000
0000
0000
,
0000
0000
0000
0000
,
0000
0001
0000
0000
,
0000
1000
0000
0000
,
0000
0001
0000
0100
,
0010
0000
2010
0000
0000
0001
0000
0000
,
3001
0000
0012
0000
0000
1000
0000
0000
,
1003
0000
0101
0000
0001
0000
0100
0001
,
0100
0000
0010
0000
1000
0000
0100
0010
,
0001
0000
1001
0000
0001
0000
0010
0001
,
0010
0000
0001
0100
0010
1000
0000
2010
,
0000
0000
3001
0000
0010
0000
0001
0100
,
0001
0000
0100
0010
1000
0001
0000
1000
,
1001
0000
0001
0000
0010
0000
0001
0010
,
0001
0000
0100
0000
0010
0110
0000
0010
,
1000
0001
0200
0000
0302
0000
0013
0100
,
1000
0001
2000
0000
3200
0000
1300
0001
,
0102
0000
2003
0000
3002
0000
0103
0010
,
1000
0001
2000
0000
3020
0000
1030
0001
,
0012
0000
1003
0000
0101
0000
0001
1000
,
1100
0000
0100
0010
0001
0010
0000
0001
,
1001
0000
2000
0000
3001
0011
0000
1000
,
1010
0000
1000
0100
0010
0001
0100
0010
,
1000
0001
2000
0000
3200
0000
1300
0100
,
1000
0001
1000
0100
0001
0100
1000
0001
,
1000
0001
0020
0000
0001
0000
0100
0000
,
0031
1000
0020
0000
1030
0200
0000
0310
,
0000
0010
0002
0000
0103
0020
0000
1030
,
0020
0000
2030
0000
3100
0020
0000
0031
,
0010
0000
0001
0000
0100
0000
0000
0100
0010
0000
1000
0000
0100
0000
0000
0100
,
0010
0001
1000
0100
0010
0200
0000
0000
,
2300
0000
3001
0010
2000
0000
3001
0100
,
2000
0000
3001
1000
0002
0000
0103
0010
,
2000
0000
3020
0000
0031
0020
0000
1030
,
0020
0000
0031
0010
1000
0100
0002
0103
,
2000
3001
1000
0000
0001
0012
0000
0000
,
0103
0000
0010
2010
0000
0000
3001
0000
,
0010
0001
0200
0000
0010
0000
0000
1000
,
0010
0000
0302
0000
0013
0200
0000
0310
,
0001
0100
0010
0000
2010
0000
0000
0001
,
3010
0000
0012
0000
1000
0000
0000
0010
,
1003
0000
1001
0000
0011
0000
0000
1000
,
1010
0000
1000
0000
0200
0001
0000
1300
,
0000
0010
0100
0000
0110
0000
0000
0010
,
1010
1000
0100
0000
0011
0000
0000
0001
,
0101
0000
0010
0000
0110
0000
0000
0010
,
1010
0000
1000
0000
0100
0000
0000
0000
1100
0000
0000
0000
1000
0000
0000
0100
,
0000
0000
0010
0000
0002
0000
0000
0203
0000
0000
0000
0000
0000
0000
0000
0000
,
0301
0200
0000
0310
1000
0020
0000
1030
0002
0000
0000
0000
0000
0000
0000
0000
,
0013
0002
0000
0000
0103
0020
0000
1030
0002
0000
0000
0000
0000
0000
0000
0000
,
0023
0000
0032
0000
0203
0000
0000
0302
0000
0000
1003
0001
0020
0000
0000
0000
,
0000
0032
0000
0000
,
0103
0000
0010
0000
2010
0000
0000
0000
0000
0000
0000
0000
3200
0000
0000
0310
,
0000
0010
0002
0000
0000
0000
0000
1003
0000
0000
0000
0000
2001
0000
0000
0000
,
0001
3001
0100
0010
,
1000
0000
0100
0010
0001
0100
0010
0100
,
0020
0000
1030
0100
0010
0001
0100
0010
,
1000
0000
0100
0010
0001
0000
0100
0000
0010
0000
1000
0000
0100
0010
0002
0000
,
2003
0000
0000
0000
3001
0000
0000
0100
1000
0000
0000
0100
0001
0000
2000
0000
,
3001
0000
0100
0000
0010
0000
0000
0010
1000
0000
0100
0000
0000
0010
0001
0000
,
0100
0010
1000
0100
0001
1000
0010
0001
,
2000
0000
3002
0000
0010
1003
0000
0001
,
0100
0000
0010
0000
1000
0000
0000
0100
0010
0000
0000
0000
0001
0000
0000
0100
,
0010
1000
2100
0000
3001
0012
0000
0003
,
0100
0000
0000
0000
0010
0000
0000
1000
0100
0000
0000
0100
0010
0000
0000
0010
,
0001
0000
0000
0001
0100
0000
0000
0100
0010
0000
0000
0010
1000
0000
0001
0000
,
2000
0000
3020
0000
0032
0023
0000
2030
,
0000
3002
0023
0032
1003
0010
1000
0100
,
0020
0000
0031
1000
0010
0010
0001
0100
,
0001
0010
0010
1000
0001
1000
0100
1000
,
0010
1000
1010
0000
1000
1100
0000
0010
,
0011
0000
0002
0203
0320
2030
3200
0320
,
0031
0012
0000
0000
,
0000
0000
0000
0000
,
0000
0000
0000
0000
,
0000
0000
0000
0003
0000
0000
0000
0000
;

//--------------- dance-single - NOWHERE Dance Club ----------------
#NOTEDATA:;
#STEPSTYPE:dance-single;
#DESCRIPTION:NOWHERE Dance Club;
#DIFFICULTY:Hard;
#METER:15;
#RADARVALUES:0,0,0,0,0;
#NOTES:
0000
0000
0000
0000
,
0000
0000
0000
0000
,
0000
0000
0000
0000
,
0000
1100
0000
0000
,
0000
1100
0000
0000
,
0001
0101
0000
0000
,
0000
0101
0000
0000
,
1000
0000
0000
0000
0200
0000
0320
0000
0032
0000
0000
0000
0103
0001
0020
0000
,
0000
0030
0100
1000
0020
0000
0000
0000
0130
0001
0020
0000
0000
0130
0010
0001
,
2000
0000
3001
0100
0010
1000
0100
1000
,
0010
0100
0010
1000
0001
0010
0100
0010
,
0001
1000
0001
0010
0100
1000
0010
1000
,
0100
0010
0001
0100
1000
0100
0001
0100
,
0010
1000
0001
0100
0001
1000
0010
1000
,
0100
0010
0001
1000
0100
0001
0100
1000
,
0001
0010
0001
0100
0010
1000
0010
0100
,
0010
1000
0100
0010
0001
0010
0001
0010
,
0100
1000
0010
0000
0120
0000
0000
1030
,
2010
0000
3100
0000
0012
0000
0000
0010
,
1003
0000
2001
0000
0010
0000
0000
0001
,
3010
0000
1100
0000
0001
0100
0000
0101
,
0000
0001
1000
0000
1020
0000
0000
0100
,
1030
0000
0001
0000
0021
0000
0000
0100
,
0031
2002
0000
0000
,
0000
3003
0001
0100
0010
0100
0010
1000
,
0010
1000
0100
0010
0002
0000
0013
0001
0010
0000
0001
0000
1000
0100
0010
0000
,
0100
0000
1000
0000
0001
0100
0010
1000
0100
0010
0001
0100
0010
1000
0010
1000
,
0100
0000
0010
0000
0002
0000
0000
0000
0000
0000
0103
0010
2000
0000
0000
0000
,
0000
0000
3100
0001
0100
0000
1000
0100
0010
0001
0020
0000
0000
0000
0031
0000
,
0010
0001
0100
0010
1000
0000
0000
1000
0001
0000
1001
0000
0000
0001
0010
0000
,
0011
0000
0001
0100
0010
0000
1000
0100
0010
0000
0001
0100
0010
0000
1000
0000
,
0010
0000
1000
0010
2000
0000
0000
3010
0000
0000
1000
0000
0100
0000
0000
0100
,
0010
0001
0200
0000
0000
1000
0000
0000
,
0301
0000
0000
0000
1000
0100
0010
0000
0001
0100
0010
0000
1000
0100
0010
0000
,
0001
0100
0010
0000
1000
0001
1000
0000
0001
0010
0001
0000
1000
0010
1000
0000
,
0100
0010
0001
0100
0020
0000
0000
0000
0100
0000
1030
0000
0000
0000
0001
0000
,
0010
0000
0001
1000
0001
0000
0100
0000
0010
0000
1000
0010
1000
0000
0100
0010
,
0001
0000
0100
0010
1000
0000
0100
0000
0010
0000
0001
0000
0001
0000
1000
0000
,
0100
0001
0100
1000
1000
0001
0100
0010
,
1000
0000
0001
0000
2000
0000
0100
0000
3001
0000
1000
0100
1000
0001
0010
0000
,
0001
0000
0100
0000
0010
0000
1000
0000
0001
1000
0010
1000
0001
0000
0010
0000
,
0100
1000
0002
0000
2003
0000
0000
3010
,
1010
1000
0100
0000
0210
0000
0000
0310
,
0011
0001
0100
0000
0120
0000
0000
1030
,
0010
1000
1100
0000
0010
0001
0000
0012
,
0000
0000
1003
0000
0001
0000
0000
0000
2001
0000
0000
0000
0000
0000
3001
1000
,
0001
1000
0100
0000
0012
0000
0000
1003
,
0010
0000
1010
0000
1000
0100
0000
0010
,
0001
0000
0000
0000
1001
0000
0000
0000
1000
0000
0000
0000
0001
0000
0000
0100
,
0000
0000
0010
0000
2000
0000
0000
3200
0000
0000
0000
0000
0000
0000
0000
0000
,
1300
0200
0000
0310
0002
0000
1003
0001
0020
0000
0000
0000
0000
0000
0000
0000
,
2030
0000
3020
0000
0032
0203
0000
0320
2030
0000
0000
0000
0000
0000
0000
0000
,
3200
0320
0000
0032
0203
0000
0000
0020
0000
0000
0000
0330
2010
0000
0000
0000
,
0000
0000
0002
0000
0000
0000
0000
0003
,
3002
0000
0013
0001
0020
0000
0000
0000
0000
0000
0000
0000
0032
0000
0103
0010
,
0000
0010
2000
0000
0000
0000
0000
3020
0000
0000
0000
0000
0130
0000
0101
0000
,
1001
1100
0210
0000
0000
0000
0000
0000
,
0000
0001
0001
0001
,
0302
0000
0000
0000
0103
0000
0010
1000
0010
0000
1000
0000
0100
1000
0100
0000
,
0010
0000
0001
0100
0001
1000
0001
0100
0010
1000
0100
0010
0001
0010
0002
0000
,
0023
0000
0000
0000
0031
0000
0100
0001
0100
0000
0001
0000
0100
0010
1000
0000
,
0010
0000
1000
0000
0001
1000
0001
0000
0100
0001
0100
0000
0001
1000
0010
0000
,
0100
0010
1000
0100
0010
0000
0001
0000
0100
0010
1000
0000
0100
0010
0000
0010
,
0001
0000
1000
0001
1000
0000
0001
0000
0010
0000
0001
0000
0100
0000
1000
0000
,
0100
0000
0001
0000
0010
0000
0001
0100
0000
0100
0010
0000
1000
0000
0100
0010
,
0000
0010
0001
0000
0001
0000
0100
0000
0010
0000
2000
0000
0000
0000
3100
0000
,
2000
0000
0000
0000
3001
0100
0010
0000
1000
0100
0010
0000
0001
0100
0010
0000
,
1000
0100
0010
0000
0001
1000
0001
0000
1000
0010
1000
0000
0001
0010
0001
0000
,
0100
0010
1000
0100
0020
0000
0000
0000
0031
0000
2000
0000
0000
0000
3001
0000
,
0010
0001
0010
0000
0001
1000
0001
0000
0100
0001
0100
0000
0001
0100
0010
1000
,
0010
1000
1010
1000
0001
0011
0001
1000
,
1100
1000
0001
0101
0001
1000
0010
1000
,
0100
0000
0010
0000
0011
0000
0001
1000
0001
0100
0001
0000
0100
0010
1000
0010
,
0100
0000
0010
1000
0100
0010
0001
0000
0020
0000
0032
0000
0203
0000
0320
0000
,
2030
0010
0002
0000
0000
0000
0000
0000
,
0000
0000
0000
0000
,
0000
0000
0000
0000
,
0000
0000
0000
3003
0000
0000
0000
0000
;

//--------------- dance-double - NOWHERE Dance Club ----------------
#NOTEDATA:;
#STEPSTYPE:dance-double;
#DESCRIPTION:NOWHERE Dance Club;
#DIFFICULTY:Beginner;
#METER:3;
#RADARVALUES:0,0,0,0,0;
#NOTES:
00000000
00000000
00000000
00000000
,
00000000
00000000
00000000
00000000
,
00000000
00000000
00000000
00000000
,
00000000
00000000
00000000
00000000
,
00000000
00010000
00000000
00000000
,
00000000
00010000
00000000
00000000
,
00000000
00001000
00000000
00000000
,
00000000
00002000
00000000
00000000
,
00000000
00000000
00000000
00000000
,
00000000
01003000
00000000
00000000
,
00100000
10000000
00000000
00000000
,
00000000
10000000
00000000
00000000
,
01000000
00100000
00000000
00000000
,
00000000
00100000
00000000
00000000
,
00010000
00001000
00000000
00000000
,
00000000
00001000
00000000
00000000
,
00000100
00000010
00000000
00000000
,
00000001
00001000
00000000
00000000
,
00000010
00000100
00000000
00000000
,
00000010
00001000
00000000
00000000
,
00010000
00100000
00000000
00000000
,
01000000
00100000
00000000
00000000
,
00001000
00011000
00000000
00000000
,
00000010
00001020
00000000
00000000
,
00000000
00000000
00000000
00000000
,
00000000
00000130
00000000
00000010
,
00000000
00001000
00000010
00001000
,
00000000
00020000
00000000
00000000
,
00000000
02030000
00000000
00000000
,
03100000
10000000
00000000
01000000
,
00000000
00100000
00000000
00010000
,
00000000
00100000
00000000
01000000
,
00000000
00200000
00000000
00001000
,
00000000
00310000
00000000
01000000
,
00000000
00100000
00000000
01000000
,
00000000
00002000
00000000
00000000
,
00000000
00023000
00000000
00000000
,
00000000
00030100
00000000
00000000
,
00000010
00000000
00000000
00000001
00000000
00000000
00000100
00000000
,
00001000
00000200
00000000
00000000
,
00000000
00000000
00000000
00000000
,
00000000
00000301
00000000
00000000
,
00000100
00000000
00000100
00000000
,
00011000
00000000
00100000
00000000
,
00010000
00000000
01000000
00000000
00000000
01000000
00000000
00100000
,
00000000
10000000
00000000
00110000
,
00000000
00100000
00000000
00011000
,
00000000
00001000
00000000
00001001
,
00000000
00000001
00000000
00000100
,
00000000
00000002
00000203
00002300
,
00023000
00230000
20300000
30200000
,
10300000
10000000
00010000
00000000
00001000
00000000
00010000
00000000
,
00000100
01000000
00010000
00000000
00010000
00000000
02000000
00000000
,
03200000
00000000
10300000
01000000
00200000
00000000
00320000
00000000
,
00032000
00000000
00000000
00000000
00003020
00000000
00000000
00000000
00000030
00000000
00000000
00000000
00000100
00000000
00000000
00001000
,
00000000
00000000
00010000
00000000
00000000
00000000
00000000
00100000
00000000
00000000
00000000
00000000
20000000
00000000
00000000
00000000
,
00000000
32000000
00000000
00000000
,
00000000
00000000
00000000
00000000
,
03100000
00010000
00000000
00100000
,
00001000
01000000
00000000
00100000
,
10000000
00010000
00000000
00001000
,
00000100
00000010
00000000
00000001
,
00000100
00001000
00000000
00010000
,
00001000
01000000
00000000
00010000
,
01000000
00010000
10000000
01000000
,
00100000
00000000
00010000
00000000
00000000
10000000
00000000
00000000
,
01000000
00010000
00010000
00001000
,
00001000
00000100
00000100
00000010
,
00000010
00000000
00000001
00000000
00000000
00000100
00000000
00000000
,
00000100
00001000
00010000
00100000
,
00010000
00000000
02000000
00000000
00000000
03002000
00000000
00000000
,
00023000
00000000
00030000
00200000
00000000
00000000
10300000
00000000
,
01000000
00200000
00000000
00320000
,
00000000
00032000
00000000
00023000
,
00000000
00032000
00000000
00000000
,
00000000
00000000
00000000
00000000
,
00000000
00000000
00000000
00000000
,
00000000
00003000
00000000
00000000
;

//--------------- dance-double - NOWHERE Dance Club ----------------
#NOTEDATA:;
#STEPSTYPE:dance-double;
#DESCRIPTION:NOWHERE Dance Club;
#DIFFICULTY:Easy;
#METER:7;
#RADARVALUES:0,0,0,0,0;
#NOTES:
00000000
00000000
00000000
00000000
,
00000000
00000000
00000000
00000000
,
00000000
00000000
00000000
00000000
,
00000000
00000000
00000000
00000000
,
00000000
00001000
00000000
00000000
,
00010000
00110000
00000000
00000000
,
00000000
00011000
00000000
00000000
,
00000010
00000000
00001020
00000000
00000000
00010030
00000000
00000000
,
00001000
01000000
00100000
10000000
,
01000000
00200000
00000000
00302000
,
00013000
00000020
00000000
00010030
,
00001000
00200000
00000000
01300000
,
00100000
00020000
00000000
01030000
,
00010000
00021000
00000000
00030100
,
00000010
00000002
00000000
00000103
,
00000010
00000120
00000000
00001030
,
00010000
00200000
00000000
10300000
,
00010000
00100000
00010000
00001000
,
00010000
00100000
00010000
01000000
,
00010000
00001000
01000000
00010000
,
00001000
00010000
00001000
00000000
00010000
00000000
00001000
00000000
,
00000010
00010000
00001000
01000000
,
00001000
00100000
00010000
01000000
,
00100000
20000000
00010000
00000000
,
01000000
00000000
30010000
00000000
,
10000000
01000000
00100000
00000000
00001000
00000000
00010000
00000100
,
00010000
00000000
00001000
00000000
00000010
00000000
00000001
00000100
,
00000010
00020000
00000000
00032000
,
00000000
00000000
00013000
00000000
00010000
00000100
00000000
01000000
,
00100000
00000000
10000000
00000000
01000000
10000000
00000000
10000000
,
00010000
00001000
00000100
00000001
,
00000010
00000000
00000001
00000000
00000100
00000010
00000000
00000000
,
00001000
00000010
00001000
00000100
,
00001000
00000010
00100000
00000100
,
01000000
00000010
00100000
00000100
,
01000000
00000000
00002000
00000000
00000000
20003000
00000000
00000000
,
32000000
03100000
00001000
00010000
,
00000100
00000000
01000000
00000000
00000000
01100000
00000000
00000000
,
10000000
00000000
00000000
11000000
00000000
00000000
00100000
00000000
,
00010000
00012000
00000000
00100000
,
00000000
00010000
00000000
00103000
,
00000000
00001000
00001010
00000000
,
00000101
00000001
00000100
00000000
,
00011000
00010000
11000000
00000000
,
01010000
00000000
00000100
00000000
00010000
00000100
00000000
00010000
,
00000000
00001000
00110000
00000000
,
11000000
10000000
01000000
00000000
,
00011000
00000010
00000110
00000000
,
00001010
00001000
00010000
00100000
,
01000000
00200000
00320000
00000000
,
02030000
03200000
20300000
00010000
30020000
00000000
00030100
00000000
,
00010000
00000100
00000020
00000000
00000032
00000000
00000203
00000000
,
00000310
00001000
00000200
00000000
00020300
00000000
00030020
00000000
,
00002030
00003020
00000000
00000000
,
00010030
00000000
00000000
00000000
00002000
00000000
00000000
00000000
00000000
00000000
00000000
00000000
00203000
00000000
00000000
00320000
,
00000000
00000000
01000000
00000000
00000000
00000000
00000000
02030000
00000000
00000000
00000000
00000000
03200000
00000000
00000000
00000000
,
00000000
20300000
00010000
00000000
,
01000000
00000000
30020000
00000000
00000000
02030000
00000000
00000000
,
03100000
00000000
10000000
00000000
00010000
00000000
01000000
00001000
,
01000000
00000000
00010000
00000000
00100000
00000000
10000000
00100000
,
00010000
00200000
01000000
00302000
,
00013000
00000000
00001000
00000010
00000100
00000000
00000010
00000001
,
00000010
00000000
00000001
00000000
00000100
00001000
00000000
00001000
,
00010000
00001000
00000010
00000100
,
00000010
00000000
00000001
00000000
00000100
00000010
00001000
00000000
,
00000100
00000000
00020000
00000000
00000000
00032000
00000000
00000000
,
00000000
00103000
00000010
01000000
,
00000100
00100000
00000010
01000000
,
00000100
00000000
00020000
00000000
00000000
00031000
00000000
00001000
,
01000000
00200000
00320000
00230000
,
20300000
00000000
30010000
00000000
01000000
00100000
00200000
00000000
,
10300000
00000000
01000000
00100000
00200000
00000000
00310000
00000000
,
10000000
00000000
00100000
10000000
01000000
00000000
00100000
00010000
,
01000000
00000000
00100000
10000000
01000000
00000000
00100000
00010000
,
01000000
20100000
00000000
00000000
,
00000000
00000000
00000000
00000000
,
00000000
00000000
00000000
00000000
,
00000000
00000000
00000000
30000000
00000000
00000000
00000000
00000000
;

//--------------- dance-double - NOWHERE Dance Club ----------------
#NOTEDATA:;
#STEPSTYPE:dance-double;
#DESCRIPTION:NOWHERE Dance Club;
#DIFFICULTY:Medium;
#METER:11;
#RADARVALUES:0,0,0,0,0;
#NOTES:
00000000
00000000
00000000
00000000
,
00000000
00000000
00000000
00000000
,
00000000
00000000
00000000
00000000
,
00000000
00000000
00000000
00000000
,
00000000
00011000
00000000
00000000
,
00001000
00001100
00000000
00000000
,
00000000
00011000
00000000
00000000
,
00100000
00000000
00210000
00000000
00000000
00301000
00000000
00100000
,
00010000
00000000
01000000
00100000
01000000
00010000
00000000
00100000
,
00001000
00000020
00000000
00020030
,
00031000
00200000
00000000
00301000
,
00010000
00002000
00000000
00003010
,
00000100
00002000
00000000
00003100
,
00001000
00002010
00000000
00013000
,
00100000
20000000
00000000
31000000
,
00100000
01200000
00000000
00310000
,
00001000
00020100
00000000
00030001
,
00001000
00000000
00000010
00000000
00001000
00000000
00010000
00001000
,
00000010
00001010
00001000
00000100
,
00001000
00000000
00011000
00000000
00010000
00000000
00100000
10000000
,
01000000
00100000
00002000
00000000
00103000
00010000
00000000
00010000
,
10000000
00000000
00001000
00000000
00010000
00000000
00000100
00010000
,
00000010
00010000
00001000
00000000
00010000
00000000
00000100
00000000
,
00000010
00000012
00000100
00000000
,
00001000
00000000
00000103
00000010
,
00001000
00001000
00000010
00000000
00010000
00000000
00001000
01000000
,
00001000
00000000
00010000
00000000
00100000
00000000
10000000
10000000
,
01000000
00100000
00002000
00000000
00000000
00000000
00023000
00000000
,
00000000
00000000
00031000
00000000
00001000
01000000
00000000
00000100
,
00001000
00000000
00000000
00000000
00000001
00000000
00000000
00000001
00000100
00000000
00000001
00000000
00000000
00000000
00000001
00000000
,
00001000
00010000
01000000
10000000
,
11000000
00000000
00000000
00000000
10000000
00000000
00000000
10000000
01000000
00000000
00100000
00000000
00010000
00000000
00000000
00000000
,
00001000
00000000
00200000
00000000
00310000
02000000
00000000
03010000
,
00200000
00310000
00000010
01000000
,
00000100
00000100
00100000
00000000
00000010
00000000
01000000
01000000
,
00000100
00000000
00020000
00000000
00000000
00030002
00000000
00000000
,
00000203
00000000
00000310
00000000
00010000
00010000
00001000
00001000
,
01000000
00000000
00000100
00001000
00000000
00000210
00000000
00000000
,
00000301
00000100
00000000
00000102
00000000
00000000
00000013
00000000
,
00001000
00021000
00000000
00000010
,
00000000
00001000
00000000
00030010
,
00010000
00001000
00010000
00000000
00011000
00000000
00000000
00010000
,
10010000
00000000
10000000
00000000
11000000
00000000
00000000
00010000
,
00011000
00000000
00001000
00000000
00000101
00000000
00000000
00000010
,
00001010
00000000
00010000
00000000
00001000
00100000
00000000
00101000
,
00000000
00000000
00010000
00000000
01010000
00000000
00000000
00100000
,
20100000
31000000
00110000
00000000
,
00011000
00000100
00010100
00000000
,
00010010
00000000
00000000
00000010
00001010
00000000
00000010
00000000
,
00000100
00000020
00002030
00000000
,
00003200
00000320
00000032
00001000
00002003
00000000
00003002
00000000
,
00022003
00033000
20200000
00000000
30300000
10000000
02000000
00000000
,
03100000
00010000
02000000
00000000
03001000
01000000
20100000
00000000
,
30020000
00230000
00000000
00000000
,
00301000
00000000
00000000
00000000
00020000
00000000
00000000
00000000
00000000
00000000
00000000
00000000
00030020
00000000
00000000
00002030
,
00000000
00000000
00000100
00000000
00000000
00000000
00000000
00003200
00000000
00000000
00000000
00000000
00000310
00000000
00000010
00000000
,
00000010
00000010
00000002
00000000
00001000
00000000
00000000
00000000
,
00000100
00000000
00002003
00000000
00000000
00003200
00000000
00000000
,
00000310
00000000
00000001
00000000
00001000
00000000
00000100
00010000
,
00000100
00010000
00000010
00000000
00000001
00000100
00000001
00000010
,
00001000
00000020
00000100
00020030
,
00031000
00000000
00010000
00100000
01000000
00000000
00100000
10000000
,
00100000
00000000
10000000
00000000
01000000
00010000
00000000
00010000
,
00001000
00010000
00000010
00000100
,
00000110
00000000
00000010
00000000
00000100
00001000
00000001
00000000
,
00000100
00000000
00002000
00000000
00000000
00023000
00000000
00000000
,
00000000
00000000
00030010
00000010
00010000
00010000
00001000
00001000
,
00100000
00100000
00000100
00000100
00010000
00010000
00001000
00001000
,
01000000
01000000
00000020
00000000
00010030
00001000
00000000
00010000
,
00000010
00000000
00001000
00000000
00000100
00000000
00001000
00000000
00000010
00001000
00000010
00000000
00000100
00000000
00000000
00000000
,
00002000
00000000
00003100
00000001
00000100
00000010
00001000
00010000
,
01000000
00100000
00100000
10000000
01000000
01000000
00100000
00010000
,
00100000
00000000
00200000
00000000
00320000
00000000
00032000
00010000
,
00003200
00000000
00000310
00000001
00000100
00000010
00001000
00010000
,
01000000
20100000
00000000
00000000
,
00000000
00000000
00000000
00000000
,
00000000
00000000
00000000
00000000
,
00000000
00000000
00000000
30000000
00000000
00000000
00000000
00000000
;

//--------------- dance-double - NOWHERE Dance Club ----------------
#NOTEDATA:;
#STEPSTYPE:dance-double;
#DESCRIPTION:NOWHERE Dance Club;
#DIFFICULTY:Hard;
#METER:14;
#RADARVALUES:0,0,0,0,0;
#NOTES:
00000000
00000000
00000000
00000000
,
00000000
00000000
00000000
00000000
,
00000000
00000000
00000000
00000000
,
00000000
00011000
00000000
00000000
,
00000000
00101000
00000000
00000000
,
00010000
01001000
00000000
00000000
,
00000000
00011000
00000000
00000000
,
00001000
00000000
00010000
00001000
00020000
00000000
00031000
00000020
,
00000000
00000031
00000200
00000000
00000310
00002000
00000000
00003001
,
00000002
00000000
00000103
00000010
00001000
00010000
00001000
00010000
,
00100000
00010000
00001000
00010000
00001000
00000100
00001000
00000001
,
00000010
00000001
00000010
00000100
00001000
00010000
00001000
00010000
,
01000000
00010000
00001000
00010000
00001000
00000010
00001000
00000001
,
00000100
00000001
00000100
00000010
00001000
00010000
00001000
00010000
,
00000100
00010000
00001000
00010000
00001000
00000100
00001000
00000001
,
00000010
00000001
00001000
00000000
00010000
01000000
10000000
00010000
,
01000000
00010000
10000000
01000000
00100000
00010000
01000000
00100000
,
10000000
01000000
00100000
00000000
00201000
00000000
00000000
00000000
,
00310000
00000000
01000000
00000000
02001000
00000000
00000000
00010000
,
03001000
00000000
00100000
00000000
00201000
00000000
00000000
00010000
,
00301000
00000000
00000010
00000000
00010000
00000100
00000000
00101000
,
00000000
00010000
10000000
00000000
10100000
00000000
00000000
10000000
,
01000000
00000000
00010000
00000000
00011000
00000000
00000000
00000100
,
00000010
00000102
00000000
00000000
,
00000000
00000000
00000000
00000000
00001003
00000000
00000000
00000000
00000010
00000000
00000000
00000010
00001000
00000000
00000010
00000000
,
00010000
00000100
00010000
00001000
00100000
00010000
01000000
00010000
,
01000000
00000000
00010000
00000000
10000000
00000000
01000000
00000000
00100000
00000000
00010000
00000000
10000000
00010000
10000000
00010000
,
00100000
00001000
00020000
00000000
00000000
00030100
00000020
00000000
,
00000000
00000000
00000031
00000000
00000100
00000000
00000001
00000100
00000001
00000100
00000001
00001000
00000000
00000000
00010000
00000000
,
00001000
00000000
00000000
00000000
00110000
00000000
00000000
00010000
01000000
00000000
00001000
00000000
00000000
00010000
00000010
00000000
,
00010000
00001000
00000010
00001000
00010000
00001000
00000010
00000100
,
00000010
00000000
00000001
00000000
00001000
00000000
00000000
00000100
00001000
00000000
00000100
00000000
00010000
00000000
00000000
00001000
,
00100000
00001000
02000000
00000000
00000000
03010000
00000000
01000000
,
00020000
00000000
10030000
01000000
00100000
00010000
00001000
00000100
,
00000010
00000001
00001000
00000001
00000010
00000100
00000010
00000001
,
00000100
00000010
00002000
00000000
00000000
00010000
00000000
00003010
,
00000000
00000000
00000010
00001000
00000010
00000000
00001000
00000010
00010000
00000000
00010000
00001000
00010000
00000000
01000000
00010000
,
01000000
00100000
10000000
01000000
00100000
00010000
00010000
00100000
,
00010000
00001000
00000100
00000010
00000010
00000001
00000100
00000010
,
00000100
00000010
00002000
00000000
00023000
00000000
00032000
00000000
,
02003000
00000000
03200000
00000000
10300000
01000000
00100000
00010000
,
00100000
00001000
00020000
00000000
00032000
00000000
00000000
00103000
,
00101000
00001000
01000000
00000000
02100000
00000000
00000000
03010000
,
10000000
01000000
00100000
00000000
00210000
00000000
00000000
00301000
,
00010000
00001000
00010000
00000000
00000010
00001000
00000000
00001020
,
00000000
00000100
00001030
00000000
00012000
00000000
00000000
01003000
,
01010000
00000000
01000000
00000000
02100000
00000000
00000000
13000000
,
00100000
00000000
10000000
00000000
21000000
00000000
00000000
30100000
,
00010000
00000000
00000000
00000000
00001000
00000000
00000000
00000000
00011000
00000000
00000000
00000000
00001000
00000000
00000000
00000010
,
00000000
00000000
00000002
00000000
00002003
00000000
00000000
00003020
00000000
00000000
00000000
00000000
00000000
00000000
00000000
00000000
,
00010030
00200000
00000000
10300000
00020000
00000000
00130000
00000000
00002000
00000000
00000000
00000000
00000000
00000000
00000000
00000000
,
00023000
00000000
00030200
00000000
00001300
00000010
00000000
00000000
00000010
00020000
00000000
00000000
00000000
00000000
00000000
00000000
,
00032000
00000000
00203000
00000000
00300100
00000000
00010000
00002000
00000000
00000000
00103000
00000000
00200020
00000000
00000000
00000000
,
00000000
00310000
00000000
00000000
,
00001030
00000000
00000010
00000000
00200000
00000000
00000000
00000000
00000000
00000000
00000000
00000000
00320000
00000000
00000000
02030000
,
00000000
00000000
23000000
00000000
00000000
00000000
00000000
32000000
00000000
00000000
00000000
00000000
03010000
00000000
00011000
00000000
,
00010100
00001100
00002002
00000000
00000000
00000000
00000000
00000000
,
00000000
00000000
00000000
00000000
,
00003003
00000000
00001000
00000010
00000010
00001000
00000100
00001000
,
00000100
00000000
00001000
00000000
00000001
00000000
00000100
00000000
00000010
00000000
00001000
00000000
00000001
00001000
00000001
00001000
,
00000020
00000000
00001030
00010000
00001000
01000000
00100000
10000000
,
00100000
00000000
10000000
00000000
01000000
10000000
01000000
00000000
00100000
00000000
00001000
00000000
01000000
00000000
00001000
00000000
,
00010000
00000000
00000100
00010000
00000100
00000000
00010000
00000000
00000100
00000000
00000010
00000000
00000001
00000100
00000001
00000000
,
00001000
00000010
00001000
00010000
01000000
00010000
00100000
01000000
,
00100000
00000000
01000000
00000000
10000000
00000000
10000000
01000000
00000000
00010000
00000000
00000000
00001000
00000000
00000000
00010000
,
00000010
00010000
00000200
00000000
00000000
00001300
00000000
00000100
,
00001000
00000001
00001000
00001000
00000001
00000100
00000010
00001000
,
00010000
01000000
00100000
10000000
00010000
10000000
00100000
01000000
,
00100000
10000000
00200000
00000000
10000000
20300000
00000000
30000000
,
00100000
00000000
10000000
00000000
01000000
10000000
01000000
00000000
00100000
00010000
00100000
00000000
00001000
00010000
00001000
00000000
,
00000010
00000000
00001010
00000000
00010000
00011000
00000000
00000000
,
01010000
00000000
10000000
10100000
00000000
10000000
01000000
10000000
,
01000000
00100000
00020000
00000000
00000000
00001000
00000000
00000000
,
00100000
00000000
00031000
01000000
00200000
20300000
32000000
03200000
,
00320000
00032000
00003020
00000000
00000000
00000000
00000000
00000000
,
00000000
00000000
00000000
00000000
,
00000000
00000000
00000000
00000000
,
00000000
00000000
00000030
00000000
;
