#VERSION:0.83;
#TITLE:ヤバッ!;
#SUBTITLE:;
#ARTIST:BABYMETAL;
#TITLETRANSLIT:Yava!;
#SUBTITLETRANSLIT:;
#ARTISTTRANSLIT:;
#GENRE:Kawaii Metal;
#ORIGIN:;
#CREDIT:;
#BANNER:Yava!.png;
#BACKGROUND:Yava!-bg.png;
#PREVIEWVID:;
#JACKET:Yava!-jacket.png;
#CDIMAGE:;
#DISCIMAGE:;
#LYRICSPATH:;
#CDTITLE:cdtitle.png;
#MUSIC:Yava!.ogg;
#OFFSET:-0.468660;
#SAMPLESTART:50.312408;
#SAMPLELENGTH:10.000000;
#SELECTABLE:YES;
#BPMS:0.000=192.000;
#STOPS:;
#DELAYS:;
#WARPS:;
#TIMESIGNATURES:0.000=4=4;
#TICKCOUNTS:0.000=4;
#COMBOS:0.000=1;
#SPEEDS:0.000=1.000=0.000=0;
#SCROLLS:0.000=1.000;
#FAKES:;
#LABELS:0.000=Song Start;
#BGCHANGES:;
#KEYSOUNDS:;
#ATTACKS:
;

//---------------dance-single - ----------------
#NOTEDATA:;
#CHARTNAME:;
#STEPSTYPE:dance-single;
#DESCRIPTION:;
#CHARTSTYLE:;
#DIFFICULTY:Challenge;
#METER:15;
#RADARVALUES:0.773604,0.876664,0.529651,0.538783,0.237430,593.000000,535.000000,58.000000,59.000000,0.000000,0.000000,0.000000,0.000000,0.000000,0.773604,0.876664,0.529651,0.538783,0.237430,593.000000,535.000000,58.000000,59.000000,0.000000,0.000000,0.000000,0.000000,0.000000;
#CREDIT:;
#NOTES:
// measure 0
0000
0000
0000
0000
,  // measure 1
0000
0000
0000
0000
,  // measure 2
0000
0000
0000
0000
,  // measure 3
0000
0000
0000
0000
,  // measure 4
0000
0000
0000
0000
,  // measure 5
0000
0000
0000
0000
,  // measure 6
0000
0000
0000
0000
,  // measure 7
0000
0000
0000
0000
,  // measure 8
0001
0010
1000
0001
0100
1000
0001
0010
,  // measure 9
1000
0010
0100
1000
0001
0000
0100
0010
,  // measure 10
1000
0010
0001
1000
0100
0001
1000
0010
,  // measure 11
0001
0010
0100
0001
1000
0100
0010
0001
,  // measure 12
1000
0100
0001
1000
0010
0001
0100
1000
,  // measure 13
0001
0010
1000
0001
1000
0000
0100
0010
,  // measure 14
0001
0010
0001
0010
0001
0000
1000
0010
1000
0010
1000
0000
0100
0000
0110
0000
,  // measure 15
0000
0000
0001
1000
0001
0000
0100
0000
0010
0000
1000
0000
0001
0010
0100
1000
,  // measure 16
0001
0000
1000
1000
0010
0000
0001
0001
,  // measure 17
0010
0000
1010
0000
0101
0000
1000
0001
,  // measure 18
0010
0000
0100
0100
1000
0000
0001
0100
,  // measure 19
0000
0010
1000
0100
0010
0001
0100
0010
,  // measure 20
1000
0000
0001
0001
0010
0000
1000
1000
,  // measure 21
0010
0000
0011
0000
1100
0000
0001
1000
,  // measure 22
0010
0000
0100
0100
0001
0000
1001
1001
,  // measure 23
0000
0000
1000
0000
0100
0000
0010
0000
0001
1000
0001
1000
0001
0000
0100
0000
,  // measure 24
0110
0000
0001
0100
0110
0000
0001
0200
,  // measure 25
0320
0130
2000
3100
0020
0130
0001
0010
,  // measure 26
0110
0000
0001
0010
0110
0000
0001
2000
,  // measure 27
0000
3020
0032
0023
0230
0301
1000
0100
,  // measure 28
0110
0000
1000
0100
0110
0000
1000
0200
,  // measure 29
0320
0130
0002
0103
0020
0130
1000
0010
,  // measure 30
0110
0000
1000
0010
0110
0000
1010
2001
,  // measure 31
0000
0000
3001
0010
0100
0000
0010
0000
0200
0000
0000
0000
1300
0010
0100
0001
,  // measure 32
1000
0000
1000
0000
1020
0100
0030
0100
,  // measure 33
0010
0000
0000
0000
0010
0000
0100
0010
2000
0000
3001
1000
0100
0000
0010
0000
,  // measure 34
0001
0010
0001
0000
0010
0000
0001
0000
0021
0000
0130
0000
0010
0100
0010
0000
,  // measure 35
0001
0000
1000
0001
0100
0000
0010
0000
0100
0001
1000
0000
0100
0000
0010
0000
,  // measure 36
0120
0000
0001
0032
0000
1000
2003
0000
,  // measure 37
0010
0000
3020
0000
0000
0000
0100
0000
0130
0000
0010
0100
0001
0000
1000
0000
,  // measure 38
2010
0000
3100
0012
0000
0103
2010
0000
,  // measure 39
3100
0010
0001
0100
0010
0010
0000
1002
,  // measure 40
0000
0103
0010
0100
0010
0100
1000
0100
,  // measure 41
0010
0000
0100
0000
0001
0000
0100
0001
1000
0001
0010
0000
0100
0000
0210
0000
,  // measure 42
0000
1300
0100
0010
0100
0010
1000
0001
,  // measure 43
0100
0000
0010
0000
0001
0000
0010
0001
1000
0001
0100
0000
0010
0000
2010
0000
,  // measure 44
0000
3100
1000
0010
1000
0100
0010
0012
,  // measure 45
0000
0103
0001
0010
0001
0100
0101
2000
,  // measure 46
0000
0000
3100
0000
1100
0000
0002
0000
0000
0000
0103
0010
0100
0000
2002
0000
,  // measure 47
0000
0000
3003
0000
1000
0010
0100
0001
1000
0000
1000
0000
0001
0000
2001
0000
,  // measure 48
0000
3100
0010
0100
0010
0100
0001
0100
,  // measure 49
0010
0000
0100
0000
1000
0000
0100
1000
0001
1000
0010
0000
0100
0000
0210
0000
,  // measure 50
0000
0301
0100
0010
0100
0010
0001
1000
,  // measure 51
0100
0000
0010
0000
1000
0000
0010
1000
0001
1000
0100
0000
0010
0000
0012
0000
,  // measure 52
0000
0000
0013
0000
0100
0000
0010
0000
0001
1000
0001
1000
0010
0000
2010
0000
,  // measure 53
0000
0000
3010
0000
0100
0000
0010
0000
1000
0001
1000
0001
0010
0000
0012
0000
,  // measure 54
0000
0013
0011
2000
0000
3010
1010
0002
,  // measure 55
0000
0000
0013
0000
0100
1000
0001
1000
0001
0000
0100
0000
0010
0000
1020
0000
,  // measure 56
0000
1030
0010
1000
0010
0001
0010
0001
,  // measure 57
0010
1000
0001
0100
1000
0100
0001
0021
,  // measure 58
0000
0031
0010
0001
0010
1000
0010
1000
,  // measure 59
0010
0001
1000
0100
0001
0100
1000
1002
,  // measure 60
0000
0103
0010
0100
1000
0100
0001
0010
,  // measure 61
1000
0010
0001
1000
0010
0100
0001
2001
,  // measure 62
0000
3010
0100
0010
0001
0010
1000
0100
,  // measure 63
0001
0000
0100
0000
1000
0000
0001
1000
0010
0100
0010
0000
0100
0000
0210
0000
,  // measure 64
0000
0010
0010
0000
0001
0301
0000
0102
,  // measure 65
0000
1000
1000
0000
0013
0100
0010
0210
,  // measure 66
0000
0010
0010
0000
1000
1300
0000
2100
,  // measure 67
0000
0000
3001
1000
0010
0000
0100
0000
0001
0000
1000
0000
0001
0000
0012
0000
,  // measure 68
0000
1000
1000
0000
0100
0103
0000
2010
,  // measure 69
0000
0000
0001
0000
3001
0000
1000
0100
0010
0000
0100
0010
0001
0000
2000
0000
,  // measure 70
0000
3010
1010
0002
0000
0013
0011
2000
,  // measure 71
0000
0000
3001
0100
0010
1000
0010
0200
0002
0000
0000
0000
0303
0000
0000
0000
,  // measure 72
1001
0000
1000
0100
0001
0100
1000
0000
,  // measure 73
0100
0000
0001
0000
1000
0000
0010
0000
0002
0000
0000
0000
0013
0001
0010
0001
,  // measure 74
1000
0000
0001
0100
1000
0100
0001
0000
,  // measure 75
0100
0000
1000
0000
0001
0000
0010
0000
2000
0000
0000
0000
3010
1000
0010
1000
,  // measure 76
0001
0000
0010
1000
0010
0001
1000
0000
,  // measure 77
0010
0000
0001
0000
0010
0000
1000
0000
0002
0000
0000
0000
1003
0100
0010
0001
,  // measure 78
1000
0000
1010
1010
0000
0011
0011
0000
,  // measure 79
0101
0000
0101
0000
0000
0000
1100
0000
2100
0000
0000
0000
3001
0100
0001
0100
,  // measure 80
0010
0000
0000
0000
;

//---------------dance-single - ----------------
#NOTEDATA:;
#CHARTNAME:;
#STEPSTYPE:dance-single;
#DESCRIPTION:;
#CHARTSTYLE:;
#DIFFICULTY:Hard;
#METER:13;
#RADARVALUES:0.572702,0.620971,0.273958,0.867532,0.000000,439.000000,409.000000,30.000000,95.000000,0.000000,0.000000,0.000000,0.000000,0.000000,0.572702,0.620971,0.273958,0.867532,0.000000,439.000000,409.000000,30.000000,95.000000,0.000000,0.000000,0.000000,0.000000,0.000000;
#CREDIT:;
#NOTES:
0000
0000
0000
0000
,
0000
0000
0000
0000
,
0000
0000
0000
0000
,
0000
0000
0000
0000
,
0000
0000
0000
0000
,
0000
0000
0000
0000
,
0000
0000
0000
0000
,
0000
0000
0000
0000
,
0001
0000
1000
0010
0000
0010
0100
0000
,
0100
0001
0000
1000
0100
0010
0100
0010
,
0001
0000
0001
0010
0000
0010
0100
0000
,
0100
1000
0000
0001
0100
0010
1000
0100
,
0010
0000
0010
0001
0000
0001
1000
0000
,
1000
0010
0000
1000
0001
0010
0100
1000
,
0001
0001
0000
1000
1000
0000
0001
1001
,
0000
1000
0010
0100
0010
0100
0001
1000
,
0100
0000
0100
1000
0001
0000
0001
1000
,
0100
0000
0010
0000
0001
0000
0100
0010
,
1000
0000
1000
0010
0100
0000
0010
0010
,
0000
1000
0001
1000
0100
0000
1000
0001
,
0100
0000
0100
0001
1000
0000
1000
0001
,
0100
0000
0010
0000
1000
0000
0100
0010
,
0001
0000
0001
0010
0100
0000
0010
0110
,
0000
1000
0010
0100
0001
0000
0000
0002
,
0100
0000
1003
0002
0100
0000
1003
0002
,
0023
0000
2030
0000
3020
0000
0031
0200
,
1000
0000
0301
0200
1000
0000
0310
0020
,
0000
1030
0010
0100
0001
1000
0001
2000
,
0100
0000
3001
2000
0100
0000
3001
2000
,
3020
0000
0032
0000
0023
0000
1030
0200
,
0001
0000
1300
0200
0001
0000
0310
0120
,
0000
0031
0100
0010
1000
0000
0001
1000
,
0100
0000
0100
0000
0011
0000
0000
0001
,
0100
0000
0100
0000
1010
0000
0001
1000
,
0100
0000
0100
0000
0011
0000
1000
0001
,
0100
0010
1000
0000
0100
0010
0001
0000
,
2000
0000
0010
3020
0000
0100
0230
0000
,
0001
0302
0000
1000
1003
0000
0001
1000
,
0001
0010
0001
1000
0010
1000
0001
0000
,
1000
0100
0010
0001
1000
1000
0000
1002
,
0000
0103
0020
0000
0032
0000
0013
0200
,
0000
0302
0000
1003
0100
0010
0100
0210
,
0000
1300
0200
0000
0302
0000
1003
0020
,
0000
0032
0000
1003
0001
0100
0010
2010
,
0000
0010
0010
0000
3001
0000
1001
0002
,
0000
0010
0010
0000
1003
0000
1001
2000
,
0000
0100
0100
3002
0000
0100
0100
2003
,
0000
3001
0100
0010
1000
1000
0000
2001
,
0000
3100
0020
0000
2030
0000
3010
0200
,
0000
2300
0000
3001
0100
0010
0100
0210
,
0000
0301
0200
0000
2300
0000
3001
0020
,
0000
2030
0000
3001
1000
0100
0010
0012
,
0000
1000
1000
0000
0103
0010
1010
2000
,
0000
0001
0001
0000
3100
0010
0011
0002
,
0000
0010
0010
2003
0000
0010
0010
3002
,
0000
0013
0100
0010
0100
1000
0001
2001
,
0000
3010
1000
0010
0002
0000
0013
0100
,
0002
0000
1003
0010
0100
0001
1000
1002
,
0000
0013
0001
0010
2000
0000
3010
0100
,
2000
0000
3001
0010
0100
1000
0010
1020
,
0000
0031
0010
1000
0002
0000
1003
0100
,
0002
0000
0103
0010
0100
1000
0001
0021
,
0000
1030
0010
0001
2000
0000
3001
0100
,
2000
0000
3100
0001
1000
0100
0010
0022
,
0000
0030
0010
0000
2000
0000
3000
0200
,
0000
0300
0103
0000
0001
0100
0010
2020
,
0000
0030
0010
0000
0002
0000
0003
0200
,
0300
0200
3300
1000
0100
0010
0001
2002
,
0000
3000
1000
0000
0200
0000
0303
2002
,
0000
0003
0001
0000
3100
0010
0100
2000
,
0000
0100
0100
3002
0000
0100
0100
2003
,
0000
3100
0010
0002
2000
0000
3003
0000
,
1001
0000
2000
0010
0000
3002
0100
0000
,
0023
0100
0000
0032
1000
0000
0103
0010
,
1000
0000
0002
0010
0000
2003
0100
0000
,
3020
0100
0000
2030
0001
0000
3100
0010
,
0001
0000
2000
0100
0000
3002
0100
0000
,
2003
0010
0000
3002
0010
0000
1003
0001
,
1000
0000
0001
0011
0000
1000
1010
0000
,
0100
0110
0000
1001
1001
0000
1000
0100
,
0001
0000
0000
0000
;

//---------------dance-single - ----------------
#NOTEDATA:;
#CHARTNAME:;
#STEPSTYPE:dance-single;
#DESCRIPTION:;
#CHARTSTYLE:;
#DIFFICULTY:Medium;
#METER:10;
#RADARVALUES:0.407023,0.438332,0.182638,0.410936,0.000000,312.000000,292.000000,20.000000,45.000000,0.000000,0.000000,0.000000,0.000000,0.000000,0.407023,0.438332,0.182638,0.410936,0.000000,312.000000,292.000000,20.000000,45.000000,0.000000,0.000000,0.000000,0.000000,0.000000;
#CREDIT:;
#NOTES:
0000
0000
0000
0000
,
0000
0000
0000
0000
,
0000
0000
0000
0000
,
0000
0000
0000
0000
,
0000
0000
0000
0000
,
0000
0000
0000
0000
,
0000
0000
0000
0000
,
0000
0000
0000
0000
,
0001
0010
0100
1000
,
0100
0000
0010
0000
0001
0000
1000
0001
,
1000
0010
0100
0001
,
0100
0000
0010
0000
1000
0000
0001
1000
,
0001
0010
0100
1000
,
0010
0000
0100
0000
0001
0000
1000
0001
,
1000
0000
0000
0001
0000
1000
0000
1001
,
0000
0001
0010
0100
,
1000
0000
0000
0100
1000
0000
0000
0100
,
1000
0000
0001
0000
0001
0000
1000
0010
,
1000
0000
0000
0010
1000
0000
0000
0001
,
0000
1000
0100
0010
,
0001
0000
0000
0100
0001
0000
0000
0100
,
0001
0000
1000
0000
1000
0000
0001
0010
,
0001
0000
0000
0010
0001
0000
0000
1001
,
0000
0000
1001
0000
1001
0000
0001
1000
,
0002
0100
2003
0100
,
3001
0000
0010
0000
0001
0000
0100
0010
,
0200
0001
0320
1000
,
0130
0000
0100
0000
0001
0000
1000
0001
,
2000
0100
3002
0100
,
1003
0000
0010
0000
1000
0000
0100
0010
,
0200
0000
1000
0000
0320
0000
0000
0001
,
0000
0100
0130
0000
,
1000
0100
0011
0000
,
0001
0100
1010
0001
,
1000
0100
0011
1000
,
0001
0100
0010
0000
1000
0100
0010
0000
,
0002
0000
0000
0203
0000
0000
0320
0000
,
0000
2030
0000
0000
3001
0000
0010
0000
,
0200
0000
0000
0010
0000
0000
0310
0000
,
0100
0000
0100
0000
0010
0100
0000
1002
,
0000
0103
0010
0100
,
1000
0000
0100
0000
0010
0000
0100
0002
,
0000
0103
0001
0000
0010
0000
1000
0000
,
0010
0000
0001
0000
0100
0000
0010
2000
,
0000
0000
0010
0000
3001
0000
0010
0002
,
0000
0000
0010
0000
1003
0000
0010
0200
,
0000
0300
0010
0200
0000
0300
0001
2000
,
0000
3001
1000
0000
0100
0010
0000
2001
,
0000
3100
0010
0100
,
0001
0000
0100
0000
0010
0000
0100
2000
,
0000
3100
1000
0000
0010
0000
0001
0000
,
0010
0000
1000
0000
0100
0000
0010
0002
,
0000
0000
0010
0000
0103
0000
0010
2000
,
0000
0000
0010
0000
3100
0000
0010
0200
,
0000
0300
0010
0200
0000
0300
1000
0002
,
0000
0000
0000
0103
0010
0100
0000
2020
,
0000
3030
1000
0000
0010
0000
0001
0000
,
0010
0000
1000
0100
0010
0001
0000
0022
,
0000
0033
0001
0000
0010
0000
1000
0000
,
0010
0000
0001
1000
0010
0100
0000
0220
,
0000
0330
1000
0000
0010
0000
0100
0000
,
0001
0000
1000
0001
0010
0100
0000
0220
,
0000
0330
0001
0000
0010
0000
0100
0000
,
1000
0000
0010
0100
0001
0100
0000
0201
,
0000
0000
0000
0000
0010
0000
0000
0020
,
0000
0000
0030
0000
0301
0000
1000
0200
,
0000
0000
0000
0000
0010
0000
0000
0010
,
0000
0010
0000
1300
0000
0100
1000
0002
,
0000
0000
0000
0000
1000
0000
0000
2000
,
0000
0000
3000
0000
0103
0000
0010
2000
,
0000
3000
0001
0020
0000
0030
0100
0020
,
0000
0030
0110
0000
2002
0000
3003
0000
,
0001
0100
1000
0100
,
0001
0000
0010
0000
0001
0000
0010
0001
,
1000
0100
0001
0100
,
1000
0000
0010
0000
1000
0000
0010
1000
,
0001
0010
0100
1000
,
0010
0000
0100
0000
0001
0000
1000
0100
,
0010
0000
0000
0011
0000
0000
1100
0000
,
0000
1010
0000
0000
0101
0000
1000
0100
,
0010
0000
0000
0000
;

//---------------dance-single - ----------------
#NOTEDATA:;
#CHARTNAME:;
#STEPSTYPE:dance-single;
#DESCRIPTION:;
#CHARTSTYLE:;
#DIFFICULTY:Easy;
#METER:8;
#RADARVALUES:0.271348,0.328749,0.219166,0.347013,0.000000,208.000000,184.000000,24.000000,38.000000,0.000000,0.000000,0.000000,0.000000,0.000000,0.271348,0.328749,0.219166,0.347013,0.000000,208.000000,184.000000,24.000000,38.000000,0.000000,0.000000,0.000000,0.000000,0.000000;
#CREDIT:;
#NOTES:
0000
0000
0000
0000
,
0000
0000
0000
0000
,
0000
0000
0000
0000
,
0000
0000
0000
0000
,
0000
0000
0000
0000
,
0000
0000
0000
0000
,
0000
0000
0000
0000
,
0000
0000
0000
0000
,
0001
0000
0010
0000
,
0100
0000
0010
0001
,
1000
0000
0010
0000
,
0100
0000
0010
1000
,
0001
0000
0010
0000
,
0100
0000
1000
0010
,
0100
0000
0000
0001
0000
0000
0000
2002
,
0000
3003
0001
1000
,
0100
0000
0100
0000
,
0100
1000
0010
0000
,
1000
0000
1000
0000
,
0001
0010
0001
0000
,
0100
0000
0100
0000
,
0100
0001
0010
0000
,
0001
0000
0000
0000
0001
0000
0000
2002
,
0000
0000
3003
0000
,
1010
0000
1010
0000
,
0010
1000
0100
0000
,
1100
0000
1100
0000
,
0100
0010
0001
0000
,
0011
0000
0011
0000
,
0010
0001
0100
0000
,
0101
0000
0000
0000
0101
0000
0000
2002
,
0000
3003
1000
0001
,
0010
0000
0110
0000
,
1000
0000
1001
0000
,
0100
0000
0110
0000
,
1000
0010
0100
0001
,
1000
0000
1010
0000
,
0001
0000
0011
2000
,
0002
0000
0000
0000
,
0000
0000
0000
0000
3003
0000
0000
1002
,
0000
0100
0103
0000
,
0100
0000
0001
0000
0100
0000
0000
1002
,
0000
0010
0013
0000
,
0001
0000
0010
0000
0001
0000
0000
2000
,
0000
0000
0010
0000
3010
0000
0000
0002
,
0000
0000
0010
0000
0013
0000
0000
2000
,
0000
3000
0000
0002
0000
0003
0000
2000
,
0000
0000
0000
0000
3000
0000
0000
2001
,
0000
0100
3100
0000
,
0100
0000
1000
0000
0100
0000
0000
2001
,
0000
0010
3010
0000
,
1000
0000
0010
0000
1000
0000
0000
0002
,
0000
0000
0010
0000
1003
0000
0000
2000
,
0000
0000
0010
0000
3001
0000
0000
0002
,
0000
0003
0000
2000
0000
3000
0000
0002
,
0000
0000
0000
0000
0003
0000
0000
2000
,
0000
3010
1000
0010
,
1000
0000
0010
0000
1000
0000
0000
0002
,
0000
0013
0001
0010
,
0001
0000
0010
0000
0001
0000
0000
0200
,
0000
0310
0100
0010
,
0100
0000
0010
0000
0100
0000
0000
0020
,
0000
1030
0001
1000
,
0001
0000
1000
0000
0001
0000
0000
0021
,
0000
0000
0000
0000
0230
0000
0000
2300
,
0000
0000
0000
0000
3000
0000
0000
1020
,
0000
0000
0000
0000
0230
0000
0000
0001
,
0000
0001
0000
0301
0000
0000
0000
2001
,
0000
0000
0000
0000
3200
0000
0000
0320
,
0000
0000
0000
0000
0030
0000
0000
0002
,
0000
0003
0000
2000
0000
3000
0000
0002
,
0000
1000
2000
3003
,
0001
0000
0100
0000
,
0010
0010
1000
0010
,
1000
0000
0100
0000
,
0010
0010
0001
0010
,
0001
0000
0100
0000
,
0010
0010
1000
0100
,
0010
0000
0000
0010
0000
0000
0010
0000
,
0000
0010
0000
0000
0010
0000
0000
0000
,
1001
0000
0000
0000
;

//---------------dance-single - ----------------
#NOTEDATA:;
#CHARTNAME:;
#STEPSTYPE:dance-single;
#DESCRIPTION:;
#CHARTSTYLE:;
#DIFFICULTY:Beginner;
#METER:2;
#RADARVALUES:0.134370,0.219166,0.073055,0.036528,0.000000,103.000000,95.000000,8.000000,4.000000,0.000000,0.000000,0.000000,0.000000,0.000000,0.134370,0.219166,0.073055,0.036528,0.000000,103.000000,95.000000,8.000000,4.000000,0.000000,0.000000,0.000000,0.000000,0.000000;
#CREDIT:;
#NOTES:
0000
0000
0000
0000
,
0000
0000
0000
0000
,
0000
0000
0000
0000
,
0000
0000
0000
0000
,
0000
0000
0000
0000
,
0000
0000
0000
0000
,
0000
0000
0000
0000
,
0000
0000
0000
0000
,
0001
0000
0000
0000
,
0010
0000
0000
0000
,
0100
0000
0000
0000
,
1000
0000
0000
0000
,
0010
0000
0000
0000
,
0100
0000
0000
0000
,
0001
0000
0000
0000
,
1001
0000
0000
0000
,
1000
0000
1000
0000
,
1000
0000
0000
0000
,
0010
0000
0010
0000
,
0010
0000
0000
0000
,
0001
0000
0001
0000
,
0001
0000
0000
0000
,
0010
0000
0010
0000
,
0010
0000
0000
0000
,
1000
0000
0010
0000
,
1000
0000
0000
0000
,
0100
0000
1000
0000
,
0100
0000
0000
0000
,
0001
0000
0010
0000
,
0001
0000
0000
0000
,
0100
0000
0001
0000
,
0100
0000
0000
0000
,
1001
0000
0000
0000
,
0110
0000
0000
0000
,
1001
0000
0000
0000
,
0010
0000
0000
0000
,
1000
0000
0000
0000
,
0001
0000
0000
0000
,
0020
0000
0000
0000
,
0030
0000
0000
0000
,
1001
0000
0000
0000
,
0100
0000
0000
0000
,
1001
0000
0000
0000
,
0010
0000
0000
0000
,
0001
0000
0000
0000
,
0001
0000
0000
0000
,
0001
0000
1000
0000
,
0001
0000
0000
0000
,
1001
0000
0000
0000
,
0100
0000
0000
0000
,
1001
0000
0000
0000
,
0010
0000
0000
0000
,
1000
0000
0000
0000
,
1000
0000
0000
0000
,
1000
0000
0001
0000
,
1000
0000
0000
0000
,
0001
0000
0010
0000
,
0100
0000
0000
0000
,
0010
0000
0100
0000
,
1000
0000
0000
0000
,
0010
0000
0100
0000
,
0001
0000
0000
0000
,
1000
0000
0010
0000
,
0100
0000
0000
0000
,
0001
0000
0001
0000
,
0002
0000
0003
0000
,
1000
0000
1000
0000
,
2000
0000
3000
0000
,
0100
0000
0100
0000
,
0200
0000
0300
0000
,
0010
0000
0100
0000
,
0010
0000
0000
0000
,
0001
0000
0001
0000
,
0100
0000
0000
0000
,
0010
0000
0010
0000
,
1000
0000
0000
0000
,
0100
0000
0100
0000
,
0010
0000
0000
0000
,
0001
0000
1000
0000
,
0001
0000
1000
0000
,
0010
0000
0000
0000
;
