#TITLE:Ya Better WORK IT;
#SUBTITLE:;
#ARTIST:Kaystar;
#TITLETRANSLIT:;
#SUBTITLETRANSLIT:;
#ARTISTTRANSLIT:;
#GENRE:;
#CREDIT:KAYSTAR;
#MUSIC:ya better work it.ogg;
#BANNER:ya better work it bn.png;
#BACKGROUND:ya better work it bg.png;
#CDTITLE:;
#SAMPLESTART:54.545;
#SAMPLELENGTH:10.000;
#SELECTABLE:YES;
#OFFSET:-0.006;
#BPMS:0.000=176.000
,31.000=88.000
,31.250=176.000
,31.500=352.000
,32.000=176.000
,63.000=88.000
,63.250=176.000
,63.500=352.000
,64.000=176.000
,127.000=88.000
,127.250=176.000
,127.500=352.000
,128.000=176.000
,143.000=88.000
,143.250=176.000
,143.500=352.000
,144.000=176.000
,156.000=88.000
,156.500=176.000
,157.000=352.000
,158.000=176.000
,168.000=88.000
,168.250=176.000
,168.500=352.000
,169.000=176.000
,176.000=88.000
,176.250=176.000
,176.500=352.000
,177.000=176.000
,178.000=88.000
,178.250=176.000
,178.500=352.000
,179.000=176.000
,180.000=88.000
,180.250=176.000
,180.500=352.000
,181.000=176.000
,182.000=88.000
,182.250=176.000
,182.500=352.000
,183.000=176.000
,184.000=44.000
,184.500=88.000
,185.000=176.000
,186.000=352.000
,191.667=88.000
,199.000=44.000
,199.250=88.000
,199.500=176.000
,200.500=88.000
,200.750=44.000
,201.000=88.000
,222.000=44.000
,222.500=88.000
,223.000=176.000
,238.000=88.000
,238.250=176.000
,238.500=352.000
,239.000=88.000
,239.250=176.000
,239.500=352.000
,240.000=176.000
,254.000=88.000
,254.500=176.000
,255.000=352.000
,256.000=176.000
,270.000=88.000
,270.250=176.000
,270.500=352.000
,271.000=88.000
,271.250=176.000
,271.500=352.000
,272.000=176.000
,280.000=88.000
,280.250=176.000
,280.500=352.000
,281.000=88.000
,281.250=176.000
,281.500=352.000
,282.000=88.000
,282.250=176.000
,282.500=352.000
,283.000=88.000
,283.250=176.000
,283.500=352.000
,284.000=176.000
,288.000=88.000
,288.250=176.000
,288.500=352.000
,289.000=176.000
,290.000=88.000
,290.604=44.000
,290.813=22.000
;
#STOPS:191.667=0.170
,290.917=0.455
;
#DISPLAYBPM:176.000:88.000;
#BGCHANGES:15.896=ya better work it.avi=1.000=0=0=1===CrossFade_Fastest==,
289.000=ya better work it bg.png=1.000=0=0=1,
99999.000=-nosongbg-=1.000=0=0=0=StretchNoLoop====
;
#FGCHANGES:;

//--------------- dance-single - KAYSTAR ----------------
#NOTES:
     dance-single:
     KAYSTAR:
     Beginner:
     4:
     0,0,0,0,0:
0000
0000
0000
0000
,
0000
0000
0000
0000
,
0000
0000
0000
0000
,
0000
0000
0000
0000
,
1000
0000
1000
0000
,
0001
0000
0001
0000
,
1000
0000
1000
0000
,
0001
0000
0000
0020
,
0030
0000
0100
0000
,
0010
0000
0100
0000
,
1000
0000
0001
0000
,
1000
0000
0001
0000
,
0100
0000
0010
0000
,
0100
0000
0010
0000
,
1000
0000
0000
0000
0001
0000
0000
0001
,
0000
1000
1000
2000
,
3000
0000
0001
0000
,
0100
0000
0001
0000
,
1000
0000
0100
0000
,
1000
0000
0100
0000
,
1000
0000
0010
0000
,
1000
0000
0010
0000
,
0001
0000
0010
0000
,
0001
0000
0010
0000
,
1000
0000
0100
0000
,
1000
0000
0100
0000
,
0001
0000
0100
0000
,
0001
0000
1000
1000
,
1000
0000
0010
0000
,
0100
0000
0001
0000
,
0010
0000
0100
0000
,
1000
1000
1000
2000
,
3000
0000
0001
0000
,
0001
0000
0001
0000
,
0010
0010
0010
0000
,
0100
0000
0100
0200
,
0300
0000
1000
0000
,
1000
0000
1000
0000
,
0010
0010
0010
0000
,
0200
0000
0300
0000
,
0001
0000
1000
0000
,
0010
0000
1000
0000
,
0002
0003
0000
0000
,
0010
0010
0010
0000
,
0002
0003
0002
0003
,
2000
3000
2000
3000
,
0020
0000
0000
0000
,
0000
0000
0000
0030
,
0000
0100
0100
0100
,
0000
0001
0001
0002
,
0000
0003
1000
1000
,
0000
0100
0100
0100
,
0001
0000
1000
0000
,
0001
0000
1000
1000
,
0010
0000
0100
0000
,
0001
0000
0020
0000
,
0030
0000
0001
0000
,
1000
0000
0010
0000
,
0100
0100
0100
0000
,
0001
0000
2000
3000
,
0001
0000
0001
0000
,
0010
0000
0010
0000
,
0100
0100
0100
0000
,
1000
0000
0002
0000
,
0003
0000
0100
0000
,
0001
0000
1000
0000
,
0100
0000
1000
0000
,
0010
0000
0200
0300
,
0001
0000
0010
0000
,
0100
0000
1000
0000
,
0002
0003
2000
3000
,
0001
0001
0100
0010
,
2000
0002
0000
3003
;

//--------------- dance-single - KAYSTAR ----------------
#NOTES:
     dance-single:
     KAYSTAR:
     Easy:
     9:
     0,0,0,0,0:
0000
0000
0000
0000
,
0000
0000
0000
0000
,
0000
0000
0000
0000
,
0000
0000
0000
0000
,
1000
0000
0000
0001
0000
0000
0010
0000
,
0000
0001
0000
0000
0100
0000
0000
0000
,
0001
0000
0000
1000
0000
0000
0010
0000
,
0000
1000
0000
0000
0001
0000
0002
0000
,
0003
0000
0000
1000
0000
0100
0000
1000
,
0000
0001
0100
0000
0010
1000
0010
0000
,
1000
0000
0000
0001
0000
0010
0000
0001
,
0000
1000
0100
1000
0000
0000
0001
0000
,
0101
0000
0000
1000
0000
0010
0000
0100
,
0000
0001
1000
0000
0100
1000
0100
0000
,
1000
0000
0000
0001
0000
0100
0010
1000
,
0000
0001
1000
0002
,
0003
0000
0000
1000
0000
0100
0000
0010
,
0000
0000
0001
0000
1000
0000
0010
0100
,
0000
0000
0001
0000
1000
0000
0100
0010
,
0000
0000
0001
0000
1000
0001
1000
0000
,
0001
0000
0000
0010
0000
0001
0000
1000
,
0000
0000
0010
0000
0100
0001
0000
1000
,
0000
0100
0000
0000
1000
0000
0001
0000
,
0100
1000
0100
0001
,
1000
0000
0000
0001
0000
0010
0000
0100
,
0000
0000
1000
0000
0001
0000
0100
0010
,
0000
0000
1000
0000
0001
0000
0010
0100
,
0000
0000
1000
0000
0001
1000
0001
0000
,
1000
0000
0000
0100
0000
1000
0000
0001
,
0000
0000
0010
0000
0001
1000
0001
1000
,
0000
0010
0000
0000
0100
0000
0001
0000
,
1000
0100
0010
0002
,
0003
0000
0000
1000
0010
1000
0010
1000
,
0010
1000
0010
1000
0010
1000
0001
0000
,
0100
0010
1000
0001
,
0010
0100
1000
0020
,
0030
0000
0000
1000
0001
0010
0001
0010
,
0001
0010
0001
0010
0001
0010
0100
0000
,
1000
0010
0100
0001
,
2000
0000
3000
0000
,
1000
0100
0001
0100
,
1000
0010
0001
0010
,
2000
3000
0001
0010
,
0100
0100
0100
0100
,
2000
3000
0020
0030
,
0200
0300
0002
0003
,
0020
0000
0000
0000
,
0000
0000
0000
0000
0000
0000
0000
0030
,
0000
0000
0100
1000
0001
0100
0010
0010
,
1000
0001
0010
0100
0001
0100
0020
0000
,
0000
0000
0130
1000
0001
0100
0010
0010
,
1000
0001
0100
1000
0100
0010
1000
0000
,
0001
0100
1000
0010
,
0001
0000
0100
0000
1000
0010
0001
0100
,
0010
1000
0100
0001
,
0010
1000
0100
0001
0020
0000
0000
0000
,
0030
0000
1000
0000
0001
0010
0000
0001
,
0000
1000
0000
0010
1000
0001
0100
0000
,
0010
0000
1000
0000
0001
0000
0010
0100
,
0000
0010
0000
0100
0000
0000
0000
0000
,
0000
0000
1000
0000
0100
1000
0000
0001
,
0000
0100
0000
0001
1000
0001
1000
0000
,
0100
0000
0010
0000
0001
0000
1000
0010
,
0000
0100
0000
0001
2000
0000
0000
0000
,
3000
0000
0000
0000
0001
0000
1000
0000
0001
0000
0000
1000
0000
0000
0100
0000
,
0000
1000
0001
0000
0100
0010
1000
0000
,
0001
1000
1001
0000
0001
0000
0010
0001
,
0000
1000
0000
0000
0000
0000
0000
0000
,
0010
0000
0010
0000
,
0100
0000
0000
0000
0100
0000
0001
1000
,
0002
2003
3002
2003
,
3001
1000
0001
0010
0001
0010
0001
0010
,
0200
0020
0000
0330
;

//--------------- dance-single - KAYSTAR ----------------
#NOTES:
     dance-single:
     KAYSTAR:
     Medium:
     12:
     0,0,0,0,0:
0000
0000
0000
0000
,
0000
0000
0000
0000
,
0000
0000
0000
0000
,
0000
0000
0000
0000
,
1000
0100
0000
1000
0100
0000
0001
0100
,
0000
1000
0001
0000
0100
0010
1000
0000
,
0001
0010
0000
0001
0010
0000
1000
0010
,
0000
0001
1000
0010
0100
0000
0002
0000
,
1003
0000
0000
1100
0000
0101
0000
1100
,
0000
0000
0001
0000
1000
0010
0100
0000
,
0001
0000
0000
0011
0000
1010
0000
0011
,
0000
1000
0000
0010
1000
0001
0010
0000
,
0001
0000
0000
0101
0000
1010
0000
1100
,
0000
0001
0010
0000
0001
0100
0010
0000
,
1000
0000
0000
1100
0000
0011
0000
0101
,
0000
0100
0010
0000
1000
0000
0002
0000
,
1003
0000
0000
0000
0100
0000
0010
0001
0000
0000
0001
1000
0000
0000
1000
0010
,
0000
0000
0100
0000
0001
1000
0100
0001
,
0000
0100
1000
0000
0001
1000
0010
0001
,
0000
0010
1000
0000
0001
1000
0001
0000
,
1000
0000
1000
0000
1000
0000
0001
0010
0000
0000
0010
0001
0000
0000
0001
1000
,
0000
0010
0100
0000
0001
0010
0100
0001
,
0100
1000
0000
0001
0000
0100
0010
0000
,
1000
0010
0100
0001
0010
0100
1000
0001
,
0100
0000
0000
0000
0001
0000
1000
0100
0000
0000
0100
1000
0000
0000
1000
0010
,
0000
0100
0010
0000
1000
0001
0100
1000
,
0000
0100
0001
0000
1000
0001
0010
1000
,
0000
0010
0001
0000
1000
0001
1000
0000
,
0010
0000
0010
0000
0010
0000
1000
0001
0000
0000
0001
0010
0000
0000
0010
0100
,
0000
1000
0100
0000
0001
0100
0010
0001
,
1000
0010
0100
0000
0001
0010
0100
0000
,
1000
0001
1000
0010
0100
0001
0020
0000
,
0130
0000
0000
1100
0000
0110
0000
0011
,
0000
0110
0000
1100
0000
0001
0100
0000
,
0010
0000
1000
0010
0000
0001
0010
0000
,
1000
0010
0000
0001
0010
0000
0200
0000
,
0301
0000
0000
1010
0000
0110
0000
0101
,
0000
0110
0000
1010
0000
0001
0010
0000
,
0100
0000
0001
0100
0000
1000
0100
0000
,
0020
0000
0130
0010
,
0001
1000
0000
0000
1000
0001
0000
0000
1000
0100
0000
0000
0100
1000
0000
0000
,
0001
0010
0000
0000
0010
0001
0000
0000
0100
0001
0000
0000
0001
0100
0000
0000
,
0020
0000
1030
0000
0001
1000
0100
0000
,
0010
0001
0010
0001
1000
0010
0100
0000
,
0002
1003
2000
3100
,
0200
0310
0020
0031
,
2002
0000
0000
0000
,
0000
0000
0000
0000
0000
0000
0000
0000
0000
0000
0000
0000
0000
0000
0000
3003
,
0000
0000
0000
0000
1000
0010
0000
1000
0000
0001
0000
1000
0100
0000
0010
0000
,
0001
0000
0100
0000
0100
0000
0010
1000
0000
0001
0000
1000
0200
0000
0000
0000
,
0320
0000
0000
0000
0031
0010
0000
0001
0000
1000
0000
0001
0100
0000
0010
0000
,
1000
0000
0100
0000
0100
0000
0010
0001
0000
1000
0100
0000
0110
0000
0000
0000
,
0001
0100
1000
0100
0001
0010
1000
0010
,
0001
0000
0100
0000
0010
0000
1000
0000
0010
0000
0100
0001
1000
0100
0000
0000
,
1000
0100
0001
0100
1000
0010
0001
0010
,
1000
0100
0010
0001
0200
0000
0000
0000
,
0310
0000
1000
0000
0001
0010
0000
1000
,
0000
0010
0001
1000
0010
1000
0100
0000
,
0010
0000
0000
0001
0000
0000
1000
0000
0010
0000
0000
0000
0100
0000
1000
0000
,
0000
0100
0000
0001
2000
0000
3002
0000
,
1003
0000
0001
0000
1000
0100
0000
0001
,
0000
0100
1000
0001
0100
0001
0010
0000
,
0100
0000
0000
1000
0000
0000
0001
0000
0100
0000
0000
0000
1000
0000
0100
0000
,
0000
0001
0000
0010
0200
0000
0000
0000
,
1300
0000
0001
0000
1000
0000
0001
0000
1000
0000
0010
0100
0000
0000
0001
0000
,
0000
1000
0000
0100
0001
0100
0010
0000
,
0001
1000
0001
1000
0001
0000
0000
0000
0100
0000
0000
0000
0010
0000
0001
0000
,
0000
0010
0000
1000
0002
0000
0023
0000
,
0130
0000
1000
0110
,
0001
0000
1000
0110
,
0002
2003
3002
2003
,
3010
0100
0001
1000
0100
0010
0100
0010
,
0002
0200
0000
0303
;

//--------------- dance-single - KAYSTAR ----------------
#NOTES:
     dance-single:
     KAYSTAR:
     Hard:
     15:
     0,0,0,0,0:
0000
0000
0000
0000
,
0000
0000
0000
0000
,
0000
0000
0000
0000
,
0000
0000
0000
0000
,
1000
1000
0001
1000
1000
0001
0010
0001
,
1000
0001
0001
1000
0010
0100
0010
1000
,
0001
0001
1000
0001
0001
1000
0100
1000
,
0001
0000
0100
0000
0000
0010
1000
0010
1000
0000
0000
0000
0002
0000
0000
0000
,
0013
0000
0001
0100
0001
1000
0001
0010
,
0000
0100
1000
0000
0010
0100
0001
0000
,
0110
0000
1000
0010
1000
0001
1000
0100
,
0000
0010
0100
0001
0000
0100
0010
0000
,
1001
0000
1000
0100
1000
0001
1000
0010
,
0000
0100
0001
0000
0010
0100
1000
0000
,
0110
0000
0001
0010
0000
1000
0010
0100
,
0000
0000
0000
0000
0000
0000
0000
0000
0000
0000
0000
0000
1000
0000
0000
0000
0010
0000
0000
0000
1000
0000
0000
0000
0001
0000
0000
0100
0000
0000
0001
0000
0000
0100
0000
0000
0020
0000
0000
0000
0000
0000
0000
0000
0000
0000
0000
0000
,
1030
0000
0000
0000
0001
0000
1000
0100
1000
0000
0001
0100
0001
0000
0010
0000
,
0000
0001
0100
0000
1000
0100
0010
1000
,
0001
0010
0100
0000
0001
0100
0010
0001
,
1000
0000
0010
0000
0110
0000
0000
0000
0001
0000
1000
0001
0010
0000
0000
0000
,
0001
0000
0001
0000
0001
0000
1000
0010
1000
0000
0001
0010
0001
0000
0100
0000
,
0000
1000
0100
0000
0010
1000
0100
0001
,
0100
0000
0010
0000
0001
0000
0000
0000
1000
0000
0010
1000
0001
0000
0010
0000
,
0001
0100
0010
0001
0010
1000
0100
0010
,
0001
0000
0000
0000
1000
0000
0001
1000
0010
0000
0100
0001
1000
0000
0100
0000
,
0000
1000
0100
0000
0001
0100
0010
0001
,
1000
0010
0100
0000
1000
0100
0010
1000
,
0001
0000
0010
0000
0110
0000
0000
0000
1000
0000
0001
1000
0010
0000
0000
0000
,
0100
0000
0100
0000
0100
0000
1000
0100
1000
0000
0100
0010
0100
0000
0001
0000
,
0000
0000
0010
0000
0100
0000
0000
0000
0001
0100
0010
0000
0001
0000
1000
0000
,
0000
0000
0010
0000
0100
0000
0001
0000
1000
0000
0100
1000
0001
0000
0010
0000
,
0001
1000
0010
0000
0100
0000
0001
0000
0010
0000
0100
0000
2000
0000
0000
0000
,
3010
0000
0100
1000
0100
0001
0100
1000
,
0100
0000
0001
0000
0100
0000
0000
0010
1000
0000
0010
0000
0100
0000
0001
0000
,
1000
1000
0100
1000
1000
0010
0100
0001
,
0010
0001
0001
0100
0001
0001
2000
0000
,
3100
0000
1000
0100
0001
0100
1000
0100
,
0001
0000
0100
0000
0010
0000
0001
1000
0100
0000
1000
0000
0010
0000
0000
0000
,
0100
0100
0001
1000
1000
0001
0010
0100
,
2000
0000
3001
1001
,
0001
0010
0000
0000
0010
0100
0000
0000
1000
0001
0000
0000
0001
0100
0000
0000
,
0010
1000
0000
0000
1000
0100
0000
0000
0010
0001
0000
0000
0001
0100
0000
0000
,
0020
0000
0000
0000
1030
0000
0000
0000
0100
0000
0000
0000
0010
0001
0000
0000
,
1000
0010
0100
0001
0010
0100
1000
0000
,
2100
3001
0102
1003
,
2010
3001
0012
1003
,
0201
0000
0000
0000
,
0000
0000
0000
0000
,
0310
0000
1000
0000
0001
0010
0000
0001
0000
0100
0000
0010
1000
0100
0001
0100
,
0010
0000
0001
0000
1001
0000
1000
0010
0000
0100
0000
0001
0020
0000
0000
0000
,
0230
0000
0000
0000
1300
0001
0000
0100
0000
0001
0000
0010
0001
0100
1000
0100
,
0010
0000
0000
0000
0000
0000
0000
0000
0000
0000
0000
0000
1000
0000
0000
0000
0000
0000
0000
0000
0000
0000
0000
0000
1001
0000
0000
0000
0000
0000
0000
0000
0000
0000
0000
0000
0001
0000
0000
0000
0000
0000
0010
0000
0000
0000
0000
0000
0000
0000
0000
0000
0000
0000
0100
0000
0000
0000
0000
0000
0000
0000
0000
0000
0000
0000
1000
0000
0000
0001
0000
0000
1000
0000
0000
0000
0000
0000
0000
0000
0001
0000
0000
0000
0000
0000
0000
0000
1000
0000
0000
0000
0000
0000
0000
0000
,
0010
0000
1000
0000
0001
0100
0000
0100
1000
0000
1100
0000
0110
0000
0101
0000
,
1000
0000
0000
0000
0000
0000
0010
0000
0000
0000
0000
0000
1000
0000
0000
0000
0000
0000
0100
0000
0000
0010
0000
0000
0000
0000
0000
0001
0000
0000
0010
0000
0000
0100
0000
0000
1000
0000
0000
0000
0000
0000
0001
0000
0100
0000
0001
0000
,
0010
0000
0001
0000
1000
0100
0000
0100
0001
0000
0101
0000
0110
0000
1100
0000
,
0001
1000
0010
1000
0001
0010
0100
1000
0020
0000
0000
0000
0000
0000
0000
0000
,
0130
0000
1001
0000
0001
1000
0100
0001
,
0100
0000
0010
0000
0100
0000
1000
0000
0001
0000
1000
0001
0100
0000
0010
0000
,
1000
0000
0100
1000
0000
0001
0010
0001
1000
0000
0010
0000
0100
0000
1000
0000
,
0100
0010
0100
0001
0020
0000
0230
0000
,
1300
0000
1001
0000
0001
1000
0010
0001
,
0010
0000
0100
0000
0010
0000
1000
0000
0001
0000
0010
0001
1000
0000
0001
0000
,
0100
0000
0010
1000
0000
0001
0010
0001
1000
0000
0100
0000
0010
0000
1000
0000
,
0010
0100
0010
0001
0200
0000
0000
0000
,
0301
0000
0001
0000
1000
0000
1000
0000
0100
0000
1000
0010
0000
0000
0101
0000
,
0000
1000
0100
0001
0100
1000
0010
0100
,
0001
0010
0001
0010
0100
0000
0000
0000
1100
0000
0000
0000
1000
0000
0001
0000
,
0100
1000
0100
0001
0020
0000
0230
0000
,
1300
0000
1001
0000
0001
0100
0000
1010
,
0000
1100
0000
1000
0001
0010
0100
0100
,
2000
3020
0230
0302
,
1003
0000
0001
0000
0100
0000
0001
1000
0001
1000
0001
1000
0001
1000
0001
1000
,
0200
0020
0000
0330
;

//--------------- dance-double - KAYSTAR ----------------
#NOTES:
     dance-double:
     KAYSTAR:
     Medium:
     12:
     0,0,0,0,0:
00000000
00000000
00000000
00000000
,
00000000
00000000
00000000
00000000
,
00000000
00000000
00000000
00000000
,
00000000
00000000
00000000
00000000
,
00010000
00000000
00001000
00010000
00000000
00001000
00100000
00000000
,
00001000
00010000
00000000
00000100
00010000
00000000
00001000
00010000
,
00001000
00000000
00010000
00001000
00000000
00010000
00000010
00000000
,
00010000
00001000
00000000
00100000
00010000
00000000
20000000
00000000
,
30100000
00000000
00000000
01010000
00000000
01001000
00000000
00011000
,
00000000
00010000
00000100
00000000
00000010
00000001
00001000
00000000
,
00000010
00000000
00000000
00001100
00000000
00010100
00000000
00011000
,
00000000
00010000
00001000
00100000
00000000
00010000
01000000
00000000
,
10100000
00000000
00000000
01010000
00000000
01001000
00000000
00011000
,
00000000
00010000
00000100
00000000
00001000
00000010
00000100
00000000
,
00000001
00000000
00000010
00000001
00000100
00000010
00000000
00001010
,
00000000
00000000
00011000
00000000
00001000
00100000
00020000
00000000
,
10030000
00000000
01000000
00100000
00000000
00001000
00000000
00010000
,
00000000
00000000
00000010
00000000
00000100
00000010
00010000
00001000
,
00000000
00100000
00010000
00000000
00100000
00001000
00010000
00000100
,
00000000
00010000
00001000
00000000
00010000
00000010
00001000
00000000
,
00000001
00000000
00000100
00000010
00000000
00010000
00000000
00001000
,
00000000
00000000
00100000
00000000
01000000
10000000
00100000
01000000
,
00000000
00001000
00010000
00000000
00000010
00010000
00001000
00000000
,
00010000
00000100
00001000
00000001
00000100
00000010
00010000
00001000
,
01000000
00000000
00010000
00100000
00000000
00001000
00000000
00010000
,
00000000
00000000
00000100
00000000
00000010
00000001
00001000
00000100
,
00000000
00010000
00001000
00000000
00100000
00010000
01000000
00001000
,
00000000
00010000
00000100
00000000
00000010
00000001
00001000
00000000
,
00000010
00000100
00000001
00001000
00000000
00000100
00000000
00010000
,
00000000
00001000
01000000
00000000
00100000
10000000
01000000
00010000
,
01000000
00100000
00010000
00000000
00100000
00001000
00010000
00000000
,
00000010
00001000
00000001
00000010
00000001
00000100
00000020
00000000
,
00001030
00000000
00000000
00001100
00000000
00010100
00000000
00101000
,
00000000
00110000
00000000
00010000
01000000
00100000
10000000
00000000
,
00010000
00000000
00100000
00001000
00000000
00010000
00000100
00000000
,
00010000
00001000
00000000
01000000
00100000
10000000
00200000
00000000
,
01300000
00000000
00000000
01010000
00000000
01001000
00000000
00010010
,
00000000
00001010
00000000
00000001
00000100
00000001
00000010
00000000
,
00000100
00010000
00000000
00001000
00010000
00000000
00001000
01000000
,
00020000
00000000
10030000
00010000
,
00100000
00011000
00000010
00011000
,
00100000
00011000
00000010
00011000
,
00200000
01300000
10000000
00010000
,
01000000
00001000
00010000
00000100
00001000
00000001
00000100
00000000
,
00000020
00001030
00002000
00003100
,
00000200
00010300
00020000
00031000
,
00022000
00000000
00000000
00000000
,
00000000
00000000
00000000
00000000
,
00033000
00000000
00000000
00000000
00010000
00001000
00000000
00100000
00000000
00010000
00000000
10000000
00100000
00000000
01000000
00000000
,
00010000
00000000
00100000
00000000
00001000
00000000
00010000
00000010
00000000
00001000
00000000
00000001
00000020
00000000
00000000
00000000
,
00000230
00000000
00000000
00000000
00001300
00000000
00000000
00000100
00000000
00010000
00000000
00001000
00010000
00000000
00001000
00000000
,
01000000
00000000
00100000
00000000
10000000
00000000
00010000
00100000
00000000
00001000
00000000
00010000
00000010
00000000
00000000
00000000
,
00001000
00000100
00000001
00000100
00001000
00000010
00000001
00000010
,
00001000
00000000
00000100
00000000
00010000
00000000
00001000
00010000
00000000
00001000
00100000
00000000
00010000
00000000
00000000
00000000
,
10000000
01000000
00010000
01000000
10000000
00100000
00010000
00100000
,
01000000
00010000
00100000
00001000
00020000
00000000
00000000
00000000
,
00031000
00000000
00010000
00000000
00000010
00001000
00000000
00000100
,
00000000
00000001
00000000
00000100
00000010
00000001
00000100
00000000
,
00000010
00000000
00000000
00001000
00000000
00000000
00001000
00000000
00000100
00000000
00000000
00000000
00010000
00000000
00001000
00000000
,
00000000
01000000
00000000
00001000
00020000
00000000
00032000
00000000
,
00103000
00000000
00010000
00000000
01000000
00010000
00000000
01000000
,
00000000
10000000
00000000
01000000
00100000
10000000
00010000
00000000
,
00100000
00000000
00000000
01000000
00000000
00000000
01000000
00000000
10000000
00000000
00000000
00000000
00010000
00000000
01000000
00000000
,
00000000
00001000
00000000
00010000
00000200
00000000
00000000
00000000
,
00000310
00000000
00000001
00000000
00001000
00000000
00000010
00000000
00000100
00000000
00000100
00000001
00000000
00000000
00001000
00000000
,
00000000
00000100
00010000
00001000
00100000
00010000
01000000
00000000
,
00010000
10000000
00010000
10000000
00010000
00000000
00000000
00000000
00100000
00000000
00000000
00000000
00001000
00000000
00010000
00000000
,
00000000
00000010
00000000
00000100
00000002
00000000
00002003
00000000
,
00003100
00000000
00010000
00001000
,
01000000
00000000
00000000
00000000
00010000
00000000
00100000
01000000
,
20000000
30200000
02300000
03002000
,
00013000
00001000
00010000
00000100
00001000
00000100
00000001
00000100
,
00000020
00000002
00000000
00000033
;

//--------------- dance-double - KAYSTAR ----------------
#NOTES:
     dance-double:
     KAYSTAR:
     Hard:
     15:
     0,0,0,0,0:
00000000
00000000
00000000
00000000
,
00000000
00000000
00000000
00000000
,
00000000
00000000
00000000
00000000
,
00000000
00000000
00000000
00000000
,
00010000
00001000
00010000
00000010
00010000
00001000
00100000
00001000
,
00010000
00000100
00010000
00001000
01000000
00100000
10000000
00010000
,
00100000
00001000
00010000
00000010
00010000
00001000
01000000
00001000
,
00010000
00000000
00000100
00000000
00000000
00001000
00000001
00001000
00000001
00000000
00000000
00000000
00000200
00000000
00000000
00000000
,
00000310
00000000
00001000
00000100
00010000
00001000
01000000
00100000
,
00000000
10000000
01000000
00000000
00100000
00001000
00010000
00000000
,
00000100
00000000
00001000
00000010
00010000
00001000
00100000
01000000
,
00000000
10000000
01000000
00010000
00000000
01000000
00100000
00000000
,
00110000
00000000
00010000
00100000
00001000
00010000
00000010
00000100
,
00000000
00000001
00000010
00000000
00000100
00010000
00001000
00000000
,
01000000
00000000
00100000
10000000
00000000
01000000
00010000
00001000
,
00000000
00000000
00010000
00000000
01000000
00000000
00000000
00000000
10000000
00010000
10000000
00010000
02000000
00000000
00000000
00000000
,
03100000
00000000
00000000
00000000
10000000
00000000
00100000
01000000
00000000
00000000
01000000
00010000
00000000
00000000
00010000
00100000
,
00000000
00001000
00010000
00000000
00000010
00001000
00000100
00000001
,
00000100
00000010
00000001
00000000
00001000
00000010
00000100
00001000
,
00000000
00000000
00010000
00000000
00000010
00000000
00000000
00000000
00001000
00000000
00000010
00001000
00000001
00000000
00000000
00000000
,
00000010
00000000
00000000
00000000
00000001
00000000
00000010
00000100
00000000
00000000
00000100
00001000
00000000
00000000
00001000
00000010
,
00000000
00010000
00001000
00000000
00100000
00010000
01000000
10000000
,
01000000
00000000
00100000
00000000
10000000
00000000
00000000
00000000
00010000
00000000
00100000
00001000
00010000
00000000
00001000
00000000
,
00100000
00010000
01000000
10000000
01000000
00100000
10000000
00010000
,
01000000
00000000
00000000
00000000
00010000
00000000
10000000
00010000
00000000
00000000
00010000
00100000
00000000
00000000
00100000
00001000
,
00000000
00010000
00000100
00000000
00000010
00000001
00000100
00001000
,
00000100
00000010
00001000
00000000
00000100
00000010
00001000
00000010
,
00000000
00000000
00000100
00000000
00010000
00000000
00000000
00000000
00001000
00000000
00010000
00001000
00100000
00000000
00000000
00000000
,
00010000
00000000
10000000
00000000
00100000
00000000
01000000
00010000
00000000
00000000
00010000
00100000
00000000
00000000
00100000
00001000
,
00000000
00010000
00000100
00000000
00010000
00001000
00010000
00100000
,
01000000
00000000
00010000
00000000
10000000
00000000
00000000
00000000
00010000
00000000
00100000
00001000
00010000
00000000
00000000
00000000
,
00001000
00010000
00000100
00001000
00000010
00010000
00002000
00000000
,
01003000
00000000
00010000
10000000
01000000
00010000
01000000
10000000
,
01000000
00000000
00010000
00000000
01000000
00000000
00000000
00100000
00010000
00000000
00100000
00000000
00001000
00000000
00000000
00000000
,
00010000
00000100
00000010
00000001
00000100
00000010
00001000
00000010
,
00000100
00001000
00000100
00000010
00001000
00000010
00020000
00000000
,
00031000
00000000
00100000
00010000
01000000
10000000
01000000
00010000
,
01000000
00000000
10000000
00000000
01000000
00000000
00100000
10000000
00010000
00000000
00100000
00000000
00001000
00000000
00000000
00000000
,
00010000
00000100
00000010
00001000
00000010
00000100
00001000
00000100
,
00020000
00000000
00031000
00011000
,
00001000
00100000
00000000
00000000
00100000
00010000
00000000
00000000
10000000
00100000
00000000
00000000
00100000
01000000
00000000
00000000
,
00010000
00100000
00000000
00000000
00100000
00001000
00000000
00000000
00010000
00000010
00000000
00000000
00000010
00001000
00000000
00000000
,
00000200
00000000
00000310
00000000
00000100
00010000
00001000
00000000
,
00100000
00001000
00010000
00000100
00010000
00001000
01000000
00000000
,
01020000
10030000
02010000
03001000
,
00021000
00030100
00001200
00000310
,
00000012
00000000
00000000
00000000
,
00000000
00000000
00000000
00000000
,
00000103
00000000
00000010
00000000
00001000
00000100
00000000
00010000
00000000
00001000
00000000
01000000
00100000
10000000
00010000
10000000
,
01000000
00000000
00100000
00000000
00010000
00000000
01000000
00001000
00000000
00010000
00000000
00000100
00002000
00000000
00000000
00000000
,
00003002
00000000
00000000
00000000
00000103
00000010
00000000
00010000
00000000
00001000
00000000
00100000
00010000
10000000
00100000
01000000
,
00010000
00000000
00000000
00000000
00000000
00000000
00000000
00000000
00000000
00000000
00000000
00000000
00100000
00000000
00000000
00000000
00000000
00000000
00000000
00000000
00000000
00000000
00000000
00000000
00001000
00000000
00000000
00000000
00000000
00000000
00000000
00000000
00000000
00000000
00000000
00000000
00010000
00000000
00000000
00000000
00000000
00000000
00000100
00000000
00000000
00000000
00000000
00000000
00000000
00000000
00000000
00000000
00000000
00000000
00001000
00000000
00000000
00000000
00000000
00000000
00000000
00000000
00000000
00000000
00000000
00000000
00000001
00000000
00000000
00001000
00000000
00000000
00000001
00000000
00000000
00000000
00000000
00000000
00000000
00000000
00000100
00000000
00000000
00000000
00000000
00000000
00000000
00000000
00000010
00000000
00000000
00000000
00000000
00000000
00000000
00000000
,
00010000
00000000
00001000
00000000
00100000
01000000
00000000
00010000
00000000
00000000
01010000
00000000
01100000
00000000
00110000
00000000
,
00001000
00000000
00000000
00000000
00000000
00000000
00010000
00000000
00000000
00000000
00000000
00000000
00000100
00000000
00000000
00000000
00000000
00000000
00001000
00000000
00000000
00000010
00000000
00000000
00000000
00000000
00000000
00000100
00000000
00000000
00000001
00000000
00000000
00001000
00000000
00000000
00000100
00000000
00000000
00000000
00000000
00000000
00010000
00000000
00000100
00000000
00010000
00000000
,
00001000
00000000
00010000
00000000
00000010
00000100
00000000
00001000
00000000
00000000
00001100
00000000
00000110
00000000
00001010
00000000
,
00010000
00001000
00100000
00001000
00010000
00000010
00010000
00001000
02000000
00000000
00000000
00000000
00000000
00000000
00000000
00000000
,
03010000
00000000
10100000
00000000
10000000
00010000
01000000
10000000
,
01000000
00000000
00010000
00000000
01000000
00000000
00001000
00000000
00010000
00000000
00001000
00010000
00000100
00000000
00001000
00000000
,
00000001
00000000
00000010
00000001
00000000
00001000
00000010
00000000
00001000
00000000
00000100
00000000
00000001
00000000
00000100
00000000
,
00001000
00000100
00010000
00001000
02000000
00000000
03200000
00000000
,
10300000
00000000
01010000
00000000
10000000
00010000
00100000
10000000
,
00100000
00000000
00010000
00000000
00100000
00000000
00001000
00000000
00010000
00000000
00001000
00010000
00000010
00000000
00001000
00000000
,
00000001
00000000
00000100
00000001
00000000
00001000
00000100
00000000
00001000
00000000
00000010
00000000
00000001
00000000
00000010
00000000
,
00001000
00000010
00010000
00001000
02000000
00000000
00000000
00000000
,
03100000
00000000
10000000
00000000
01000000
00000000
00010000
00000000
00001000
00000000
00010000
00001000
00000000
00000000
00000100
00000000
,
00000000
00000001
00000010
00000001
00001000
00000010
00010000
00001000
,
00100000
00010000
00100000
00010000
10000000
00000000
00000000
00000000
01010000
00000000
00000000
00000000
00001000
00000000
00000100
00000000
,
00000001
00000010
00001000
00000010
00000002
00000000
00002003
00000000
,
00003100
00000000
00001000
00000000
00000010
00010000
00000000
00001000
,
00000000
01000000
00000000
00100000
10000000
01000000
00010000
00001000
,
00020000
00030020
00000230
00000302
,
00000013
00000000
00000100
00000000
00010000
00000000
00001000
00010000
00001000
00010000
00001000
00010000
00001000
00010000
00001000
00010000
,
00002000
02000000
00000000
03003000
;
