#TITLE:Xerulean;
#ARTIST:BEMANI Sound Team "ZAQUVA";
#ARTISTTRANSLIT:ZAQUVA;
#BANNER:Xerulean.png;
#BACKGROUND:Xerulean-bg.png;
#JACKET:Xerulean-jacket.png;
#CDTITLE:./CDTITLES/BEATMANIA IIDX.PNG;
#MUSIC:Xerulean.ogg;
#SAMPLESTART:76.483;
#SAMPLELENGTH:15;
#DISPLAYBPM:91:182;
#BPMS:0=182,39=364,40=182,71=364,72=182,103=364,104=182,107=364,108=182,111=364,112=182,115=364,116=182,135=1456,135.25=1092,135.5=728,135.625=364,135.75=182,135.875=91,135.9375=45.5,135.95833=22.75,135.97917=11.375,136=182,167=364,168=91,184=182,215=364,216=182,255=364,256=182,279=364,280=182,312=91;
#STOPS:39=0.16483516483516483516483516483516,71=0.16483516483516483516483516483516,103=0.16483516483516483516483516483516,107=0.16483516483516483516483516483516,111=0.16483516483516483516483516483516,115=0.16483516483516483516483516483516,167=0.16483516483516483516483516483516,215=0.16483516483516483516483516483516,255=0.16483516483516483516483516483516,279=0.16483516483516483516483516483516;

//---------------dance-single - t7r----------------
#NOTES:
     dance-single:
     t7r:
     Beginner:
     5:
     :
0000
0000
0000
0000
,
0000
0000
0000
0000
,
0000
0000
0000
0000
,
0000
0000
0000
0000
,
0000
0000
0000
0000
,
0000
0000
0000
0000
,
1000
0000
0000
0000
,
0001
0000
0000
0000
,
0100
0000
0100
0000
,
0100
0000
0000
0000
,
0010
0010
0010
0000
,
0000
0000
0000
0000
,
0010
0000
0000
0000
,
0010
0000
0000
0000
,
0100
0100
0100
0100
,
0100
0000
0100
0000
,
0100
0000
0000
0000
,
0001
0000
0000
0000
,
1000
1000
1000
0000
,
1000
0000
1000
0000
,
1000
1000
1000
0000
,
1000
0000
1000
0000
,
0001
0001
0001
0000
,
0001
0000
0001
0000
,
0001
0001
0001
0001
,
0000
0000
0000
0000
,
1000
0000
0000
0000
,
1000
0000
0000
0000
,
1000
0000
0000
0000
,
1000
0000
0000
0000
,
0001
0000
0001
0000
,
0100
0000
0100
0000
,
0010
0000
0010
0000
,
1000
1000
1000
0000
,
0000
0001
0000
0001
,
0000
0010
0000
0010
,
0000
0100
0000
0100
,
0000
1000
0000
1000
,
0000
0010
0000
0010
,
0000
0100
0000
0100
,
0000
0010
0000
0010
,
0010
0000
0000
0000
,
1000
0000
0000
0000
,
0100
0000
0000
0000
,
0010
0000
0000
0000
,
0001
0000
0000
0000
,
0100
0000
0000
0000
,
0100
0000
0000
0000
,
0010
0000
0000
0000
,
0010
0000
0000
0000
,
1000
0000
0000
0000
,
1000
0000
0000
0000
,
0001
0000
0001
0000
,
0001
0000
0000
0000
,
1000
0000
0000
0000
,
1000
0000
0000
0000
,
0100
0000
0000
0000
,
0100
0000
0000
0000
,
0010
0000
0000
0000
,
0010
0000
0000
0000
,
0001
0000
0000
0000
,
0001
0000
0000
0000
,
0100
0000
0100
0000
,
0100
0000
0000
0000
,
0010
0000
0010
0000
,
0010
0000
0000
0000
,
1000
0000
1000
0000
,
1000
0000
0000
0000
,
0001
0000
0001
0000
,
0001
0000
0000
0000
,
0010
0010
0010
0010
,
0010
0010
0010
0010
,
0010
0010
0010
0010
,
0010
0010
0010
0010
,
0100
0100
0100
0100
,
0100
0100
0100
0100
,
0100
0100
0100
0100
,
0100
0100
0100
0100
,
0100
0000
0000
0000
,
1000
0000
0000
0000
0000
0000
0000
0001
0000
0000
0000
0000
0000
0000
0000
0000
;

//---------------dance-single - t7r----------------
#NOTES:
     dance-single:
     t7r:
     Easy:
     12:
     :
0000
0000
0000
0000
,
0000
0000
0000
0000
,
0000
0000
0000
0000
,
0000
0000
0000
0000
,
0000
0000
0000
0000
,
0000
0000
0000
0000
,
0001
0100
0000
0001
1000
0000
0001
0000
,
1000
0010
0000
1000
0001
0000
0010
0000
,
0001
0100
0001
0000
1000
0100
1000
0000
,
0001
0000
0000
0000
0000
0000
0000
0000
0000
0000
0000
0000
0000
0000
0000
0000
0010
0000
0000
0000
0000
0000
0000
0000
0100
0000
0000
0000
0000
0000
0000
0000
1000
0000
0000
0000
0000
0000
0000
0000
0000
0000
0000
0000
0000
0000
0000
0000
0020
0030
0000
0000
0000
0000
0000
0000
0000
0000
0000
0000
0000
0000
0000
0000
,
1000
0100
1000
0000
0200
0000
0010
0000
,
0001
0000
0010
0000
1000
0000
0310
0001
,
1000
0010
1000
0000
0010
0000
0100
0001
,
1000
0000
0001
0000
0100
0010
1000
1000
,
0001
0010
0001
0000
0200
0000
0010
0000
,
0001
0010
1000
0310
,
1000
0100
0010
0000
0001
0100
0010
0000
,
2000
0000
0000
0000
0000
0000
0000
0000
0000
0000
0000
0000
0000
0000
0000
0000
3010
0000
0000
0000
0000
0000
0000
0000
0100
0000
0000
0000
0000
0000
0000
0000
0002
0000
0000
0000
0000
0000
0000
0000
0000
0000
0000
0000
0000
0000
0000
0000
2003
3000
0000
0000
0000
0000
0000
0000
0000
0000
0000
0000
0000
0000
0000
0000
,
0001
0010
0001
0010
0200
0000
0001
0000
,
0010
0000
1000
0000
0010
0000
1300
0010
,
1000
0010
1000
0000
0010
0000
0001
0000
,
0010
0000
0100
0000
0001
0000
1000
0001
,
1000
0100
1000
0100
0020
0000
0100
0000
,
1000
0000
0100
0000
0100
0000
0031
1000
,
0001
0010
0001
1000
0001
0100
0010
1000
,
0002
0000
0000
0000
0000
0000
0000
0000
0000
0000
0000
0000
0000
0000
0000
0000
0103
0000
0000
0000
0000
0000
0000
0000
0010
0000
0000
0000
0000
0000
0000
0000
2000
0000
0000
0000
0000
0000
0000
0000
0000
0000
0000
0000
0000
0000
0000
0000
3002
0003
0000
0000
0000
0000
0000
0000
0000
0000
0000
0000
0000
0000
0000
0000
,
2000
0000
0000
0000
0000
0000
0000
0000
0000
0000
0000
0000
0000
0000
0000
0000
3100
0000
0000
0000
0000
0000
0000
0000
0010
0000
0000
0000
0000
0000
0000
0000
0100
0000
0000
0000
0000
0000
0000
0000
0100
0000
0000
0000
0000
0000
0000
0000
2000
3000
0000
0000
0000
0000
0000
0000
0000
0000
0000
0000
0000
0000
0000
0000
,
0001
0000
0000
0000
0000
0000
0000
0000
0100
0000
0000
0000
0000
0000
0000
0000
0010
0000
0000
0000
0000
0000
0000
0000
0000
0000
0000
0000
0000
0000
0000
0000
0100
0000
0000
0000
0000
0000
0000
0000
0100
0000
0000
0000
0000
0000
0000
0000
0002
0003
0000
0000
0000
0000
0000
0000
0000
0000
0000
0000
0000
0000
0000
0000
,
1000
0000
0000
0000
0000
0000
0000
0000
0010
0000
0000
0000
0000
0000
0000
0000
0100
0000
0000
0000
0000
0000
0000
0000
0010
0000
0000
0000
0000
0000
0000
0000
1000
0000
0000
0000
0000
0000
0000
0000
1000
0000
0000
0000
0000
0000
0000
0000
0002
0003
0000
0000
0000
0000
0000
0000
0000
0000
0000
0000
0000
0000
0000
0000
,
0010
0000
0110
0000
1000
0001
0100
0000
,
0001
0100
0010
0000
0100
0001
1000
0000
,
0100
0010
0001
0000
0100
0010
1000
0000
,
0010
0100
0010
0100
0001
1000
0100
1000
,
0100
0010
0100
1000
0010
0000
0120
0000
,
1030
0100
0010
0000
0100
1000
0001
0001
,
0000
0100
0010
0000
0100
0001
2000
3002
,
0003
0010
0100
0000
0010
0001
1000
1000
,
0000
0001
0100
0000
0010
1000
0002
2003
,
3100
0000
0010
0100
1000
0001
0100
0100
,
0010
0000
0100
0001
1000
0010
0200
0320
,
1030
0000
0100
0010
0001
1000
0010
0010
,
2000
3002
0203
0310
,
2000
0000
0100
0000
3001
0020
0032
0003
,
0002
0000
0100
0000
1003
0020
2030
3000
,
2000
0000
0100
0000
3010
0200
0302
0003
,
0002
0000
0000
0000
0010
0000
0000
0000
0103
0000
0110
0000
0001
1000
0001
0001
,
1000
0000
0000
0000
0010
0000
0000
0000
1000
0000
0000
0100
0000
0000
1000
0000
,
0000
0000
0001
0000
0010
0000
0000
0000
0001
0000
0000
0100
0000
0000
0001
0000
,
0000
0000
1000
0000
0010
0000
0000
0000
0100
0000
0000
0010
0000
0000
1000
0000
,
0000
0000
0001
0000
0010
0000
0000
0000
0100
0000
0000
0010
0000
0000
0001
0000
,
1000
0010
1000
0000
0001
0100
0001
0000
,
1000
0100
1000
0000
0001
0010
0001
0000
,
1000
0001
1000
0001
1000
0001
1000
0001
,
0100
0000
0000
0000
0000
0000
0000
0000
0000
0000
0000
0000
0100
0000
0000
0000
0000
0000
0000
0000
0000
0000
0000
0000
0010
0000
0000
0000
0000
0000
0000
0000
1000
0000
0000
0000
0000
0000
0000
0000
0001
0000
0000
0000
0000
0000
0000
0000
2000
3000
0000
0000
0000
0000
0000
0000
0000
0000
0000
0000
0000
0000
0000
0000
,
0001
0010
0010
0001
0100
0010
1000
0200
,
0000
1300
0000
0100
0010
0001
1000
0001
,
0000
1000
0010
0100
0010
1000
0001
0020
,
0000
0031
0000
1000
0010
0100
0001
0001
,
1000
0100
0100
0010
0100
1000
0001
0200
,
0000
0310
0000
0100
0001
1000
0001
0010
,
0001
0100
0100
0010
1000
0001
0010
0002
,
0000
1003
0000
0100
0010
0001
1000
0010
,
1000
0000
0100
0000
0100
0000
0000
0000
0100
0000
0000
0100
0000
0000
0100
0000
,
1000
0000
0000
0000
0000
0000
0000
0000
0100
0000
0000
0000
0000
0000
0000
0000
0100
0000
0000
0000
0000
0000
0000
0000
0010
0000
0000
0000
0000
0000
0000
0000
0001
0000
0000
0000
0000
0000
0000
0000
0000
0000
0000
0000
0000
0000
0000
0000
2000
3000
0000
0000
0000
0000
0000
0000
0000
0000
0000
0000
0000
0000
0000
0000
,
0001
0000
0010
0000
0010
0000
0000
0000
0010
0000
0000
0010
0000
0000
0010
0000
,
0001
0010
0010
0100
1000
1000
0001
1000
,
0001
0100
0100
0000
0100
0000
0120
0000
,
1030
0000
0100
0000
0100
0000
0000
0000
0100
0000
0000
0100
0000
0000
0100
0000
,
1000
0010
0010
0000
1000
0001
0010
0000
,
0001
0000
0000
0000
0000
0000
0000
0000
1000
0000
0000
0000
0000
0000
0000
0000
1000
0000
0000
0000
0000
0000
0000
0000
0010
0000
0000
0000
0000
0000
0000
0000
0100
0000
0000
0000
0000
0000
0000
0000
0000
0000
0000
0000
0000
0000
0000
0000
0002
0003
0000
0000
0000
0000
0000
0000
0000
0000
0000
0000
0000
0000
0000
0000
,
1000
0010
0010
1000
0010
1000
0010
1000
,
0001
0010
0010
0001
0010
0001
0010
0001
,
1000
0010
0010
1000
0010
0001
0010
1000
,
0001
0010
0010
0001
0010
1000
0010
0001
,
1000
0100
0100
0010
0100
1000
0002
0000
,
1003
0010
0010
0100
0010
1000
0002
0000
,
1003
0010
0010
0001
0010
0010
1000
0010
,
0001
0010
1000
0010
0001
0010
1000
0001
,
2000
0100
3001
0100
,
0010
0000
0000
0010
0000
0000
1000
0000
0000
0000
0001
0000
0000
0000
1000
0000
0000
0000
0000
0000
0000
0000
0000
0000
0000
0000
0000
0000
0000
0000
0000
0000
;

//---------------dance-single - t7r----------------
#NOTES:
     dance-single:
     t7r:
     Medium:
     14:
     :
0000
0000
0000
0000
,
0000
0000
0000
0000
,
0000
0000
0000
0000
,
0000
0000
0000
0000
,
0000
0000
0000
0000
,
0000
0000
0000
0000
,
1000
0000
0010
0000
0010
0000
0100
0000
0002
0000
0000
1000
0000
0000
0103
0000
,
0001
0010
0010
0100
1000
0010
2000
0000
,
3001
1000
1000
0001
0010
0001
0001
1000
,
0001
0000
0000
0000
0000
0000
0000
0000
0000
0000
0000
0000
0100
0000
0000
0000
0010
0000
0000
0000
0000
0000
0000
0000
1000
0000
0000
0000
0000
0000
0000
0000
0001
0000
0000
0000
1000
0000
0000
0000
0001
0000
0000
0000
0000
0000
0000
0000
2000
3000
0000
0000
0000
0000
0000
0000
0000
0000
0000
0000
0000
0000
0000
0000
,
0001
0100
0100
0010
0200
0000
0010
0000
,
1000
0000
0000
0000
0010
0000
0000
0000
0001
0000
0000
0000
0310
0000
1000
0001
,
1000
0000
0100
0000
0100
0000
0000
1000
0010
0000
0000
0100
0001
0000
1000
0000
,
1000
0000
0000
0001
0010
0000
0100
0000
1000
0001
1000
0000
0001
0000
0001
0000
,
1000
0010
0000
0010
1000
0000
0001
0000
0020
0000
0000
0000
0100
0000
0000
0000
,
1000
0000
0000
0000
0100
0000
0000
0000
0001
0000
0000
0000
0130
0010
0100
0000
,
1000
0000
0001
0000
0001
0000
0000
0100
0010
0000
1000
0000
0001
0000
0010
0000
,
0100
0000
0000
0000
0000
0000
0000
0000
1000
0000
0000
0000
0001
0000
0000
0000
1000
0000
0000
0000
0000
0000
0000
0000
0010
0000
0000
0000
0000
0000
0000
0000
0100
0000
0000
0000
0000
0000
0000
0000
0002
0000
0000
0000
0000
0000
0000
0000
2003
3000
0000
0000
0000
0000
0000
0000
0000
0000
0000
0000
0000
0000
0000
0000
,
0001
0000
0010
0000
0010
0000
0100
0010
0200
0000
0000
0000
0010
0000
0000
0000
,
0001
0000
0000
0000
0010
0000
0000
0000
1000
0000
0000
0000
0310
0001
0000
1000
,
0001
0000
0100
0000
0100
0000
0000
0010
1000
0000
0000
0001
0010
0000
0000
0001
,
1000
0000
0100
0000
0010
0000
0001
0000
1000
0000
0010
0000
1000
0001
1000
0001
,
1000
0100
0000
0100
1000
0000
0010
1000
0020
0000
0000
0000
0001
0000
0000
0000
,
0100
0100
0100
0000
1000
0000
0130
0000
,
0001
0001
0010
0010
0100
1000
0010
0100
,
0002
0000
0000
0000
0000
0000
0000
0000
0000
0000
0000
0000
0000
0000
0000
0000
1003
0000
0000
0000
0100
0000
0000
0000
0000
0000
0000
0000
0010
0000
0000
0000
0001
0000
0000
0000
0000
0000
0000
0000
0000
0000
0000
0000
0000
0000
0000
0000
2000
3000
0000
0000
0000
0000
0000
0000
0000
0000
0000
0000
0000
0000
0000
0000
,
1002
0000
0000
0000
0000
0000
0000
0000
0000
0000
0000
0000
0000
0000
0000
0000
0103
0000
0000
0000
0000
0000
0000
0000
0010
0000
0000
0000
0000
0000
0000
0000
0100
0000
0000
0000
0000
0000
0000
0000
1000
0000
0000
0000
0000
0000
0000
0000
0200
0300
0000
0000
0000
0000
0000
0000
0000
0000
0000
0000
0000
0000
0000
0000
,
0001
0000
0000
0000
0000
0000
0000
0000
1000
0000
0000
0000
0000
0000
0000
0000
0100
0000
0000
0000
0010
0000
0000
0000
0000
0000
0000
0000
0000
0000
0000
0000
0100
0000
0000
0000
0000
0000
0000
0000
0001
0000
0000
0000
0000
0000
0000
0000
0200
0300
0000
0000
0000
0000
0000
0000
0000
0000
0000
0000
0000
0000
0000
0000
,
1000
0000
0000
0000
0000
0000
0000
0000
0010
0000
0000
0000
0000
0000
0000
0000
0100
0000
0000
0000
0000
0000
0000
0000
0010
0000
0000
0000
0000
0000
0000
0000
0001
0000
0000
0000
0000
0000
0000
0000
0010
0000
0000
0000
0000
0000
0000
0000
0200
0300
0000
0000
0000
0000
0000
0000
0000
0000
0000
0000
0000
0000
0000
0000
,
0001
0000
0000
0000
0010
0000
0100
0000
0000
0000
0010
0000
1000
0000
0000
0010
0000
0000
0100
0000
0000
0010
0000
0000
,
0001
0000
0100
0000
0010
1000
0000
0001
1000
0000
0100
0000
0010
0000
0001
0000
,
1000
0000
0010
0000
1000
0001
0000
0010
0001
0000
0100
0000
0010
0000
1000
0000
,
0001
0000
0100
0000
0010
1000
0000
0001
1000
0000
0100
0000
0010
0000
0001
0000
,
0100
0000
0010
0100
0000
0010
0100
0000
0001
0000
1000
0000
1002
0000
0000
0000
,
1003
0000
0100
0000
0010
0100
0000
0000
1000
0000
0001
0000
0100
0000
0001
0000
,
0000
0000
0100
0000
0010
1000
0000
0000
0001
0000
0010
0000
0200
0000
0320
0000
,
0030
0000
0001
0000
0100
0010
0000
0000
1000
0000
0001
0000
0100
0000
0010
0000
,
0000
0000
1000
0000
0010
0100
0000
0000
0001
0000
0010
0000
0002
0000
2003
0000
,
3100
0100
0010
0100
0001
0100
1000
0001
,
0100
0100
0010
0100
1000
0100
0001
1000
,
0100
0010
0000
0001
1000
0000
0010
0000
0100
0001
0000
1000
0001
0000
1000
0000
,
0002
0000
0000
0000
0000
0000
0000
0000
0023
0000
0000
0000
0000
0000
0000
0000
0230
0000
0000
0000
0000
0000
0000
0000
2300
0000
0000
0000
0000
0000
0000
0000
3020
0000
0000
0000
0000
0000
0000
0000
0230
0000
0000
0000
0000
0000
0000
0000
0302
0003
0000
0000
0000
0000
0000
0000
0000
0000
0000
0000
0000
0000
0000
0000
,
2001
3200
0302
0103
0200
1000
0320
0030
,
0002
0203
2300
3100
0200
0001
0320
0030
,
2000
3020
0032
0013
0020
0001
0230
0300
,
0002
0000
0000
0000
0023
0000
0000
0000
2030
0000
0000
0000
3010
0000
0000
0000
0110
0000
0000
0000
1001
0000
0000
0000
0001
1000
0001
0000
1000
0000
1000
0000
,
0001
0000
0010
0000
0001
0100
0000
0000
0001
0000
0010
0000
0001
0000
2000
0000
,
0000
0000
3100
0000
0000
0000
1000
0001
1000
0000
0100
0000
0010
0001
0000
0000
,
1000
0000
0010
0000
1000
0100
0000
0000
1000
0000
0010
0000
1000
0000
0002
0000
,
0000
0000
0013
0000
0001
0000
1000
0000
0010
0000
0100
0020
0000
0000
1030
0000
,
0001
0000
0010
0000
0100
1000
0000
0000
0010
0000
0100
0000
0001
0000
0020
0000
,
0000
0000
0130
0000
0000
0000
1000
0001
1000
0000
0010
0000
0200
0000
0000
0000
,
0301
0001
0010
0010
0001
0001
1000
1000
,
0010
0000
0000
0000
0000
0000
0000
0000
0000
0000
0000
0000
0100
0000
0000
0000
0001
0000
0000
0000
0000
0000
0000
0000
1000
0000
0000
0000
0000
0000
0000
0000
0100
0000
0000
0000
0000
0000
0000
0000
1000
0000
0000
0000
0001
0000
0000
0000
2000
3000
0000
0000
0000
0000
0000
0000
0000
0000
0000
0000
0000
0000
0000
0000
,
0001
0010
0010
0100
0010
1000
0010
0200
,
0000
0000
0310
0000
0000
0000
0001
1000
0001
0000
0100
0000
0001
0000
1000
0001
,
1000
0010
0010
0100
0010
0001
0010
2000
,
0000
0000
3001
0000
0000
0000
1000
0000
0001
0010
0000
0001
1000
0000
0001
0000
,
1000
0100
0100
0010
0100
0001
0100
0020
,
0000
0000
0130
0000
0000
0000
1000
0001
1000
0000
0010
0000
1000
0001
0000
1000
,
0001
0100
0100
0010
0100
1000
0100
0002
,
0000
0000
1003
0000
0000
0000
0001
0000
1000
0010
0000
1000
0100
0000
1000
0000
,
0100
0000
0010
0000
0010
0000
0000
0100
0001
0000
0100
0010
0000
0100
1000
0000
,
0010
0000
0000
0000
0000
0000
0000
0000
0100
0000
0000
0000
0000
0000
0000
0000
0100
0000
0000
0000
0000
0000
0000
0000
0000
0000
0000
0000
1000
0000
0000
0000
0100
0000
0000
0000
0000
0000
0000
0000
0010
0000
0000
0000
0000
0000
0000
0000
2000
3000
0000
0000
0000
0000
0000
0000
0000
0000
0000
0000
0000
0000
0000
0000
,
0001
0000
0010
0000
0010
0000
0100
0000
0010
0000
0000
1000
0010
0000
0100
0000
,
0010
0000
0001
0000
0001
0000
1000
0000
0010
0000
0000
0001
0000
0000
0010
0000
,
1000
0100
0100
0010
0100
0100
0002
0103
,
0010
0000
0100
0000
0100
0000
1000
0000
0010
0000
0100
0010
0000
0010
2000
0000
,
3001
0000
0010
0000
0010
0000
1000
0000
0010
0000
0100
0010
0000
0010
0001
0000
,
1000
0000
0000
0000
0000
0000
0000
0000
0010
0000
0000
0000
0000
0000
0000
0000
0010
0000
0000
0000
0000
0000
0000
0000
0100
0000
0000
0000
0000
0000
0000
0000
0001
0000
0000
0000
1000
0000
0000
0000
0001
0000
0000
0000
1000
0000
0000
0000
0002
0003
0000
0000
0000
0000
0000
0000
0000
0000
0000
0000
0000
0000
0000
0000
,
1000
0010
1000
0000
0010
0000
0001
0000
0010
0000
1000
0010
0000
0001
0010
0000
,
1000
0000
1000
0000
0010
1000
0010
0000
0001
0000
0010
1000
0000
0001
1000
0000
,
0001
0000
0010
0000
0001
0010
0001
0000
0010
0000
1000
0010
0000
1000
0010
0000
,
0001
0000
0010
0001
0010
0000
1000
0000
0010
0001
0010
0000
0002
0000
1003
0000
,
0001
0000
0100
0010
0000
0100
0010
0000
2000
0000
0000
0000
3100
0000
0010
0000
,
0001
0000
1000
0010
0000
1000
0010
0000
0100
0010
0000
1000
0002
0000
0000
0000
,
1003
0000
0010
0000
0001
0000
0010
0000
1000
0000
0001
0000
0010
0000
0001
0010
,
0001
0000
0010
0000
1000
0000
0010
0001
0010
0000
1000
0000
0010
0000
0001
0000
,
2000
0000
0100
0000
3001
0010
0100
1000
0000
0000
0000
0000
0001
0100
0010
1000
,
0001
0000
0000
0010
0000
0000
1000
0000
0000
0000
0010
0000
0000
0000
0001
0000
0000
0000
0000
0000
0000
0000
0000
0000
0000
0000
0000
0000
0000
0000
0000
0000
;

//---------------dance-single - t7r----------------
#NOTES:
     dance-single:
     t7r:
     Hard:
     17:
     :
0000
0000
0000
0000
,
0000
0000
0000
0000
,
0000
0000
0000
0000
,
0000
0000
0000
0000
,
0000
0000
0000
0000
,
0000
0000
0000
0000
,
1000
0000
0010
0000
0010
0000
1000
0000
0100
0000
0010
0001
0000
1000
0100
1000
,
0001
0000
0100
0000
0100
0000
0001
0000
0010
0000
0100
1000
0000
0001
0100
0001
,
1000
0100
1000
0100
0010
0001
0010
0001
1000
0001
1000
0001
0100
0010
0100
0010
,
1000
0000
0000
0000
0000
0000
0000
0000
0000
0000
0000
0000
0000
0000
0000
0000
0000
0000
0000
0000
0000
0000
0000
0000
0001
0000
0000
0000
0000
0000
0000
0000
0100
0000
0000
0000
0000
0000
0000
0000
0001
0000
0000
0000
0000
0000
0000
0000
1000
0000
0000
0000
0000
0000
0000
0000
0000
0000
0000
0000
0000
0000
0000
0000
0000
0000
0000
0000
0000
0000
0000
0000
0010
0000
0000
0000
0000
0000
0000
0000
0000
0000
0000
0000
0000
0000
0000
0000
0000
0000
0000
0000
0000
0000
0000
0000
0100
0000
0000
0000
0000
0000
0000
0000
0000
0000
0000
0000
0001
0000
0000
0000
0000
0000
0000
0000
0000
0000
0000
0000
1000
0000
0000
0000
0000
0000
0000
0000
0000
0000
0000
0000
0001
0000
0000
0000
0000
0000
0000
0000
0000
0000
0000
0000
0020
0000
0000
0030
0000
0000
0000
0000
0000
0000
0000
0000
0000
0000
0000
0000
0000
0000
0000
0000
0000
0000
0000
0000
0000
0000
0000
0000
0000
0000
0000
0000
0000
0000
0000
0000
0000
0000
0000
0000
0000
0000
0000
0000
0000
0000
0000
0000
,
0001
0000
0100
0000
0100
0000
0001
1000
0020
0000
0000
0000
0100
0000
0000
0000
,
0001
0000
0000
0000
0100
0000
0000
0000
1000
0000
0000
0000
0130
0000
0100
0010
,
1000
0000
0001
0000
0001
0000
0010
0100
1000
0000
0010
0100
0001
0000
0010
0000
,
0010
0000
0001
1000
0010
0000
0100
0000
0001
1000
0001
0000
1000
0000
1000
0000
,
0001
0010
0000
0010
0100
0000
0100
0000
0020
0000
0000
0000
0100
0000
0000
0000
,
1000
0000
0000
0000
0100
0000
0000
0000
0001
0000
0000
0000
0130
0010
0100
0010
,
0001
0000
0100
0000
0100
0000
0001
1000
0010
0000
1000
0100
0010
0001
1000
0010
,
1000
0000
0000
0000
0000
0000
0000
0000
0000
0000
0000
0000
0000
0000
0000
0000
0000
0000
0000
0000
0000
0000
0000
0000
0001
0000
0000
0000
0000
0000
0000
0000
0000
0000
0000
0000
0100
0000
0000
0000
0000
0000
0000
0000
0000
0000
0000
0000
0001
0000
0000
0000
0000
0000
0000
0000
0000
0000
0000
0000
0000
0000
0000
0000
0000
0000
0000
0000
0000
0000
0000
0000
1000
0000
0000
0000
0000
0000
0000
0000
0000
0000
0000
0000
0000
0000
0000
0000
0000
0000
0000
0000
0000
0000
0000
0000
0100
0000
0000
0000
0000
0000
0000
0000
0000
0000
0000
0000
0000
0000
0000
0000
0000
0000
0000
0000
0000
0000
0000
0000
1000
0000
0000
0000
0000
0000
0000
0000
0010
0000
0000
0000
0000
0000
0000
0000
1000
0000
0000
0000
0000
0000
0000
0000
0002
0000
0000
0003
0000
0000
0000
0000
0000
0000
0000
0000
0000
0000
0000
0000
0000
0000
0000
0000
0000
0000
0000
0000
0000
0000
0000
0000
0000
0000
0000
0000
0000
0000
0000
0000
0000
0000
0000
0000
0000
0000
0000
0000
0000
0000
0000
0000
,
1000
0000
0000
0010
0000
0000
0010
0000
0000
1000
0001
1000
0020
0000
0000
0000
0000
0000
0001
0000
0000
0000
0000
0000
,
1000
0000
0000
0000
0001
0000
0000
0000
1000
0000
0000
0000
0031
0010
0000
0010
,
0100
0000
0001
0000
0001
0000
0100
0010
0100
0000
0001
0010
0001
0000
0010
0000
,
0100
0000
0010
1000
0010
0000
0100
0000
0010
0000
0001
0000
1000
0010
1000
0010
,
1000
0001
0000
0001
0010
0000
0100
0001
0200
0000
0000
0000
1000
0000
0000
0010
,
0010
0000
0010
0000
0010
0000
0000
0000
1000
0000
0000
0000
0010
0000
0310
0001
,
1000
0000
0000
0000
0000
0000
0010
0000
0000
0000
0000
0000
0010
0000
0000
0000
0000
0000
0001
0000
0000
0000
0000
0000
0010
0000
0000
0100
0000
0000
0001
0000
0000
0010
0000
0000
0100
0000
1000
0000
0001
0000
1000
0000
0000
0001
0000
0000
,
1000
0000
0000
0000
0100
0000
0000
0000
0000
0000
0000
0000
0100
0000
0000
0000
0000
0000
0000
0000
0010
0000
0000
0000
0001
0000
0000
0000
0000
0000
0000
0000
0100
0000
0000
0000
0010
0000
0000
0000
0000
0000
0000
0000
0010
0000
0000
0000
2000
3000
0000
0000
0000
0000
0000
0000
0000
0000
0000
0000
0000
0000
0000
0000
,
1002
0000
0000
0000
0000
0000
0000
0000
0000
0000
0000
0000
0000
0000
0000
0000
1003
0000
0000
0000
0100
0000
0000
0000
1000
0000
0000
0000
0100
0000
0000
0000
0010
0000
0000
0000
0000
0000
0000
0000
0100
0000
0000
0000
0000
0000
0000
0000
0002
0003
0000
0000
0000
0000
0000
0000
0000
0000
0000
0000
0000
0000
0000
0000
,
0100
0000
0000
0000
0000
0000
0000
0000
0100
0000
0000
0000
0000
0000
0000
0000
1000
0000
0000
0000
0010
0000
0000
0000
0000
0000
0000
0000
0010
0000
0000
0000
0100
0000
0000
0000
0000
0000
0000
0000
0100
0000
0000
0000
0000
0000
0000
0000
2000
3000
0000
0000
0000
0000
0000
0000
0000
0000
0000
0000
0000
0000
0000
0000
,
0100
0000
0000
0000
0000
0000
0000
0000
0000
0000
0000
0000
0000
0000
0000
0000
0000
0000
0000
0000
0000
0000
0000
0000
0010
0000
0000
0000
0000
0000
0000
0000
0000
0000
0000
0000
1000
0000
0000
0000
0000
0000
0000
0000
0000
0000
0000
0000
0001
0000
0000
0000
0000
0000
0000
0000
0000
0000
0000
0000
0010
0000
0000
0000
0000
0000
0000
0000
0000
0000
0000
0000
0001
0000
0000
0000
0000
0000
0000
0000
0000
0000
0000
0000
0000
0000
0000
0000
0000
0000
0000
0000
0000
0000
0000
0000
1000
0000
0000
0000
0000
0000
0000
0000
0000
0000
0000
0000
0000
0000
0000
0000
0000
0000
0000
0000
0000
0000
0000
0000
0001
0000
0000
0000
0000
0000
0000
0000
0100
0000
0000
0000
0000
0000
0000
0000
0001
0000
0000
0000
0000
0000
0000
0000
2000
0000
0000
3000
0000
0000
0000
0000
0000
0000
0000
0000
0000
0000
0000
0000
0000
0000
0000
0000
0000
0000
0000
0000
0000
0000
0000
0000
0000
0000
0000
0000
0000
0000
0000
0000
0000
0000
0000
0000
0000
0000
0000
0000
0000
0000
0000
0000
,
0010
0000
0000
0000
0100
0000
0000
0000
0010
0000
0000
0000
0100
0000
0000
0000
1000
0000
0000
0000
0100
0000
0000
0000
0001
0000
0000
0000
0000
0000
0010
0000
0000
0001
0000
0000
1000
0000
0000
0000
0000
0000
0001
0000
0000
0000
0000
0000
,
0100
0000
0100
0000
0010
1000
0010
1000
0001
0000
1000
0100
0010
0000
0100
0010
,
0100
0000
0000
0001
0000
0000
0100
0000
0000
0000
0000
0000
0010
0000
0000
0100
0000
0000
0010
0000
0000
0001
0000
0000
1000
0000
0000
0010
0000
0000
0100
0000
0001
0000
1000
0000
0001
0000
0000
0000
0000
0000
1000
0000
0000
0000
0000
0000
,
0001
0000
0000
0000
0000
0000
0100
0000
0000
0010
0000
0000
0100
0000
0000
1000
0000
0000
0100
0000
0000
0010
0000
0000
1000
0000
0000
0000
0000
0000
0100
0000
1000
0000
0001
0000
1000
0000
0000
0000
0100
0000
0000
0000
0001
0000
0000
0000
,
0100
0010
0001
0000
0100
0010
1000
0001
0100
0010
0100
0000
0120
0000
0000
0000
,
1030
0000
0100
0000
0010
0100
0000
0001
0000
0001
0100
0000
0010
0000
0100
0000
,
1000
0000
0001
0000
0100
0010
0000
0100
0000
0100
1000
0000
0200
0000
0320
0000
,
1030
0000
0001
0000
0010
0100
0000
0010
0000
0010
1000
0000
0010
0000
0001
0000
,
1000
0000
0010
0000
0001
0010
0000
0100
0000
0100
0001
0000
1000
0010
1000
0000
,
0100
0000
0100
0000
0010
0000
0100
1000
0100
1000
0100
0000
0010
0000
0010
0000
,
0100
1000
0001
0000
0100
0000
0010
0100
0001
1000
0001
0000
0200
0000
0320
0000
,
1030
0000
0000
0100
0000
0000
0000
0000
0000
0100
0000
0000
0001
0000
0000
0100
0000
0000
0000
0000
0000
0100
0000
0000
0010
0000
0000
0100
0000
0000
0000
0000
0000
0100
0000
0000
1000
0000
0001
0000
1000
0000
0010
0000
0000
1000
0000
0000
,
0002
0000
0000
0000
0000
0000
0000
0000
0100
0000
0000
0000
0000
0000
0000
0000
2003
0000
0000
0000
0000
0000
0000
0000
0100
0000
0000
0000
0000
0000
0000
0000
3002
0000
0000
0000
0000
0000
0000
0000
0010
0000
0000
0000
0000
0000
0000
0000
2003
3000
0000
0000
0000
0000
0000
0000
0000
0000
0000
0000
0000
0000
0000
0000
,
2001
3020
0032
0013
0020
1000
0230
0300
,
0002
0023
2030
3010
0020
0001
0230
0300
,
2000
3200
0302
0103
0200
0001
0320
0030
,
0002
0000
0000
0000
0203
0000
0000
0000
2300
0000
0000
0000
3100
0000
0000
0000
0110
0000
0001
0010
0100
0000
1000
0010
0100
0010
0100
0000
1001
0000
0001
0000
,
1000
0000
0100
0000
1000
0010
1000
0000
0001
0000
0010
0001
0000
1000
0001
0000
,
1000
0000
0010
0000
1000
0100
1000
0000
0001
0000
0100
0001
0000
1000
0001
0100
,
0001
0000
0100
0000
0001
0010
0001
0000
1000
0000
0010
1000
0000
0001
1000
0000
,
0001
0000
0010
0000
0001
0100
0001
0000
1000
0000
0100
1000
0000
0001
1000
0010
,
1000
0000
1000
0000
0100
0010
0100
0000
0010
0000
0001
0100
0000
1000
0100
0000
,
0001
0000
0001
0000
0010
0100
0010
0000
1000
0000
0010
0001
0000
1000
0001
1000
,
0001
0010
0001
0010
0001
0010
0001
0010
0100
1000
0100
1000
0100
1000
0100
1000
,
0010
0000
0000
0000
0000
0000
0000
0000
0001
0000
0000
0000
0010
0000
0000
0000
0000
0000
0000
0000
0100
0000
0000
0000
0010
0000
0000
0000
1000
0000
0000
0000
0010
0000
0000
0000
1000
0000
0000
0000
0001
0000
0000
0000
0010
0000
0000
0000
0200
0300
0000
0000
0000
0000
0000
0000
0000
0000
0000
0000
0000
0000
0000
0000
,
1000
0000
0010
0000
0010
1000
0001
0100
0010
0000
0100
0000
0001
0000
2000
0000
,
0010
0000
3002
0000
1003
0000
0001
0010
0001
0000
1000
0010
1000
0000
0001
1000
,
0001
0000
0010
0000
0010
0001
1000
0100
0010
0000
0100
0000
1000
0000
0002
0000
,
0010
0000
2003
0000
3001
0000
1000
0010
1000
0001
0000
0001
0010
0000
0001
0000
,
1000
0000
0100
0000
0100
1000
0001
0100
0010
0000
0100
0000
0001
0000
2000
0000
,
0100
0000
3002
0000
1003
0000
0001
0010
0001
0000
1000
0010
1000
0001
0000
0001
,
0010
0000
0100
0000
0100
0010
0001
1000
0010
0000
0100
0000
0001
0000
2000
0010
,
0010
0000
3020
0000
0130
0000
0001
0010
0001
1000
0010
0100
0001
1000
0100
0010
,
0001
0000
0100
0000
0100
0000
1000
0100
0010
0000
0010
0100
0000
0100
0001
0100
,
1000
0000
0000
0000
0000
0000
0000
0000
0000
0000
0000
0000
0000
0000
0000
0000
0000
0000
0000
0000
0000
0000
0000
0000
0100
0000
0000
0000
0000
0000
0000
0000
0000
0000
0000
0000
0000
0000
0000
0000
0000
0000
0000
0000
0000
0000
0000
0000
0100
0000
0000
0000
0000
0000
0000
0000
0000
0000
0000
0000
0000
0000
0000
0000
0000
0000
0000
0000
0000
0000
0000
0000
0001
0000
0000
0000
0000
0000
0000
0000
1000
0000
0000
0000
0000
0000
0000
0000
0100
0000
0000
0000
0000
0000
0000
0000
1000
0000
0000
0000
0000
0000
0000
0000
0000
0000
0000
0000
0000
0000
0000
0000
0000
0000
0000
0000
0000
0000
0000
0000
1000
0000
0000
0000
0000
0000
0000
0000
0000
0000
0000
0000
0010
0000
0000
0000
0000
0000
0000
0000
0000
0000
0000
0000
2000
0000
0000
3000
0000
0000
0000
0000
0000
0000
0000
0000
0000
0000
0000
0000
0000
0000
0000
0000
0000
0000
0000
0000
0000
0000
0000
0000
0000
0000
0000
0000
0000
0000
0000
0000
0000
0000
0000
0000
0000
0000
0000
0000
0000
0000
0000
0000
,
0100
0000
0010
0000
0010
0000
1000
0010
0100
0000
0100
0010
0000
0010
0001
0010
,
1000
0000
0010
0000
0010
0000
1000
0010
0001
0000
0001
0010
0000
0010
0001
0000
,
0100
0010
0100
0000
0010
0000
1000
0100
1000
0000
0100
0001
0200
0000
1300
0001
,
0100
0000
1000
0000
1000
0000
0100
1000
0100
0000
0001
1000
0000
1000
0001
0100
,
0010
0000
0010
0000
0010
0000
0001
0010
0100
0000
0010
1000
0000
1000
0001
0010
,
0001
0000
0000
0000
0000
0000
0000
0000
0000
0000
0000
0000
0000
0000
0000
0000
0000
0000
0000
0000
0000
0000
0000
0000
0010
0000
0000
0000
0000
0000
0000
0000
0000
0000
0000
0000
0000
0000
0000
0000
0000
0000
0000
0000
0000
0000
0000
0000
1000
0000
0000
0000
0000
0000
0000
0000
0000
0000
0000
0000
0000
0000
0000
0000
0000
0000
0000
0000
0000
0000
0000
0000
1000
0000
0000
0000
0000
0000
0000
0000
0000
0000
0000
0000
0000
0000
0000
0000
0000
0000
0000
0000
0000
0000
0000
0000
0010
0000
0000
0000
0000
0000
0000
0000
0000
0000
0000
0000
0100
0000
0000
0000
0000
0000
0000
0000
0000
0000
0000
0000
1000
0000
0000
0000
0000
0000
0000
0000
0001
0000
0000
0000
0000
0000
0000
0000
1000
0000
0000
0000
0000
0000
0000
0000
0020
0000
0000
0030
0000
0000
0000
0000
0000
0000
0000
0000
0000
0000
0000
0000
0000
0000
0000
0000
0000
0000
0000
0000
0000
0000
0000
0000
0000
0000
0000
0000
0000
0000
0000
0000
0000
0000
0000
0000
0000
0000
0000
0000
0000
0000
0000
0000
,
1000
0010
1000
0000
0001
0000
0010
0001
0010
0000
0001
0010
0000
0010
1000
0000
,
0010
0000
0010
0000
0001
0010
0001
0000
0010
0000
1000
0010
0000
0010
0001
1000
,
0010
0000
0010
0000
0001
0010
0001
0000
0010
0000
1000
0010
0000
0010
0001
0000
,
0010
0000
0000
1000
0000
0000
0010
0000
0000
1000
0000
0000
0001
0000
0000
0000
0000
0000
0010
0000
0000
1000
0000
0000
0010
0000
0000
1000
0000
0000
0010
0000
0000
0000
0000
0000
0001
0000
0010
0000
0001
0000
1000
0000
0000
0001
0000
0000
,
1000
0000
0100
0010
0000
0010
0100
0001
0200
0010
0000
1300
0001
0100
0010
1000
,
0001
0000
0100
0010
0000
0010
0100
0000
1000
0100
0000
0100
0020
0100
0000
1030
,
0001
0010
0001
0010
0001
0000
0010
1000
0010
1000
0010
0000
1000
0010
0001
0010
,
1000
0000
0000
0010
0000
0000
0000
0000
0000
0010
0000
0000
0001
0000
0000
0000
0000
0000
1000
0000
0000
0010
0000
0000
0000
0000
0000
0010
0000
0000
0001
0000
0000
1000
0000
0000
0100
0000
0010
0000
0100
0000
0001
0000
0000
1000
0000
0000
,
0200
0000
0001
0000
0310
0001
1000
0010
0000
0000
0000
0000
0001
0010
0100
0010
,
1000
0000
0000
0100
0000
0000
0010
0000
0000
0000
0001
0000
0000
0000
1000
0000
0000
0000
0000
0000
0000
0000
0000
0000
0000
0000
0000
0000
0000
0000
0000
0000
;

//---------------dance-double - t7r----------------
#NOTES:
     dance-double:
     t7r:
     Easy:
     12:
     :
00000000
00000000
00000000
00000000
,
00000000
00000000
00000000
00000000
,
00000000
00000000
00000000
00000000
,
00000000
00000000
00000000
00000000
,
00000000
00000000
00000000
00000000
,
00000000
00000000
00000000
00000000
,
00010000
00000100
00000000
00001000
00000001
00000000
00000100
00000000
,
00000010
00001000
00000000
00000001
00001000
00000000
00000100
00000000
,
00010000
00001000
01000000
00010000
,
10000000
00000000
00000000
00000000
00000000
00000000
00000000
00000000
00000000
00000000
00000000
00000000
00000000
00000000
00000000
00000000
00100000
00000000
00000000
00000000
00000000
00000000
00000000
00000000
00000000
00000000
00000000
00000000
00000000
00000000
00000000
00000000
01000000
00000000
00000000
00000000
00000000
00000000
00000000
00000000
00000000
00000000
00000000
00000000
00000000
00000000
00000000
00000000
00020000
00030000
00000000
00000000
00000000
00000000
00000000
00000000
00000000
00000000
00000000
00000000
00000000
00000000
00000000
00000000
,
10000000
01000000
10000000
00000000
02000000
00000000
00000000
00000000
,
00010000
00000000
00100000
03100000
,
00001000
00010000
00001000
00000000
00010000
00000000
00000010
00001000
,
00000001
00000000
00000010
00000000
00000001
00001000
00000001
00000000
,
00000100
00000010
00000100
00000000
00000020
00000000
00000000
00000000
,
00000100
00000000
00001000
00001030
,
00000001
00000000
00000010
00000000
00000100
00010000
00001000
00000000
,
00010000
00000000
00000000
00000000
00000000
00000000
00000000
00000000
00000000
00000000
00000000
00000000
00000000
00000000
00000000
00000000
00001000
00000000
00000000
00000000
00000000
00000000
00000000
00000000
00000000
00000000
00000000
00000000
00000000
00000000
00000000
00000000
01000000
00000000
00000000
00000000
00000000
00000000
00000000
00000000
00000000
00000000
00000000
00000000
00000000
00000000
00000000
00000000
00200000
00300000
00000000
00000000
00000000
00000000
00000000
00000000
00000000
00000000
00000000
00000000
00000000
00000000
00000000
00000000
,
10000000
01000000
10000000
01000000
10000000
00000000
01000000
00000000
,
00100000
00000000
00010000
00000000
00001000
00000000
00000010
00000100
,
00000010
00000100
00000010
00000000
00001000
00000000
00000001
00000000
,
00000010
00000100
00001000
00010000
,
10000000
00100000
10000000
00100000
10000000
00000000
00100000
00000000
,
01000000
00010000
00001000
00000010
,
00001000
00000000
00000100
00000010
00000001
00000000
00001000
00000000
,
00000100
00000000
00000000
00000000
00000000
00000000
00000000
00000000
00000000
00000000
00000000
00000000
00000000
00000000
00000000
00000000
00010000
00000000
00000000
00000000
00000000
00000000
00000000
00000000
00000000
00000000
00000000
00000000
00000000
00000000
00000000
00000000
00001000
00000000
00000000
00000000
00000000
00000000
00000000
00000000
00000000
00000000
00000000
00000000
00000000
00000000
00000000
00000000
00020000
00030000
00000000
00000000
00000000
00000000
00000000
00000000
00000000
00000000
00000000
00000000
00000000
00000000
00000000
00000000
,
00011000
00000000
00000000
00000000
00000000
00000000
00000000
00000000
00000000
00000000
00000000
00000000
00000000
00000000
00000000
00000000
00010000
00000000
00000000
00000000
00000000
00000000
00000000
00000000
00000000
00000000
00000000
00000000
00000000
00000000
00000000
00000000
00000100
00000000
00000000
00000000
00000000
00000000
00000000
00000000
00010000
00000000
00000000
00000000
00000000
00000000
00000000
00000000
00002000
00003000
00000000
00000000
00000000
00000000
00000000
00000000
00000000
00000000
00000000
00000000
00000000
00000000
00000000
00000000
,
00011000
00000000
00000000
00000000
00000000
00000000
00000000
00000000
00000000
00000000
00000000
00000000
00000000
00000000
00000000
00000000
00001000
00000000
00000000
00000000
00000000
00000000
00000000
00000000
00000000
00000000
00000000
00000000
00000000
00000000
00000000
00000000
01000000
00000000
00000000
00000000
00000000
00000000
00000000
00000000
00001000
00000000
00000000
00000000
00000000
00000000
00000000
00000000
00020000
00030000
00000000
00000000
00000000
00000000
00000000
00000000
00000000
00000000
00000000
00000000
00000000
00000000
00000000
00000000
,
00011000
00000000
00000000
00000000
00000000
00000000
00000000
00000000
00000000
00000000
00000000
00000000
00000000
00000000
00000000
00000000
00010000
00000000
00000000
00000000
00000000
00000000
00000000
00000000
00000000
00000000
00000000
00000000
00000000
00000000
00000000
00000000
00000010
00000000
00000000
00000000
00000000
00000000
00000000
00000000
00010000
00000000
00000000
00000000
00000000
00000000
00000000
00000000
00002000
00003000
00000000
00000000
00000000
00000000
00000000
00000000
00000000
00000000
00000000
00000000
00000000
00000000
00000000
00000000
,
00011000
00000000
00001000
00000000
00100000
00001000
00010000
00000000
,
00001000
00000000
01000000
00000000
00100000
10000000
00010000
00000000
,
10000000
00000000
01000000
00000000
00100000
00001000
00010000
00000000
,
00000010
00000000
00001000
00000000
00000001
00000010
00000100
00000000
,
00001000
00000100
00010000
00012000
,
00013000
00000000
00001000
00000000
01000000
00010000
10000000
10000000
,
00000000
00010000
00100000
00000000
00001000
00010000
00000200
00002300
,
00003000
00000001
00000100
00000000
00000001
00001000
00000010
00000010
,
00000000
00001000
00000100
00000000
00010000
00001000
02000000
03020000
,
00030000
10000000
00100000
00000000
10000000
00010000
00100000
00100000
,
00000000
00001000
00010000
00000000
00000010
00001000
00000002
00000023
,
00000030
00000001
00000100
00000000
00000001
00001000
00000100
00000000
,
00020000
00000000
00000000
00000000
00000000
00000000
00000000
00000000
00000000
00000000
00000000
00000000
00000000
00000000
00000000
00000000
00032000
00000000
00000000
00000000
00000000
00000000
00000000
00000000
00000000
00000000
00000000
00000000
00000000
00000000
00000000
00000000
02003000
00000000
00000000
00000000
00000000
00000000
00000000
00000000
00000000
00000000
00000000
00000000
00000000
00000000
00000000
00000000
03200000
00300000
00000000
00000000
00000000
00000000
00000000
00000000
00000000
00000000
00000000
00000000
00000000
00000000
00000000
00000000
,
20000000
00000000
32000000
00000000
03100000
00002000
00023000
00030000
,
00000200
00000000
00002300
00000000
00003001
00000200
00000320
00000030
,
00020000
00000000
00032000
00000000
00103000
00020000
20030000
30000000
,
00200000
00000000
02300000
00000000
03001000
00011000
00000100
00001000
,
00000001
00000000
00000000
00000000
00000010
00000000
00000000
00000000
00000001
00000000
00000000
00000100
00000000
00000000
00000001
00000000
,
00001000
00000000
00000000
00000000
00000100
00000000
00000000
00000000
00010000
00000000
00000000
00001000
00000000
00000000
00010000
00000000
,
00001000
00000000
00000000
00000000
01000000
00000000
00000000
00000000
00010000
00000000
00000000
00100000
00000000
00000000
00010000
00000000
,
10000000
00000000
00000000
00000000
00100000
00000000
00000000
00000000
10000000
00000000
00000000
01000000
00000000
00000000
10000000
00000000
,
00010000
00100000
00000000
00001000
00020000
00000000
00030100
00000000
,
00001000
00000010
00000000
00001000
00000002
00000000
00000013
00000000
,
00000001
00001000
00000001
00000000
00000100
00000000
00000010
00000000
,
00001000
00000000
00000000
00000000
00000000
00000000
00000000
00000000
00000000
00000000
00000000
00000000
00001000
00000000
00000000
00000000
00000000
00000000
00000000
00000000
00000000
00000000
00000000
00000000
00010000
00000000
00000000
00000000
00000000
00000000
00000000
00000000
00100000
00000000
00000000
00000000
00000000
00000000
00000000
00000000
00000000
00000000
00000000
00000000
00000000
00000000
00000000
00000000
00020000
00030000
00000000
00000000
00000000
00000000
00000000
00000000
00000000
00000000
00000000
00000000
00000000
00000000
00000000
00000000
,
10000000
00100000
10000000
00010000
00100000
00000000
00001000
00020000
,
00000000
00031000
00000000
00010000
00000010
00000000
00001000
00000001
,
00000000
00000010
00000001
00001000
00000001
00000000
00000100
00000020
,
00000000
00001030
00000000
00000100
00010000
00000000
00001000
00010000
,
00000000
00001000
01000000
00000000
00100000
10000000
00010000
00200000
,
00000000
00301000
00000000
00010000
00000100
00001000
00000010
00001000
,
00000000
00000001
00000010
00000000
00000100
00001000
00000100
00020000
,
00000000
00031000
00000000
00100000
00010000
10000000
00100000
10000000
,
00010000
00100000
00000000
00001000
00020000
00000000
00031000
00000000
,
00010000
00000000
00000000
00000000
00000000
00000000
00000000
00000000
00000100
00000000
00000000
00000000
00000000
00000000
00000000
00000000
00000000
00000000
00000000
00000000
00000000
00000000
00000000
00000000
00001000
00000000
00000000
00000000
00000000
00000000
00000000
00000000
00000001
00000000
00000000
00000000
00000000
00000000
00000000
00000000
00000000
00000000
00000000
00000000
00000000
00000000
00000000
00000000
00002000
00003000
00000000
00000000
00000000
00000000
00000000
00000000
00000000
00000000
00000000
00000000
00000000
00000000
00000000
00000000
,
00000001
00000000
00000010
00000000
00000010
00000000
00000000
00000000
00000001
00000000
00000000
00000100
00000000
00000000
00000001
00000000
,
00001000
00000000
00000100
00000000
00010000
00000000
00000000
00000000
00001000
00000000
00000000
01000000
00000000
00000000
00010000
00000000
,
10000000
01000000
01000000
00000000
00200000
00000000
00310000
00000000
,
00001000
00000100
00000100
00000000
00000010
00000001
00001000
00000000
,
00000001
00000010
00000010
00000000
00000200
00000000
00001300
00000000
,
00010000
00000000
00000000
00000000
00000000
00000000
00000000
00000000
01000000
00000000
00000000
00000000
00000000
00000000
00000000
00000000
01000000
00000000
00000000
00000000
00000000
00000000
00000000
00000000
00000000
00000000
00000000
00000000
00000000
00000000
00000000
00000000
00100000
00000000
00000000
00000000
00000000
00000000
00000000
00000000
10000000
00000000
00000000
00000000
00000000
00000000
00000000
00000000
00020000
00030000
00000000
00000000
00000000
00000000
00000000
00000000
00000000
00000000
00000000
00000000
00000000
00000000
00000000
00000000
,
10000000
00100000
10000000
00000000
00200000
00000000
00310000
00000000
,
00001000
00010000
00001000
00000000
00000020
00000000
00000031
00000000
,
00001000
00000001
00001000
00000000
00000002
00000000
00000013
00000000
,
00001000
00010000
00001000
00000000
00020000
00000000
00130000
00000000
,
10000000
01000000
01000000
00000000
00100000
00010000
00001000
00000000
,
00000001
00000100
00000100
00000000
00000010
00001000
00010000
00000000
,
10000000
00100000
10000000
00100000
00010000
00001000
00010000
00001000
,
00000010
00000001
00000010
00000001
00000010
00001000
00010000
00000000
,
00002000
00010000
01003000
00100000
,
10000000
00000000
00000000
01000000
00000000
00000000
00010000
00000000
00000000
00000000
00001000
00000000
00000000
00000000
00000010
00000000
00000000
00000000
00000000
00000000
00000000
00000000
00000000
00000000
00000000
00000000
00000000
00000000
00000000
00000000
00000000
00000000
;

//---------------dance-double - t7r----------------
#NOTES:
     dance-double:
     t7r:
     Medium:
     14:
     :
00000000
00000000
00000000
00000000
,
00000000
00000000
00000000
00000000
,
00000000
00000000
00000000
00000000
,
00000000
00000000
00000000
00000000
,
00000000
00000000
00000000
00000000
,
00000000
00000000
00000000
00000000
,
00010000
00000000
00001000
00000000
00001000
00000000
00100000
00000000
00010000
00000000
00000000
01000000
00000000
00000000
00100000
00000000
,
10000000
01000000
01000000
00100000
00001000
00010000
00002000
00000000
,
00003010
00000001
00000001
00000100
00000010
00001000
00001000
00010000
,
00100000
00000000
00000000
00000000
00000000
00000000
00000000
00000000
00000000
00000000
00000000
00000000
00010000
00000000
00000000
00000000
10000000
00000000
00000000
00000000
00000000
00000000
00000000
00000000
00100000
00000000
00000000
00000000
00000000
00000000
00000000
00000000
01000000
00000000
00000000
00000000
00000000
00000000
00000000
00000000
00001000
00000000
00000000
00000000
00000000
00000000
00000000
00000000
00020000
00030000
00000000
00000000
00000000
00000000
00000000
00000000
00000000
00000000
00000000
00000000
00000000
00000000
00000000
00000000
,
00001000
00000100
00000100
00000001
00000020
00000000
00000100
00000000
,
00001000
00000000
00000000
00000000
00000100
00000000
00000000
00000000
00000001
00000000
00000000
00000000
00000130
00000000
00000010
00000001
,
00000010
00000001
00000100
00000000
00001000
00010000
00001000
00010000
,
00010000
00000000
00000000
00000000
01000000
00000000
10000000
00000000
00100000
01000000
00100000
00000000
01000000
00000000
01000000
00000000
,
00010000
00100000
00000000
00100000
00010000
00000000
10000000
00000000
00200000
00000000
00000000
00000000
01000000
00000000
00000000
00000000
,
10000000
00000000
00000000
00000000
01000000
00000000
00000000
00000000
00010000
00000000
00000000
00000000
01300000
00100000
01000000
00000000
,
00100000
00000000
10000000
00000000
10000000
00000000
00000000
00010000
00100000
00000000
00000000
00001000
00010000
00000000
00000000
00000010
,
00001000
00000000
00000000
00000000
00000000
00000000
00000000
00000000
00000100
00000000
00000000
00000000
00000010
00000000
00000000
00000000
00000100
00000000
00000000
00000000
00000000
00000000
00000000
00000000
00000010
00000000
00000000
00000000
00000000
00000000
00000000
00000000
00000001
00000000
00000000
00000000
00000000
00000000
00000000
00000000
00000200
00000000
00000000
00000000
00000000
00000000
00000000
00000000
00002300
00003000
00000000
00000000
00000000
00000000
00000000
00000000
00000000
00000000
00000000
00000000
00000000
00000000
00000000
00000000
,
00010000
00001000
00001000
00010000
00200000
00000000
01000000
00000000
,
00010000
00000000
00000000
00000000
01000000
00000000
00000000
00000000
10000000
00000000
00000000
00000000
01300000
00100000
00000000
10000000
,
00010000
10000000
10000000
00000000
00010000
00100000
00001000
00000000
,
00010000
00000000
00000010
00000000
00001000
00000000
00000000
00000000
00000001
00000000
00000000
00000000
00001000
00000001
00001000
00000000
,
00000001
00000100
00000000
00000001
00001000
00000000
00000100
00000000
00000020
00000000
00000000
00000000
00001000
00000000
00000000
00000000
,
00000100
00000100
00000100
00000000
00000001
00000000
00000130
00000000
,
00000010
00000001
00001000
00000000
00000001
00000100
00000010
00000000
,
00001000
00000000
00000000
00000000
00000000
00000000
00000000
00000000
00000000
00000000
00000000
00000000
00000000
00000000
00000000
00000000
00010000
00000000
00000000
00000000
00000000
00000000
00000000
00000000
00000000
00000000
00000000
00000000
00000000
00000000
00000000
00000000
10000000
00000000
00000000
00000000
00000000
00000000
00000000
00000000
00000000
00000000
00000000
00000000
00000000
00000000
00000000
00000000
00200000
00300000
00000000
00000000
00000000
00000000
00000000
00000000
00000000
00000000
00000000
00000000
00000000
00000000
00000000
00000000
,
20000000
00000000
00000000
00000000
00000000
00000000
00000000
00000000
00000000
00000000
00000000
00000000
00000000
00000000
00000000
00000000
31000000
00000000
00000000
00000000
00000000
00000000
00000000
00000000
00010000
00000000
00000000
00000000
00000000
00000000
00000000
00000000
01000000
00000000
00000000
00000000
00000000
00000000
00000000
00000000
00010000
00000000
00000000
00000000
00000000
00000000
00000000
00000000
00002000
00003000
00000000
00000000
00000000
00000000
00000000
00000000
00000000
00000000
00000000
00000000
00000000
00000000
00000000
00000000
,
00000100
00000000
00000000
00000000
00000000
00000000
00000000
00000000
00000010
00000000
00000000
00000000
00000000
00000000
00000000
00000000
00001000
00000000
00000000
00000000
00000100
00000000
00000000
00000000
00000000
00000000
00000000
00000000
00000000
00000000
00000000
00000000
00000010
00000000
00000000
00000000
00000000
00000000
00000000
00000000
00000001
00000000
00000000
00000000
00000000
00000000
00000000
00000000
00000200
00000300
00000000
00000000
00000000
00000000
00000000
00000000
00000000
00000000
00000000
00000000
00000000
00000000
00000000
00000000
,
00001000
00000000
00000000
00000000
00000000
00000000
00000000
00000000
00010000
00000000
00000000
00000000
00000000
00000000
00000000
00000000
01000000
00000000
00000000
00000000
00000000
00000000
00000000
00000000
00010000
00000000
00000000
00000000
00000000
00000000
00000000
00000000
01000000
00000000
00000000
00000000
00000000
00000000
00000000
00000000
10000000
00000000
00000000
00000000
00000000
00000000
00000000
00000000
00020000
00030000
00000000
00000000
00000000
00000000
00000000
00000000
00000000
00000000
00000000
00000000
00000000
00000000
00000000
00000000
,
10000000
00000000
00000000
00000000
00100000
00000000
00010000
00000000
00000000
00000000
00000000
00000000
00001000
00000000
00000000
00000010
00000000
00000000
00000100
00000000
00000000
00001000
00000000
00000000
,
00000001
00000000
00000100
00000000
00000010
00001000
00000000
00000001
00001000
00000000
00000001
00000000
00000010
00000000
00000000
00000000
,
00000100
00000000
00010000
00000000
00001000
00010000
00000000
00001000
00100000
00000000
00010000
00000000
10000000
00000000
00000000
00000000
,
00100000
01000000
00010000
00000000
00001000
00000100
00000010
00000000
,
00000001
00000000
00000100
00000000
00001000
00010000
00000000
00001000
00010000
00000000
00000000
00000000
00012000
00000000
00000000
00000000
,
00013000
00000000
01000000
00000000
00100000
01000000
00000000
00000000
10000000
00000000
00010000
00000000
01000000
00000000
00010000
00000000
,
00000000
10000000
00100000
00000000
00010000
00001000
00020000
00030200
,
00000300
00000000
00001000
00000000
00000010
00001000
00000000
00000000
00000100
00000000
00000010
00000000
00000001
00000000
00001000
00000000
,
00000000
00000001
00000100
00000000
00001000
00010000
00200000
02300000
,
03010000
00010000
00100000
00001000
00010000
00010000
00000010
00001000
,
00000001
00000001
00000010
00000100
00001000
00001000
00010000
00100000
,
01000000
01000000
10000000
00010000
10000000
10000000
00100000
01000000
,
00002000
00000000
00000000
00000000
00000000
00000000
00000000
00000000
00023000
00000000
00000000
00000000
00000000
00000000
00000000
00000000
00030200
00000000
00000000
00000000
00000000
00000000
00000000
00000000
00000000
00000000
00000000
00000000
00000000
00000000
00000000
00000000
00002300
00000000
00000000
00000000
00000000
00000000
00000000
00000000
00000000
00000000
00000000
00000000
00000000
00000000
00000000
00000000
00003020
00000030
00000000
00000000
00000000
00000000
00000000
00000000
00000000
00000000
00000000
00000000
00000000
00000000
00000000
00000000
,
00002000
00003200
00000320
00000031
00000002
00000203
00000320
00000030
,
00002000
00003200
00020300
00031000
00002000
00203000
00320000
00030000
,
20000000
30200000
02300000
03010000
00020000
00230000
00302000
00003000
,
00020000
00000000
00000000
00000000
00030020
00000000
00000000
00000000
00002030
00000000
00000000
00000000
00003100
00000000
00000000
00000000
00011000
00000000
00000000
00000000
01001000
00000000
00000000
00000000
01000000
00100000
01000000
00000000
00010000
00000000
00010000
00000000
,
10000000
00000000
01000000
00000000
00100000
00010000
00000000
00000000
10000000
00000000
00100000
00000000
10000000
00000000
00020000
00000000
,
00000000
00130000
00000000
00001000
00010000
00001000
00000010
00000001
,
00000000
00000000
00000100
00000000
00000010
00000100
00000000
00000000
00000001
00000000
00000010
00000000
00000001
00000000
00002000
00000000
,
00000000
00003001
00000010
00000000
00001000
00010000
00001000
00100000
,
00000000
00000000
00010000
00000000
01000000
00100000
00000000
00000000
10000000
00000000
01000000
00000000
00100000
00000000
00020000
00000000
,
00000000
10030000
00000000
00100000
01000000
00010000
00001000
00000000
,
00000001
00000001
00000010
00000010
00000100
00000100
00001000
00001000
,
00010000
00000000
00000000
00000000
00000000
00000000
00000000
00000000
00000000
00000000
00000000
00000000
10000000
00000000
00000000
00000000
00100000
00000000
00000000
00000000
00000000
00000000
00000000
00000000
01000000
00000000
00000000
00000000
00000000
00000000
00000000
00000000
00001000
00000000
00000000
00000000
00000000
00000000
00000000
00000000
00010000
00000000
00000000
00000000
00001000
00000000
00000000
00000000
00020000
00030000
00000000
00000000
00000000
00000000
00000000
00000000
00000000
00000000
00000000
00000000
00000000
00000000
00000000
00000000
,
00001000
00010000
00010000
00001000
01000000
00010000
00100000
00020000
,
00000000
00000000
10030000
00000000
00000000
00000000
00010000
01000000
00010000
00000000
10000000
00000000
01000000
00000000
00100000
00000000
,
00000000
00010000
01000000
00001000
00010000
00000100
00001000
00000020
,
00000000
00000000
00000130
00000000
00000000
00000000
00000001
00000010
00000001
00000000
00001000
00000000
00000010
00000000
00010000
00000000
,
00001000
00010000
00010000
01000000
00100000
01000000
10000000
00200000
,
00000000
00000000
01300000
00000000
00000000
00000000
00001000
00010000
00001000
00000000
00000100
00000000
00000010
00000100
00000000
00000010
,
00000100
00000001
00000001
00001000
00000100
00000010
00000001
00002000
,
00000000
00000000
00003100
00000000
00000000
00000000
00010000
00000000
00001000
00010000
00000000
01000000
10000000
00000000
00010000
00000000
,
10000000
00000000
00100000
00000000
00100000
00000000
00000000
10000000
01000000
00000000
00100000
00010000
00000000
00001000
00000100
00000000
,
00000010
00000000
00000000
00000000
00000000
00000000
00000000
00000000
00000001
00000000
00000000
00000000
00000000
00000000
00000000
00000000
00000001
00000000
00000000
00000000
00000000
00000000
00000000
00000000
00000000
00000000
00000000
00000000
00000000
00000000
00000000
00000000
00000100
00000000
00000000
00000000
00000000
00000000
00000000
00000000
00001000
00000000
00000000
00000000
00000000
00000000
00000000
00000000
00020000
00030000
00000000
00000000
00000000
00000000
00000000
00000000
00000000
00000000
00000000
00000000
00000000
00000000
00000000
00000000
,
00001000
00000000
00000010
00000000
00000010
00000000
00000000
00000000
00000001
00000000
00000000
00001000
00000010
00000000
00001000
00000000
,
00000001
00000010
00000010
00000000
00001000
00010000
00100000
10000000
,
00010000
01000000
01000000
00100000
01000000
01000000
00002000
00013000
,
00000010
00000000
00000100
00000000
00000100
00000000
00000001
00000000
00000010
00000000
00000100
00000010
00000000
00000010
00000002
00000000
,
00001003
00000010
00000010
00000001
00000010
00000000
00001000
00000000
,
00000010
00000000
00000000
00000000
00000000
00000000
00000000
00000000
00010000
00000000
00000000
00000000
00000000
00000000
00000000
00000000
00001000
00000000
00000000
00000000
00000000
00000000
00000000
00000000
00010000
00000000
00000000
00000000
00000000
00000000
00000000
00000000
00100000
00000000
00000000
00000000
00000000
00000000
00000000
00000000
10000000
00000000
00000000
00000000
00000000
00000000
00000000
00000000
00020000
00030000
00000000
00000000
00000000
00000000
00000000
00000000
00000000
00000000
00000000
00000000
00000000
00000000
00000000
00000000
,
10000000
00100000
10000000
00000000
00100000
00000000
00010000
00000000
00001000
00000000
00000000
00000000
00000010
00000000
00000000
00000000
,
00000001
00000000
00000010
00000000
00000001
00000010
00000001
00000000
00000010
00000000
00001000
00000000
00010000
00000000
00000000
00000000
,
00100000
00000000
10000000
00000000
00100000
00000000
00010000
00000000
00001000
00000000
00010000
00001000
00000000
00010000
00001000
00000000
,
00001000
00000000
00000010
00000000
00000001
00000000
00000010
00000000
00001000
00010000
00001000
00000000
00020000
00000000
00000000
00000000
,
01030000
00000000
10000000
01000000
00000000
10000000
01000000
00000000
00020000
00000000
00000000
00000000
00031000
00000000
00000100
00000000
,
00000001
00000000
00000100
00000001
00000000
00000100
00000001
00000000
00000100
00000000
00001000
00000000
00010000
00000000
00000000
00000000
,
00100000
10000000
00100000
00010000
00001000
00001000
00010000
00000000
,
00001000
00000010
00000000
00001000
00000010
00000000
00000001
00000010
00000000
00001000
00010000
00000000
00100000
00000000
10000000
00000000
,
00020000
00000000
01000000
00000000
10030000
01000000
00100000
00010000
00000000
00000000
00000000
00000000
00001000
00000010
00000100
00000001
,
00000010
00000000
00000000
00001000
00000000
00000000
00010000
00000000
00000000
00000000
01000000
00000000
00000000
00000000
10000000
00000000
00000000
00000000
00000000
00000000
00000000
00000000
00000000
00000000
00000000
00000000
00000000
00000000
00000000
00000000
00000000
00000000
;

//---------------dance-double - t7r----------------
#NOTES:
     dance-double:
     t7r:
     Hard:
     17:
     :
00000000
00000000
00000000
00000000
,
00000000
00000000
00000000
00000000
,
00000000
00000000
00000000
00000000
,
00000000
00000000
00000000
00000000
,
00000000
00000000
00000000
00000000
,
00000000
00000000
00000000
00000000
,
00001000
00000000
01000000
00000000
01000000
00000000
00010000
00000000
10000000
00000000
00100000
10000000
00000000
00010000
00100000
00010000
,
10000000
00000000
01000000
00000000
01000000
00000000
00100000
00000000
00001000
00000000
00010000
00001000
00000000
00010000
00000010
00001000
,
00000001
00000000
00000010
00000100
00001000
00000000
00010000
00000000
00100000
00000000
01000000
10000000
00010000
00000000
10000000
00000000
,
00100000
00000000
00000000
00000000
00000000
00000000
00000000
00000000
00000000
00000000
00000000
00000000
00000000
00000000
00000000
00000000
00000000
00000000
00000000
00000000
00000000
00000000
00000000
00000000
00010000
00000000
00000000
00000000
00000000
00000000
00000000
00000000
00001000
00000000
00000000
00000000
00000000
00000000
00000000
00000000
00010000
00000000
00000000
00000000
00000000
00000000
00000000
00000000
00001000
00000000
00000000
00000000
00000000
00000000
00000000
00000000
00000000
00000000
00000000
00000000
00000000
00000000
00000000
00000000
00000000
00000000
00000000
00000000
00000000
00000000
00000000
00000000
00000100
00000000
00000000
00000000
00000000
00000000
00000000
00000000
00000000
00000000
00000000
00000000
00000000
00000000
00000000
00000000
00000000
00000000
00000000
00000000
00000000
00000000
00000000
00000000
00000010
00000000
00000000
00000000
00000000
00000000
00000000
00000000
00000000
00000000
00000000
00000000
00001000
00000000
00000000
00000000
00000000
00000000
00000000
00000000
00000000
00000000
00000000
00000000
00000001
00000000
00000000
00000000
00000000
00000000
00000000
00000000
00000000
00000000
00000000
00000000
00001000
00000000
00000000
00000000
00000000
00000000
00000000
00000000
00000000
00000000
00000000
00000000
00000002
00000000
00000000
00000003
00000000
00000000
00000000
00000000
00000000
00000000
00000000
00000000
00000000
00000000
00000000
00000000
00000000
00000000
00000000
00000000
00000000
00000000
00000000
00000000
00000000
00000000
00000000
00000000
00000000
00000000
00000000
00000000
00000000
00000000
00000000
00000000
00000000
00000000
00000000
00000000
00000000
00000000
00000000
00000000
00000000
00000000
00000000
00000000
,
00001000
00000000
00000100
00000000
00000100
00000000
00010000
00000100
00002000
00000000
00000000
00000000
00010000
00000000
00000000
00000000
,
00000100
00000000
00000000
00000000
00000001
00000000
00000000
00000000
00000100
00000000
00000000
00000000
00003001
00000000
00000100
00000010
,
00001000
00000000
00000001
00000000
00000001
00000000
00000010
00000100
00001000
00000000
00010000
00000000
00100000
00000000
00010000
00000000
,
00010000
00000000
10000000
00100000
01000000
00000000
00010000
00000000
10000000
01000000
10000000
00000000
01000000
00000000
01000000
00000000
,
00010000
00001000
00000000
01000000
00010000
00000000
00100000
00000000
00020000
00000000
00000000
00000000
00001000
00000000
00000000
00000000
,
01000000
00000000
00000000
00000000
10000000
00000000
00000000
00000000
01000000
00000000
00000000
00000000
10030000
01000000
10000000
01000000
,
00100000
00000000
00010000
00000000
00010000
00000000
00001000
00000100
00000010
00000000
00000001
00000000
00000100
00000010
00001000
00000001
,
00000010
00000000
00000000
00000000
00000000
00000000
00001000
00000000
00000000
00010000
00000000
00000000
00001000
00000000
00000000
00000000
00000000
00000000
00010000
00000000
00000000
00000000
00000000
00000000
00100000
00000000
00000000
00000000
00000000
00000000
01000000
00000000
00010000
00000000
10000000
00000000
00020000
00000000
00000000
00000000
00000000
00000000
00000000
00000000
00000000
00000000
00000000
00000000
,
10030000
00000000
00000000
00100000
00000000
00000000
00100000
00000000
00000000
01000000
00010000
10000000
00020000
00000000
00000000
00000000
00000000
00000000
00001000
00000000
00000000
00000000
00000000
00000000
,
00100000
00000000
00000000
00000000
10000000
00000000
00000000
00000000
00100000
00000000
00000000
00000000
00031000
00000010
00000000
00000010
,
00000100
00000000
00000001
00000000
00000001
00000000
00000010
00000100
00000010
00000000
00000001
00001000
00000001
00000000
00000100
00000000
,
00001000
00000000
00010000
00001000
00010000
00000000
01000000
00000000
10000000
00000000
00010000
10000000
00010000
00100000
00010000
00100000
,
00001000
00010000
00000000
00010000
00001000
00000000
00000010
00000100
00002000
00000000
00000000
00000000
00010000
00000000
00000000
00000010
,
00000010
00000000
00000010
00000000
00000010
00000000
00000000
00000000
00000010
00000000
00000000
00000000
00000001
00000000
00003001
00000100
,
00000010
00000000
00001000
00000000
00001000
00000000
00010000
00000000
00100000
01000000
10000000
00010000
00100000
00001000
00010000
00000010
,
00001000
00000000
00000000
00000000
00000100
00000000
00000000
00000000
00000000
00000000
00000000
00000000
00000100
00000000
00000000
00000000
00000000
00000000
00000000
00000000
00000010
00000000
00000000
00000000
00000001
00000000
00000000
00000000
00000000
00000000
00000000
00000000
00000100
00000000
00000000
00000000
00001000
00000000
00000000
00000000
00000000
00000000
00000000
00000000
00001000
00000000
00000000
00000000
00020000
00030000
00000000
00000000
00000000
00000000
00000000
00000000
00000000
00000000
00000000
00000000
00000000
00000000
00000000
00000000
,
00012000
00000000
00000000
00000000
00000000
00000000
00000000
00000000
00000000
00000000
00000000
00000000
00000000
00000000
00000000
00000000
00013000
00000000
00000000
00000000
01000000
00000000
00000000
00000000
00010000
00000000
00000000
00000000
01000000
00000000
00000000
00000000
00010000
00000000
00000000
00000000
00000000
00000000
00000000
00000000
00001000
00000000
00000000
00000000
00000000
00000000
00000000
00000000
00020000
00030000
00000000
00000000
00000000
00000000
00000000
00000000
00000000
00000000
00000000
00000000
00000000
00000000
00000000
00000000
,
00001000
00000000
00000000
00000000
00000000
00000000
00000000
00000000
00001000
00000000
00000000
00000000
00000000
00000000
00000000
00000000
00000100
00000000
00000000
00000000
00000010
00000000
00000000
00000000
00000000
00000000
00000000
00000000
00000010
00000000
00000000
00000000
00001000
00000000
00000000
00000000
00000000
00000000
00000000
00000000
00000001
00000000
00000000
00000000
00000000
00000000
00000000
00000000
00000020
00000030
00000000
00000000
00000000
00000000
00000000
00000000
00000000
00000000
00000000
00000000
00000000
00000000
00000000
00000000
,
00001000
00000000
00000000
00000000
00000000
00000000
00000000
00000000
00000000
00000000
00000000
00000000
00000000
00000000
00000000
00000000
00000000
00000000
00000000
00000000
00000000
00000000
00000000
00000000
00010000
00000000
00000000
00000000
00000000
00000000
00000000
00000000
00000000
00000000
00000000
00000000
00000100
00000000
00000000
00000000
00000000
00000000
00000000
00000000
00000000
00000000
00000000
00000000
00010000
00000000
00000000
00000000
00000000
00000000
00000000
00000000
00000000
00000000
00000000
00000000
00001000
00000000
00000000
00000000
00000000
00000000
00000000
00000000
00000000
00000000
00000000
00000000
00010000
00000000
00000000
00000000
00000000
00000000
00000000
00000000
00000000
00000000
00000000
00000000
00000000
00000000
00000000
00000000
00000000
00000000
00000000
00000000
00000000
00000000
00000000
00000000
00001000
00000000
00000000
00000000
00000000
00000000
00000000
00000000
00000000
00000000
00000000
00000000
00000000
00000000
00000000
00000000
00000000
00000000
00000000
00000000
00000000
00000000
00000000
00000000
00010000
00000000
00000000
00000000
00000000
00000000
00000000
00000000
00000100
00000000
00000000
00000000
00000000
00000000
00000000
00000000
00001000
00000000
00000000
00000000
00000000
00000000
00000000
00000000
00000002
00000000
00000000
00000003
00000000
00000000
00000000
00000000
00000000
00000000
00000000
00000000
00000000
00000000
00000000
00000000
00000000
00000000
00000000
00000000
00000000
00000000
00000000
00000000
00000000
00000000
00000000
00000000
00000000
00000000
00000000
00000000
00000000
00000000
00000000
00000000
00000000
00000000
00000000
00000000
00000000
00000000
00000000
00000000
00000000
00000000
00000000
00000000
,
00000100
00000000
00000000
00000000
00001000
00000000
00000000
00000000
00010000
00000000
00000000
00000000
00000100
00000000
00000000
00000000
00001000
00000000
00000000
00000000
00000001
00000000
00000000
00000000
00000010
00000000
00000000
00000000
00000000
00000000
00001000
00000000
00000000
00010000
00000000
00000000
00001000
00000000
00000000
00000000
00000000
00000000
00010000
00000000
00000000
00000000
00000000
00000000
,
01000000
00000000
01000000
00000000
10000000
00010000
10000000
00010000
00100000
00000000
00001000
00010000
00000100
00000000
00001000
00000001
,
00000100
00000010
00001000
00000000
00000001
00000100
00000001
00000100
00000010
00000000
00001000
00000100
00010000
00000000
00001000
00000000
,
00010000
00000000
00000000
00000000
00000000
00000000
01000000
00000000
00000000
10000000
00000000
00000000
00100000
00000000
00000000
01000000
00000000
00000000
00010000
00000000
00000000
10000000
00000000
00000000
00010000
00000000
00000000
00000000
00000000
00000000
10000000
00000000
00000000
00100000
00000000
00000000
00010000
00000000
00000000
00000000
00001000
00000000
00000000
00000000
00010000
00000000
00000000
00000000
,
00000100
00000010
00000001
00000000
00000100
00001000
00000100
00000010
00001000
00000100
00010000
00000000
00021000
00000000
00000000
00000000
,
00031000
00000000
01000000
00000000
00010000
00100000
00000000
10000000
00000000
10000000
00100000
00000000
01000000
00000000
10000000
00000000
,
00100000
00000000
00010000
00000000
00001000
00010000
00000000
00001000
00000000
00001000
00000100
00000000
00000020
00000000
00002030
00000000
,
00003001
00000000
00000010
00000000
00000100
00000010
00000000
00001000
00000000
00001000
00000010
00000000
00000001
00000000
00000100
00000000
,
00001000
00000000
00010000
00000000
01000000
00100000
00000000
00010000
00000000
00010000
10000000
00000000
00100000
10000000
00100000
00000000
,
01000000
00000000
01000000
00000000
00010000
00000000
10000000
01000000
10000000
01000000
10000000
00000000
01000000
00000000
01000000
00000000
,
00010000
00001000
00010000
00000000
00000100
00000000
00001000
00000010
00001000
00000001
00001000
00000000
00000020
00000000
00000230
00000000
,
00000301
00000000
00000000
00000010
00000000
00000000
00000000
00000000
00000000
00000010
00000000
00000000
00001000
00000000
00000000
00010000
00000000
00000000
00000000
00000000
00000000
00010000
00000000
00000000
00001000
00000000
00000000
01000000
00000000
00000000
00000000
00000000
00000000
01000000
00000000
00000000
00010000
00000000
10000000
00000000
00010000
00000000
00100000
00000000
00000000
00010000
00000000
00000000
,
20000000
00000000
00000000
00000000
00000000
00000000
00000000
00000000
00000000
00000000
00000000
00000000
00000000
00000000
00000000
00000000
30020000
00000000
00000000
00000000
00000000
00000000
00000000
00000000
00000000
00000000
00000000
00000000
00000000
00000000
00000000
00000000
00032000
00000000
00000000
00000000
00000000
00000000
00000000
00000000
00000000
00000000
00000000
00000000
00000000
00000000
00000000
00000000
00003002
00000003
00000000
00000000
00000000
00000000
00000000
00000000
00000000
00000000
00000000
00000000
00000000
00000000
00000000
00000000
,
00000200
00002300
00023000
01030000
02000000
03020000
00032000
00003000
,
00000020
00002030
00023000
01030000
02000000
23000000
30200000
00300000
,
00020000
00032000
00003200
00000301
00000002
00000023
00000230
00000300
,
00020000
00000000
00000000
00000000
00032000
00000000
00000000
00000000
00023000
00000000
00000000
00000000
02030000
00000000
00000000
00000000
03100000
00000000
00010000
10000000
00010000
00000000
10000000
00000000
00100000
01000000
00010000
00000000
00001000
00000000
00000010
00000000
,
00001000
00000000
00000100
00000000
00000010
00000001
00000010
00000000
00000001
00000000
00000100
00000010
00000000
00010000
00001000
00000000
,
00010000
00000000
00000100
00000000
00010000
00001000
00010000
00000000
00001000
00000000
01000000
00010000
00000000
10000000
00010000
00100000
,
00010000
00000000
01000000
00000000
00100000
10000000
00100000
00000000
10000000
00000000
01000000
00100000
00000000
00001000
00010000
00000000
,
00000100
00000000
00001000
00000000
00000010
00001000
00000010
00000000
00000100
00000000
00000001
00000010
00000000
00000001
00001000
00000100
,
00010000
00000000
00010000
00000000
00001000
01000000
00001000
00000000
00010000
00000000
00001000
00000100
00000000
00001000
00010000
00000000
,
00001000
00000000
00001000
00000000
00010000
00000010
00010000
00000000
00001000
00000000
00010000
00100000
00000000
00010000
00001000
00000000
,
00000100
00000000
00000001
00000010
00000100
00000000
00001000
00000000
00010000
00000000
00100000
01000000
10000000
00000000
00100000
01000000
,
00001000
00000000
00000000
00000000
00000000
00000000
00000000
00000000
00010000
00000000
00000000
00000000
00000100
00000000
00000000
00000000
00000000
00000000
00000000
00000000
00001000
00000000
00000000
00000000
00000001
00000000
00000000
00000000
00000000
00000000
00000000
00000000
00000100
00000000
00000000
00000000
00000000
00000000
00000000
00000000
00001000
00000000
00000000
00000000
00010000
00000000
00000000
00000000
00002000
00003000
00000000
00000000
00000000
00000000
00000000
00000000
00000000
00000000
00000000
00000000
00000000
00000000
00000000
00000000
,
00010000
00000000
00001000
00000000
00001000
01000000
00010000
10000000
00010000
00000000
00100000
00000000
00010000
00000000
20000000
00000000
,
00100000
00000000
30020000
00000000
10030000
00000000
00010000
00100000
00010000
00000000
00100000
00001000
00010000
00000000
00001000
00010000
,
00000010
00000000
00000100
00000000
00000100
00000001
00001000
00000010
00000100
00000000
00000001
00000010
00000001
00000000
00002000
00000000
,
00000100
00000000
00003002
00000000
00001003
00000000
00000001
00000010
00000001
00000100
00000000
00000100
00001000
00000000
00010000
00000000
,
00001000
00000000
01000000
00000000
01000000
00010000
10000000
00100000
01000000
00000000
00100000
10000000
00100000
00000000
20000000
00000000
,
01000000
00000000
30020000
00000000
10030000
00000000
01000000
00100000
00010000
00000000
00001000
00000010
00000100
00000001
00000000
00000001
,
00001000
00000000
00000100
00000000
00000100
00001000
00000001
00000100
00000010
00000000
00000100
00000000
00000001
00000000
00002000
00000010
,
00000010
00000000
00003020
00000000
00000130
00000000
00000001
00000010
00000001
00001000
00000100
00010000
00001000
01000000
00010000
10000000
,
00100000
00000000
01000000
00000000
01000000
00000000
10000000
01000000
00100000
00000000
00100000
01000000
00000000
01000000
00010000
10000000
,
01000000
00000000
00000000
00000000
00000000
00000000
00000000
00000000
00000000
00000000
00000000
00000000
00000000
00000000
00000000
00000000
00000000
00000000
00000000
00000000
00000000
00000000
00000000
00000000
00010000
00000000
00000000
00000000
00000000
00000000
00000000
00000000
00000000
00000000
00000000
00000000
00000000
00000000
00000000
00000000
00000000
00000000
00000000
00000000
00000000
00000000
00000000
00000000
00010000
00000000
00000000
00000000
00000000
00000000
00000000
00000000
00000000
00000000
00000000
00000000
00000000
00000000
00000000
00000000
00000000
00000000
00000000
00000000
00000000
00000000
00000000
00000000
00001000
00000000
00000000
00000000
00000000
00000000
00000000
00000000
00010000
00000000
00000000
00000000
00000000
00000000
00000000
00000000
00000100
00000000
00000000
00000000
00000000
00000000
00000000
00000000
00001000
00000000
00000000
00000000
00000000
00000000
00000000
00000000
00000000
00000000
00000000
00000000
00000000
00000000
00000000
00000000
00000000
00000000
00000000
00000000
00000000
00000000
00000000
00000000
00000001
00000000
00000000
00000000
00000000
00000000
00000000
00000000
00000000
00000000
00000000
00000000
00000100
00000000
00000000
00000000
00000000
00000000
00000000
00000000
00000000
00000000
00000000
00000000
00000020
00000000
00000000
00000030
00000000
00000000
00000000
00000000
00000000
00000000
00000000
00000000
00000000
00000000
00000000
00000000
00000000
00000000
00000000
00000000
00000000
00000000
00000000
00000000
00000000
00000000
00000000
00000000
00000000
00000000
00000000
00000000
00000000
00000000
00000000
00000000
00000000
00000000
00000000
00000000
00000000
00000000
00000000
00000000
00000000
00000000
00000000
00000000
,
00000100
00000000
00001000
00000000
00001000
00000000
00000100
00000001
00001000
00000000
00000001
00000010
00000000
00000010
00001000
00010000
,
00001000
00000000
00010000
00000000
00010000
00000000
00100000
10000000
00010000
00000000
01000000
00100000
00000000
00100000
10000000
00000000
,
00100000
01000000
00100000
00000000
00010000
00000000
00001000
00010000
00001000
00000000
00000100
00000010
00000200
00000000
00000301
00001000
,
00000001
00000000
00000010
00000000
00000010
00000000
00000100
00010000
00001000
00000000
01000000
00010000
00000000
00010000
10000000
00010000
,
00100000
00000000
00100000
00000000
00100000
00000000
10000000
00100000
01000000
00000000
00100000
00010000
00000000
00010000
00100000
00001000
,
00010000
00000000
00000000
00000000
00000000
00000000
00000000
00000000
00000000
00000000
00000000
00000000
00000000
00000000
00000000
00000000
00000000
00000000
00000000
00000000
00000000
00000000
00000000
00000000
00000010
00000000
00000000
00000000
00000000
00000000
00000000
00000000
00000000
00000000
00000000
00000000
00000000
00000000
00000000
00000000
00000000
00000000
00000000
00000000
00000000
00000000
00000000
00000000
00000010
00000000
00000000
00000000
00000000
00000000
00000000
00000000
00000000
00000000
00000000
00000000
00000000
00000000
00000000
00000000
00000000
00000000
00000000
00000000
00000000
00000000
00000000
00000000
00000100
00000000
00000000
00000000
00000000
00000000
00000000
00000000
00000000
00000000
00000000
00000000
00000000
00000000
00000000
00000000
00000000
00000000
00000000
00000000
00000000
00000000
00000000
00000000
00000001
00000000
00000000
00000000
00000000
00000000
00000000
00000000
00000000
00000000
00000000
00000000
00000010
00000000
00000000
00000000
00000000
00000000
00000000
00000000
00000000
00000000
00000000
00000000
00000100
00000000
00000000
00000000
00000000
00000000
00000000
00000000
00001000
00000000
00000000
00000000
00000000
00000000
00000000
00000000
00000001
00000000
00000000
00000000
00000000
00000000
00000000
00000000
00002000
00000000
00000000
00003000
00000000
00000000
00000000
00000000
00000000
00000000
00000000
00000000
00000000
00000000
00000000
00000000
00000000
00000000
00000000
00000000
00000000
00000000
00000000
00000000
00000000
00000000
00000000
00000000
00000000
00000000
00000000
00000000
00000000
00000000
00000000
00000000
00000000
00000000
00000000
00000000
00000000
00000000
00000000
00000000
00000000
00000000
00000000
00000000
,
00000001
00000010
00000001
00000000
00000010
00000000
00001000
00000010
00001000
00000000
00000010
00000001
00000000
00000001
00001000
00000000
,
00010000
00000000
00100000
00000000
10000000
00100000
10000000
00000000
00100000
00000000
00010000
10000000
00000000
10000000
00100000
00010000
,
00100000
00000000
00010000
00000000
00010000
00001000
00010000
00000000
00001000
00000000
00000010
00000001
00000000
00000001
00001000
00000000
,
00000001
00000000
00000000
00000010
00000000
00000000
00000001
00000000
00000000
00000010
00000000
00000000
00001000
00000000
00000000
00000000
00000000
00000000
00010000
00000000
00000000
00001000
00000000
00000000
00010000
00000000
00000000
00001000
00000000
00000000
00010000
00000000
00000000
00000000
00000000
00000000
00001000
00000000
00100000
00000000
00010000
00000000
10000000
00000000
00000000
00010000
00000000
00000000
,
10000000
00000000
01000000
00100000
00000000
00100000
01000000
00010000
02000000
00100000
00000000
13000000
00010000
01000000
00001000
00010000
,
00001000
00000000
00000100
00000010
00000000
00000100
00000001
00000000
00001000
00000100
00000000
00000100
00000020
00000100
00000000
00000031
,
00001000
00000010
00001000
00000010
00001000
00000000
00000001
00000010
00000001
00000010
00000001
00000000
00000010
00001000
00010000
00001000
,
00010000
00000000
00000000
00100000
00000000
00000000
00000000
00000000
00000000
00100000
00000000
00000000
10000000
00000000
00000000
00000000
00000000
00000000
00010000
00000000
00000000
00100000
00000000
00000000
00000000
00000000
00000000
00100000
00000000
00000000
00001000
00000000
00000000
00000000
00000000
00000000
00010000
00000000
00001000
00000000
00010000
00000000
00000010
00000000
00000000
00001000
00000000
00000000
,
00000002
00000000
00000100
00000000
00001003
00000100
00010000
00001000
00000000
00000000
00000000
00000000
00010000
00100000
10000000
01000000
,
00010000
00000000
00000000
00001000
00000000
00000000
00000010
00000000
00000000
00000000
00000001
00000000
00000000
00000000
00001000
00000000
00000000
00000000
00000000
00000000
00000000
00000000
00000000
00000000
00000000
00000000
00000000
00000000
00000000
00000000
00000000
00000000
;
