#VERSION:0.83;
#TITLE:Wicked Plastik;
#SUBTITLE:;
#ARTIST:nc ft. Electric Touch;
#TITLETRANSLIT:;
#SUBTITLETRANSLIT:;
#ARTISTTRANSLIT:;
#GENRE:;
#ORIGIN:DanceDanceRevolution(2010) / hottest party4;
#TAGS:;
#CREDIT:;
#BANNER:Wicked Plastik.png;
#BACKGROUND:Wicked Plastik-bg.png;
#PREVIEWVID:;
#JACKET:Wicked Plastik-jacket.png;
#CDIMAGE:;
#DISCIMAGE:;
#LYRICSPATH:;
#CDTITLE:;
#MUSIC:Wicked Plastik.ogg;
#OFFSET:0.000000;
#SAMPLESTART:71.180000;
#SAMPLELENGTH:26.482758;
#SELECTABLE:YES;
#BPMS:0.000000=145.000000
;
#STOPS:;
#DELAYS:;
#WARPS:;
#TIMESIGNATURES:0.000000=4=4
;
#TICKCOUNTS:0.000000=4
;
#COMBOS:0.000000=1
;
#SPEEDS:0.000000=1.000000=0.000000=0
;
#SCROLLS:0.000000=1.000000
,109.000000=0.984000
,110.000000=0.969000
,111.000000=0.953000
,112.000000=0.938000
,113.000000=0.922000
,114.000000=0.906000
,115.000000=0.891000
,116.000000=0.875000
,117.000000=0.859000
,118.000000=0.844000
,119.000000=0.828000
,120.000000=0.813000
,121.000000=0.797000
,122.000000=0.781000
,123.000000=0.766000
,124.000000=0.750000
,125.000000=0.734000
,126.000000=0.719000
,127.000000=0.703000
,128.000000=0.688000
,129.000000=0.672000
,130.000000=0.656000
,131.000000=0.641000
,132.000000=0.625000
,133.000000=0.609000
,134.000000=0.594000
,135.000000=0.578000
,136.000000=0.563000
,137.000000=0.547000
,138.000000=0.531000
,139.000000=0.516000
,140.000000=0.500000
,141.000000=0.531000
,142.000000=0.563000
,143.000000=0.594000
,144.000000=0.625000
,145.000000=0.656000
,146.000000=0.688000
,147.000000=0.719000
,148.000000=0.750000
,149.000000=0.781000
,150.000000=0.813000
,151.000000=0.844000
,152.000000=0.875000
,153.000000=0.906000
,154.000000=0.938000
,155.000000=0.969000
,156.000000=1.000000
,168.000000=0.500000
,171.000000=0.625000
,171.250000=0.750000
,171.500000=0.875000
,171.750000=1.000000
,200.250000=-1.000000
,200.312500=-0.750000
,200.375000=-0.500000
,200.437500=-0.250000
,200.500000=0.000000
,200.562500=0.250000
,200.625000=0.500000
,200.687500=0.250000
,200.750000=1.000000
,201.000000=0.000000
,201.125000=1.000000
,201.250000=0.000000
,201.375000=1.000000
,201.500000=0.000000
,201.625000=1.000000
,201.750000=0.000000
,201.875000=0.700000
,203.000000=1.000000
,231.750000=0.000000
,232.125000=1.000000
,232.500000=0.000000
,232.875000=1.000000
,233.250000=0.000000
,233.625000=1.000000
,234.000000=0.000000
,234.375000=1.000000
,251.000000=0.500000
,252.000000=1.000000
;
#FAKES:;
#LABELS:0.000000=Song Start
;
#BGCHANGES:;
#KEYSOUNDS:;
#ATTACKS:
;

//---------------dance-single - ----------------
#NOTEDATA:;
#CHARTNAME:;
#CHARTHASH:2929944394;
#STEPSTYPE:dance-single;
#BANNER:;
#DESCRIPTION:;
#CHARTSTYLE:;
#DIFFICULTY:Beginner;
#METER:3;
#METERF:3.000000;
#LASTSECONDHINT:110.896545;
#RADARVALUES:0.145051,0.281111,0.176219,0.008391,0.000000,121.000000,100.000000,21.000000,1.000000,0.000000,0.000000,0.000000,0.000000,0.000000,0.145051,0.281111,0.176219,0.008391,0.000000,121.000000,100.000000,21.000000,1.000000,0.000000,0.000000,0.000000,0.000000,0.000000;
#CREDIT:-YOSEFU-;
#NOTES:
// measure 0
0000
0000
0000
0000
,  // measure 1
0000
0000
0000
0000
,  // measure 2
0000
0000
0000
0000
,  // measure 3
1000
0000
0000
0000
,  // measure 4
0100
0000
0000
0000
,  // measure 5
0010
0000
0000
0000
,  // measure 6
0001
0000
0001
0000
,  // measure 7
0001
0000
0000
0000
,  // measure 8
0100
0000
0000
0000
,  // measure 9
0010
0000
0000
0000
,  // measure 10
1000
0000
0000
0000
,  // measure 11
1001
0000
0000
0000
,  // measure 12
0001
0000
0001
0000
,  // measure 13
0001
0000
0000
0000
,  // measure 14
0100
0000
0100
0000
,  // measure 15
0100
0000
0000
0000
,  // measure 16
0010
0000
0010
0000
,  // measure 17
0010
0000
0000
0000
,  // measure 18
1000
0000
1000
0000
,  // measure 19
1001
0000
0000
0000
,  // measure 20
0001
0000
0001
0000
,  // measure 21
0001
0000
0000
0000
,  // measure 22
0010
0000
0010
0000
,  // measure 23
0010
0000
0000
0000
,  // measure 24
0100
0000
0100
0000
,  // measure 25
0100
0000
0000
0000
,  // measure 26
1000
0000
1000
0000
,  // measure 27
1001
0000
0000
0000
,  // measure 28
0001
0000
0000
0000
,  // measure 29
0100
0000
0000
0000
,  // measure 30
0010
0000
0000
0000
,  // measure 31
1000
0000
0000
0000
,  // measure 32
0100
0000
0000
0000
,  // measure 33
0010
0000
0000
0000
,  // measure 34
0001
0000
0000
0000
,  // measure 35
1001
0000
0000
0000
,  // measure 36
0110
0000
0000
0000
,  // measure 37
1001
0000
0000
0000
,  // measure 38
0110
0000
0000
0000
,  // measure 39
1001
0000
1001
0000
,  // measure 40
0110
0000
0110
0000
,  // measure 41
1001
0000
0110
0000
,  // measure 42
1001
0000
0000
0000
,  // measure 43
1001
0000
1000
0000
,  // measure 44
1000
0000
0010
0000
,  // measure 45
0010
0000
0100
0000
,  // measure 46
0100
0000
0001
0000
,  // measure 47
1001
0000
1000
0000
,  // measure 48
1000
0000
0010
0000
,  // measure 49
0010
0000
0100
0000
,  // measure 50
0200
0300
0000
0000
,  // measure 51
1001
0000
0001
0000
,  // measure 52
0010
0000
0100
0000
,  // measure 53
1000
0000
0010
0000
,  // measure 54
0100
0000
0001
0000
,  // measure 55
1001
0000
1000
0000
,  // measure 56
0100
0000
0010
0000
,  // measure 57
0001
0000
0100
0000
,  // measure 58
0000
0000
0110
0000
,  // measure 59
1001
0000
1000
0000
,  // measure 60
0100
0000
0001
0000
,  // measure 61
0100
0000
0010
0000
,  // measure 62
0001
0000
1000
0010
,  // measure 63
0110
0000
0100
0000
,  // measure 64
0001
0000
1000
0000
,  // measure 65
0100
0000
0001
0000
,  // measure 66
0100
0000
0010
0000
,  // measure 67
0001
0000
0000
0000
;

//---------------dance-single - ----------------
#NOTEDATA:;
#CHARTNAME:;
#CHARTHASH:1861978800;
#STEPSTYPE:dance-single;
#BANNER:;
#DESCRIPTION:;
#CHARTSTYLE:;
#DIFFICULTY:Easy;
#METER:6;
#METERF:6.000000;
#LASTSECONDHINT:113.793098;
#RADARVALUES:0.261331,0.346144,0.243350,0.176219,0.000000,218.000000,189.000000,29.000000,21.000000,0.000000,0.000000,0.000000,0.000000,0.000000,0.261331,0.346144,0.243350,0.176219,0.000000,218.000000,189.000000,29.000000,21.000000,0.000000,0.000000,0.000000,0.000000,0.000000;
#CREDIT:-YOSEFU-;
#NOTES:
0000
0000
0000
0000
,
0000
0000
0000
0000
,
0000
0000
0000
0000
,
1000
0010
1000
0000
,
0001
0010
0001
0000
,
1000
0100
1000
0000
,
0001
0100
0001
0100
,
0001
1000
0001
0000
,
0100
0010
0100
0000
,
0001
1000
0001
0000
,
0010
0000
0000
0000
,
0001
0101
0000
0100
,
0010
1010
0000
1000
,
0100
0110
0000
0010
,
0001
1001
1000
0010
,
0100
0101
0000
0001
,
1000
1100
0000
0100
,
0010
0011
0000
0001
,
1000
1010
0010
0200
,
0301
0101
0000
1000
,
0100
1100
0000
0001
,
0010
0011
0000
1000
,
0010
1010
1000
1001
,
0001
0011
0000
0010
,
0100
1100
0000
0001
,
0100
0101
0000
0001
,
1000
1100
0100
0020
,
0032
0000
0000
0000
,
2003
0000
0000
0000
,
3020
0000
0000
0000
,
0230
0000
0000
0000
,
0302
0000
0000
0000
,
0023
0000
0000
0000
,
0230
0000
0000
0000
,
2300
0000
0000
0000
,
3002
0000
0000
0000
,
0203
0000
0000
0000
,
0320
0000
0000
0000
,
2030
0000
0000
3000
,
1001
0000
0011
0000
,
1100
0000
1010
0000
,
0101
1001
1100
0110
,
0000
0000
0000
0002
,
1003
0010
0100
0001
,
1000
0100
0010
0001
,
1000
0010
0100
0010
,
1000
0001
0010
0100
,
1100
1000
0001
0100
,
0010
0100
0001
1000
,
0100
0010
0001
0100
,
0020
0030
0000
1000
,
1001
0001
0010
0100
,
1000
0010
0001
0010
,
1000
0100
0010
1000
,
0010
0001
1000
0010
,
0110
0100
0001
0010
,
0100
0001
0100
1000
,
0001
0100
0010
2000
,
0000
0000
3010
0200
,
0301
1000
0100
0001
,
0100
1000
0010
0100
,
1000
0100
0001
1000
,
0100
0010
0001
0200
,
0310
1000
0100
0001
,
0100
0010
0001
0100
,
1000
0100
0001
0010
,
0100
1000
0010
0100
,
2002
0000
0000
0000
,
0000
0000
0000
3003
;

//---------------dance-single - ----------------
#NOTEDATA:;
#CHARTNAME:;
#CHARTHASH:3268584614;
#STEPSTYPE:dance-single;
#BANNER:;
#DESCRIPTION:;
#CHARTSTYLE:;
#DIFFICULTY:Medium;
#METER:10;
#METERF:10.000000;
#LASTSECONDHINT:114.206894;
#RADARVALUES:0.415972,0.521104,0.067131,0.134262,0.125871,347.000000,339.000000,8.000000,16.000000,0.000000,0.000000,0.000000,0.000000,0.000000,0.415972,0.521104,0.067131,0.134262,0.125871,347.000000,339.000000,8.000000,16.000000,0.000000,0.000000,0.000000,0.000000,0.000000;
#CREDIT:-YOSEFU-;
#NOTES:
0000
0000
0000
0000
,
0000
0000
0000
0000
,
0000
0000
0000
0000
,
1000
0000
0010
0000
0100
0000
0001
1000
,
0001
0000
0010
0000
0100
0000
1000
0001
,
1000
0000
0001
0000
0100
0000
0010
1000
,
0010
0000
0100
0001
0100
0000
0001
1000
,
0001
0000
0010
0000
0100
0000
1000
0001
,
1000
0000
0001
0000
0100
0000
0010
1000
,
0010
0000
0100
0000
0001
0000
1000
0100
,
1000
0000
0000
0000
0000
0000
0000
0010
0000
0000
0100
0000
0000
0000
0001
0000
,
1000
0000
0100
0000
0010
0000
0100
1000
,
0001
0000
0100
0010
1000
0000
0001
0000
,
0010
0100
1000
0000
0100
0000
0010
0001
,
1000
0000
0010
0100
0001
0000
1000
0100
,
0010
0000
0100
0000
1000
0000
0001
0100
,
0010
0000
0100
0001
1000
0000
0100
0000
,
0010
0100
1000
0000
0001
0000
0100
0010
,
1000
0000
0001
0000
1000
0000
0100
1000
,
0001
0000
0100
0000
0010
0000
1000
0001
,
0000
0001
0000
0000
0010
0000
0000
0000
0100
0000
0000
0000
1000
0000
0001
0000
,
0100
0001
0100
0000
0010
0000
1000
0001
,
0000
0001
0000
0000
0010
0000
0000
0000
0100
0000
0000
0000
1000
0000
0001
0000
,
0100
0000
0010
0000
1000
0000
0001
0010
,
0000
0010
0000
0000
0100
0000
0000
0000
1000
0000
0000
0000
0001
0000
0100
0000
,
0010
0100
0010
0000
1000
0000
0001
0100
,
0000
0100
0000
0000
0010
0000
0000
0000
1000
0000
0000
0000
0100
0000
0010
0000
,
0002
0100
0000
0100
,
2003
0100
0000
0100
,
3002
0010
0000
0010
,
2003
0010
0000
0010
,
3002
0010
0000
0100
,
2003
0010
0000
0100
,
3002
0100
0000
0010
,
2003
0100
0000
0010
,
3002
0100
0000
1000
,
0203
0010
0000
0001
,
0320
1000
0000
0100
,
2030
0100
0000
0001
,
3010
1000
1010
0001
,
0011
1000
1100
0001
,
1000
0010
1000
0000
1000
0010
1000
0000
,
0001
0000
0000
0000
0000
0000
0100
0010
,
1000
0000
0001
0000
0010
0000
0000
0100
0000
0000
0010
0000
0001
0000
0000
0100
,
0000
0000
0010
0000
1000
0000
0010
0000
0100
0000
0010
0000
1000
0000
0000
0001
,
0000
0000
0010
0000
0100
0000
1000
0000
0010
0000
0100
0000
0001
0000
0000
1000
,
0000
0100
0010
0001
0100
0010
1000
0001
,
0010
0000
0100
0000
1000
0000
0000
0010
0000
0000
0100
0000
0001
0000
0000
0010
,
0000
0000
0100
0000
0010
0000
0001
0000
0100
0000
0010
0000
1000
0000
0000
0001
,
0000
0000
1000
0000
0100
0000
0010
0000
0001
0000
0100
0000
0010
0000
0000
2000
,
0000
0000
3000
0000
0000
0000
0001
0010
,
0100
0000
1000
0000
0001
0000
0000
0100
0000
0000
0010
0000
1000
0000
0000
0100
,
0000
0000
0010
0000
1000
0000
0010
0000
0100
0000
1000
0000
0001
0000
0000
0100
,
0000
0000
0010
0000
0001
0000
0010
0000
0100
0000
0001
0000
1000
0000
0000
0100
,
0000
0010
0001
0100
0010
1000
0001
0010
,
0100
0000
1000
0000
0001
0000
0000
0100
0000
0000
0010
0000
1000
0000
0000
0100
,
0000
0000
0010
0000
1000
0000
0010
0000
0100
0000
1000
0000
0001
0000
0000
0100
,
0000
0000
0010
0000
0001
0000
0010
0000
0100
0000
0001
0000
1000
0000
0000
1100
,
0000
0000
1001
0000
0000
1100
0000
0000
1001
0000
0000
0000
0001
0000
0100
0000
,
0010
0000
1000
0000
0100
0000
0000
0010
0000
0000
0001
0000
0100
0000
0000
0010
,
0000
0000
1000
0000
0010
0000
0100
0000
1000
0000
0100
0000
0010
0000
0000
1000
,
0000
0000
0001
0000
0010
0000
0100
0000
0001
0000
0100
0000
1000
0000
0000
0001
,
0000
0100
0010
1000
0100
0010
0002
0000
,
1003
0000
0010
0000
0100
0000
0000
0001
0000
0000
0010
0000
0100
0000
0000
1000
,
0000
0000
0001
0000
0010
0000
1000
0000
0010
0000
0100
0000
1000
0000
0000
0001
,
0000
0000
0100
0000
1000
0000
0100
0000
0001
0000
0010
0000
0100
0000
0000
1000
,
0000
0010
0100
1000
0100
0001
0010
0100
,
2200
0000
0000
0000
,
0000
0000
0000
0000
,
3300
0000
0000
0000
;

//---------------dance-single - ----------------
#NOTEDATA:;
#CHARTNAME:;
#CHARTHASH:3230064979;
#STEPSTYPE:dance-single;
#BANNER:;
#DESCRIPTION:;
#CHARTSTYLE:;
#DIFFICULTY:Hard;
#METER:13;
#METERF:0.000000;
#LASTSECONDHINT:114.206894;
#RADARVALUES:0.581402,0.665856,0.142653,0.100696,0.490895,485.000000,468.000000,17.000000,12.000000,0.000000,0.000000,0.000000,0.000000,0.000000,0.581402,0.665856,0.142653,0.100696,0.490895,485.000000,468.000000,17.000000,12.000000,0.000000,0.000000,0.000000,0.000000,0.000000;
#CREDIT:Highflyer;
#NOTES:
0000
0000
0000
0000
,
0000
0000
0000
0000
,
0000
0000
0000
0000
,
1000
0000
0010
0000
0100
0000
0000
0001
0000
0000
0010
0000
0100
0000
0000
0010
,
0000
0000
0001
0000
1000
0000
0000
0010
0000
0000
0100
0000
0000
0010
0000
1000
,
0000
0000
0001
0000
0010
0000
0000
0100
0000
0000
0010
0000
0000
0001
0000
1000
,
0000
0000
0010
0000
0000
0100
0000
0010
0000
0000
1000
0000
0000
0100
0000
0010
,
0000
0000
0100
0000
1000
0000
0000
0001
0000
0000
0100
0000
0000
0010
0000
1000
,
0000
0000
0001
0000
0010
0000
0000
0100
0000
0000
0010
0000
0000
0100
0000
1000
,
0000
0000
0001
0000
0100
0000
0000
0010
0000
0000
1000
0000
0000
0001
0000
0010
,
0000
0000
0100
1000
0000
0000
0001
0100
0000
0000
0010
1000
0000
0000
0001
1000
,
0001
0010
0011
0000
0001
0100
0101
0000
,
0010
1000
1010
0002
0013
0100
1100
0000
,
0100
0010
0110
0000
0001
1000
1001
0000
,
1000
0000
0010
0000
1010
0000
1000
0000
0100
0000
0010
0000
0001
0000
1000
0010
,
1000
0001
1100
0000
0010
0001
1010
0000
,
0001
1000
0101
0002
1003
0100
0110
0000
,
0100
1000
1010
0000
0100
0001
0011
0000
,
0010
0100
1000
0001
0100
0010
1000
1000
,
0001
0000
0010
0000
0001
0000
0000
1000
0000
0000
0010
0000
0100
0000
0000
0001
,
0000
0000
0010
0000
0100
0000
1000
0000
0001
0000
0100
0000
1000
0000
0000
0100
,
0000
0000
0001
0000
1000
0000
0010
0000
1000
0000
0100
0000
0001
0000
0000
0100
,
0000
0000
0010
0000
0001
0000
1000
0000
0001
0000
0100
0000
0010
0000
0000
1000
,
0000
0000
0010
0000
0001
0000
0000
0010
0000
0000
1000
0000
0100
0000
0000
0001
,
0000
0000
0100
0000
0010
0000
0100
0000
1000
0000
0001
0000
0100
0000
0000
0010
,
0000
0000
0100
0000
0001
0000
1000
0000
0100
0000
0001
0000
0100
0000
0000
1000
,
0000
0000
0010
0000
0100
0000
0000
0000
0010
0000
0000
0000
1000
0001
1000
0001
,
1000
0100
0100
0100
,
0010
0001
0001
0001
,
1000
0010
0010
0010
,
0100
0001
0001
0001
,
1000
0100
1000
0000
0001
0100
0001
0000
,
1000
0100
1000
0010
0100
0001
1000
0100
,
0010
0001
0010
0000
0100
1000
0100
0000
,
1000
0001
1000
0010
0100
0001
1000
0100
,
0020
0100
0001
0100
,
0032
0100
1000
0100
,
2003
0001
0100
0001
,
3200
0010
1000
0010
,
1300
0010
1000
0000
1000
0010
1000
0000
,
0001
0010
0001
0000
0001
0010
0001
0000
,
1000
0000
0010
1000
0000
0000
0001
0010
0000
0000
0001
0100
0000
0000
0010
1000
,
0000
0000
0000
0000
0000
0000
0000
0000
0000
0000
0000
0000
0100
0010
0100
0010
,
0001
0000
1000
0000
0010
0000
0100
0010
0000
0100
0010
0000
1000
0000
0001
0010
,
0000
0001
0010
0000
0100
0000
1000
0000
0001
0000
0100
0000
1000
0000
0100
0010
,
0000
0010
0100
0000
0001
0000
0010
0000
1000
0000
0010
0000
0001
1000
0000
0001
,
0000
0100
0010
0000
1000
0000
0100
0000
1000
0000
0100
0000
0010
0001
0000
1000
,
0010
0000
0100
0000
0001
0000
1000
0100
0000
1000
0100
0000
0010
0000
0001
0100
,
0000
0001
0100
0000
0010
0000
1000
0000
0001
0000
0010
0000
1000
0000
0010
0001
,
0000
0001
0010
0000
0100
0000
1000
0000
0010
0000
0100
0000
0001
1000
0000
0020
,
0200
0000
0000
0000
0330
0000
0000
0000
0000
0000
0000
0010
1000
0001
1000
0001
,
1000
0000
0100
0000
0010
0000
0100
1000
0000
0001
1000
0000
0010
0000
0100
0001
,
0000
0100
0010
0000
1000
0000
0001
0000
0010
0000
1000
0000
0010
0100
0000
0010
,
0000
0001
1000
0000
0010
0000
0100
0000
1000
0000
0100
0000
0001
1000
0000
0100
,
0000
0010
0001
0000
1000
0000
0010
0000
0100
0000
0001
0000
1000
0100
0000
0010
,
0000
0001
0100
0000
0010
0000
0100
0010
0000
1000
0001
0000
0010
0000
0100
0010
,
0000
0100
1000
0000
0010
0000
0100
0000
0001
0000
1000
0000
0100
0010
0000
0100
,
0000
1000
0001
0000
0100
0000
0010
0000
0001
0000
0010
0000
1000
0001
0000
0011
,
0000
0000
1010
0000
0000
0011
0000
0000
1020
0000
0000
0000
0130
0001
1000
0100
,
0010
0000
0001
0000
1000
0000
0010
0100
0000
0010
2000
0000
3100
0000
0010
0100
,
0000
0100
1000
0000
0001
0100
0001
0000
1000
0000
0100
0000
0001
0100
0000
0010
,
0000
0001
1000
0000
0010
0000
0100
0000
1000
0000
0100
0000
0001
1000
0000
0100
,
0000
0010
0001
0000
1000
0000
0010
0000
0001
0000
0010
0000
0200
0000
0000
0000
,
0310
1000
0010
0000
0100
0000
0001
1000
0000
0001
1000
0100
1000
0000
0100
0010
,
0000
0001
0100
0000
0010
1000
0010
1000
0010
0000
0100
0000
0001
1000
0000
0001
,
0000
0010
0100
0000
0010
0000
0001
0000
0100
0000
0010
0000
1000
0001
0000
0010
,
0000
0100
1000
0000
0010
0000
1000
0000
0100
0000
0001
0000
0100
1000
0001
0100
,
0020
0000
0000
0000
,
0000
0000
0000
0000
,
0030
0000
0000
0000
;

//---------------dance-single - ----------------
#NOTEDATA:;
#CHARTNAME:;
#CHARTHASH:1520220568;
#STEPSTYPE:dance-single;
#BANNER:;
#DESCRIPTION:;
#CHARTSTYLE:;
#DIFFICULTY:Challenge;
#METER:15;
#METERF:0.000000;
#LASTSECONDHINT:113.793098;
#RADARVALUES:0.750429,0.807670,0.025174,0.058740,0.868507,626.000000,623.000000,3.000000,7.000000,0.000000,0.000000,0.000000,0.000000,0.000000,0.750429,0.807670,0.025174,0.058740,0.868507,626.000000,623.000000,3.000000,7.000000,0.000000,0.000000,0.000000,0.000000,0.000000;
#CREDIT:-YOSEFU- & Highflyer;
#NOTES:
0000
0000
0000
0000
,
0000
0000
0000
0000
,
0000
0000
0000
0000
,
0001
0100
0001
0000
1000
0000
0100
0010
0000
0100
0010
0000
0001
0000
1000
0001
,
1000
0000
0010
0000
1000
0000
0001
0100
0000
0001
0100
0000
0001
0100
0000
0010
,
1000
0001
1000
0000
0001
0000
0010
0100
0000
0010
0100
0000
1000
0000
0001
1000
,
0001
0000
0010
0000
0100
0000
1000
0001
0000
0100
0001
0000
0100
0010
0000
0100
,
0001
1000
0001
0000
0010
0000
0100
1000
0000
0100
1000
0000
0001
0000
1000
0010
,
1000
0000
0001
0000
0100
0000
0010
1000
0000
0010
1000
0000
0010
1000
0000
0010
,
0100
0001
0100
0000
0001
0000
1000
0100
0000
1000
0100
0000
0010
0000
0001
1000
,
0001
0000
1000
0010
0000
0100
0001
1000
0000
0100
0010
0100
0000
0000
1000
0100
,
0010
0000
0001
0000
0100
0000
0010
1000
0010
0000
1000
0000
0100
0000
0010
0001
,
0010
0000
0100
0000
1000
0000
0001
0100
0010
0000
1000
0000
0001
0000
0010
0100
,
0010
0000
0001
1000
0010
0000
0100
0001
0100
0000
0010
0000
1000
0000
0001
0010
,
0001
0000
0000
0000
1000
0000
0000
0000
0100
0000
0000
0000
1000
0000
0001
0000
1000
0000
0001
0100
0001
0000
0000
0000
1000
0000
0000
0000
0100
0000
0010
0000
,
0001
0000
1000
0000
0001
0000
1000
0010
1000
0000
0001
0000
0010
0000
0100
1000
,
0100
0000
0010
0000
0001
0000
1000
0010
0100
0000
0001
0000
1000
0000
0100
0010
,
0100
0000
1000
0001
0100
0000
0001
1000
0001
0000
0010
0000
0100
0000
1000
0001
,
1000
0000
0000
0000
0100
0000
0000
0000
0010
0000
0000
0000
0001
0000
0010
0000
0001
0000
1000
0010
1000
0000
0000
0000
0001
0000
0000
0000
0001
0000
0000
0000
,
1000
0000
0100
0000
0010
0000
0001
0100
0000
0001
0100
0000
0010
0000
1000
0001
,
0000
1000
0001
0000
0010
0000
0100
0000
1000
0000
0010
0000
0100
0001
0000
1000
,
0100
0000
0010
0001
1000
0000
0010
0000
0100
0000
0001
0000
1000
0000
0100
0010
,
0000
0100
0010
0000
0001
0000
0100
0010
1000
0000
0001
0000
1000
0000
0001
0010
,
0100
0000
1000
0000
0001
0000
0100
0010
0000
0100
0010
0000
1000
0000
0001
0010
,
0000
0001
0010
0000
0100
0000
1000
0000
0010
0000
0100
0000
0010
1000
0000
0001
,
0010
0000
0100
1000
0001
0000
0100
0000
0010
0000
1000
0000
0001
0000
1000
0100
,
0000
1000
0100
0000
0010
0000
0001
0000
1000
0000
0010
0000
1000
0100
1000
0100
,
0010
0000
0000
0000
0001
0000
0000
0000
1000
0000
0000
0000
0010
0000
1000
0001
,
0000
1000
0001
0000
0010
0000
0000
0000
0100
0000
0000
0000
1000
0000
0000
0000
,
0001
0000
0000
0000
0100
0000
0000
0000
0010
0000
0000
0000
1000
0000
0010
0100
,
0000
0010
0100
0000
0001
0000
0000
0000
1000
0000
0000
0000
0100
0000
0000
0000
,
0010
0000
0000
0000
0001
0000
0000
0000
0100
0000
0000
0000
0010
0000
1000
0001
,
0000
1000
0001
0000
0100
0000
0000
0000
0010
0000
0000
0000
1000
0000
0000
0000
,
0001
0000
0000
0000
0010
0000
0000
0000
0100
0000
0000
0000
1000
0000
0001
0100
,
0000
0100
0001
0000
1000
0100
0000
0100
1000
0000
0010
0000
0100
0010
0100
0010
,
0200
0010
0001
0010
,
0302
0010
1000
0010
,
2003
0001
0100
0001
,
3200
0010
1000
0010
,
1300
0000
0001
0000
0100
0000
0010
1000
0100
0000
1000
0000
0001
0000
0100
0001
,
0010
0000
0100
0000
1000
0000
0100
1000
0010
0000
1000
0000
0001
0000
0010
0001
,
0100
0010
1000
0010
0100
0001
0010
0001
1000
0100
0010
0100
1000
0010
0100
0010
,
1000
0000
0001
0000
1000
0000
0001
0000
0100
0000
0010
0000
1000
0100
1000
0100
,
0010
0000
0001
0000
0100
0000
0010
1000
0000
0010
0100
0001
1000
0100
0010
0001
,
0000
1000
0001
0000
0100
0010
0100
0001
1000
0000
0100
0000
1000
0010
0000
0001
,
0000
0010
1000
0000
0001
0000
0100
0000
1000
0000
0100
0000
0001
1000
0000
0100
,
0000
0010
0100
0000
0010
0000
0001
0000
0100
0000
0010
0000
1000
0001
0010
0001
,
0000
0010
0100
0000
0001
0000
0100
1000
0000
0010
0100
0001
0100
0001
1000
0100
,
0000
0010
1000
0000
0010
0100
1000
0001
0100
0000
0010
0000
0100
1000
0000
0100
,
0000
0010
1000
0000
0001
0000
0010
0000
0100
0000
0001
0000
0100
1000
0000
0020
,
0200
0000
0000
0000
0330
0000
0000
0000
0000
0000
0000
0100
0001
1000
0001
1000
,
0100
0000
1000
0000
0010
0000
0100
1000
0000
0100
0010
1000
0001
0010
0100
0001
,
0000
0100
0010
0000
0001
1000
0010
0100
0001
0000
0010
0000
0100
1000
0001
0100
,
0000
0001
0100
0000
1000
0000
0100
0000
0001
0000
0100
0000
0010
1000
0001
0010
,
0000
0100
1000
0000
0001
0000
0100
0000
0010
0000
1000
0000
0100
1000
0001
0010
,
0001
1000
0010
0000
0100
0000
0010
0001
0000
0010
0100
0001
1000
0100
0010
1000
,
0000
0010
0100
0000
1000
0001
0100
0010
1000
0000
0100
0000
0010
0001
1000
0010
,
0000
1000
0010
0000
0001
0000
0010
0000
1000
0000
0001
0000
1000
0010
0100
0001
,
0000
0000
0000
0000
0000
0000
0011
0000
0000
0000
0000
0000
0000
0000
0000
1010
0000
0000
0000
0000
0000
0000
0000
0000
0011
0000
0000
0000
0000
0000
0000
0000
0000
0000
0000
0000
1000
0000
0100
0000
1000
0000
0100
0000
1000
0000
0100
0000
,
1000
0000
0010
0000
0100
0000
0010
0001
0000
0010
0100
0001
0010
0100
0010
1000
,
0000
0010
0100
1000
0001
0100
0010
1000
0001
0000
0010
0000
0100
1000
0001
0100
,
0000
0001
0100
0000
1000
0000
0100
0000
0010
0000
1000
0000
0100
0010
0001
1000
,
0000
0010
0100
0000
0001
0000
1000
0000
0001
0000
0010
0000
0100
0000
0000
0000
,
0010
0001
0010
0001
1000
0000
0010
0100
0000
0010
1000
0001
1000
0100
0010
0001
,
0100
0010
1000
0000
0001
0010
0001
1000
0010
0000
0100
0000
0001
0010
0001
1000
,
0010
0100
0001
0000
0100
0000
1000
0000
0100
0010
1000
0000
0001
0010
0100
1000
,
0001
0000
0000
0100
0000
0000
0010
0000
0000
0000
0000
0000
0100
0000
0000
0000
0000
0000
1000
0000
0000
0000
0000
0000
0100
0000
0000
0000
0000
0000
0001
0000
0000
1000
0000
0000
0001
0000
0100
0000
0001
0000
0100
0000
0000
0010
0000
0000
,
2000
0000
0000
0000
,
0000
0000
0000
3000
;
