#VERSION:0.83;
#TITLE:What The Water Gave Me;
#SUBTITLE:;
#ARTIST:Florence + The Machine;
#TITLETRANSLIT:;
#SUBTITLETRANSLIT:;
#ARTISTTRANSLIT:;
#GENRE:;
#ORIGIN:;
#TAGS:;
#CREDIT:bpgbcg;
#BANNER:bn.png;
#BACKGROUND:bg.png;
#PREVIEWVID:;
#JACKET:jacket.jpg;
#CDIMAGE:;
#DISCIMAGE:;
#LYRICSPATH:;
#CDTITLE:;
#MUSIC:What the Water Gave Me.ogg;
#OFFSET:1.235000;
#SAMPLESTART:40.377998;
#SAMPLELENGTH:14.516000;
#SELECTABLE:YES;
#BPMS:0.000000=124.000000
;
#STOPS:;
#DELAYS:;
#WARPS:;
#TIMESIGNATURES:0.000000=4=4
;
#TICKCOUNTS:0.000000=4
;
#COMBOS:0.000000=1
;
#SPEEDS:0.000000=1.000000=0.000000=0
;
#SCROLLS:0.000000=1.000000
;
#LABELS:0.000000=Song Start
;
#BGCHANGES:;
#KEYSOUNDS:;
#ATTACKS:
;

//---------------dance-single - bpgbcg----------------
#NOTEDATA:;
#CHARTNAME:bpgbcg;
#CHARTHASH:2147483647;
#STEPSTYPE:dance-single;
#BANNER:;
#DESCRIPTION:bpgbcg;
#CHARTSTYLE:;
#DIFFICULTY:Medium;
#METER:10;
#METERF:0.000000;
#LASTSECONDHINT:134.006943;
#RADARVALUES:0.365224,0.514813,0.073676,0.257867,0.036838,347.000000,337.000000,10.000000,35.000000,33.000000,0.000000,0.000000,0.000000,0.000000,0.365224,0.514813,0.073676,0.257867,0.036838,347.000000,337.000000,10.000000,35.000000,33.000000,0.000000,0.000000,0.000000,0.000000;
#CREDIT:bpgbcg;
#NOTES:
// measure 0
0000
0000
0000
0000
,  // measure 1
0M00
0000
0000
0000
M000
0000
00M0
0000
0000
0000
0000
0000
,  // measure 2
0M00
0000
0000
0000
0000
0000
0000
0000
M000
0000
0000
0000
0M00
0000
0000
0000
0000
0000
0000
0000
0000
00M0
0000
0000
,  // measure 3
000M
0000
00M0
0000
,  // measure 4
0M00
0000
0000
0000
,  // measure 5
0002
0000
1003
0000
0020
0000
1030
0010
,  // measure 6
0200
0000
0001
0000
0000
0000
0310
1000
,  // measure 7
0002
0000
0013
0000
0200
0000
0310
0100
,  // measure 8
1000
2000
0010
0000
0000
0000
3001
0000
,  // measure 9
1000
0000
0000
0000
0100
0000
0000
0000
0010
0000
0000
0000
0010
0000
0000
0000
0000
0000
0001
0000
0000
0020
0000
0000
,  // measure 10
0000
0130
0000
0100
,  // measure 11
1000
0000
0000
0000
0010
0000
0000
0000
0100
0000
0000
0000
0100
0000
0000
0000
0000
0000
0010
0000
0000
0200
0000
0000
,  // measure 12
0000
0010
0000
0001
,  // measure 13
0000
0310
0100
0001
,  // measure 14
0200
0000
0000
0000
,  // measure 15
0320
0000
0000
0000
,  // measure 16
0230
0001
0001
0310
,  // measure 17
2000
0001
3002
0023
,  // measure 18
0230
0000
0010
0000
2300
0000
3001
0200
,  // measure 19
0000
0010
0301
0010
,  // measure 20
0200
0000
1300
0000
0002
0000
0013
0200
,  // measure 21
0000
0310
0001
1000
,  // measure 22
0100
0000
0100
0000
0100
0000
1000
0001
,  // measure 23
0000
0000
0001
0000
0001
0000
0001
0100
,  // measure 24
0010
0000
0010
0000
0010
0000
1000
0100
,  // measure 25
0000
0100
1000
0000
0001
0000
0100
0000
,  // measure 26
0020
1000
1000
0130
,  // measure 27
0002
0010
0010
1003
,  // measure 28
0001
1000
0001
1000
0001
1000
0001
1000
,  // measure 29
0010
0100
0010
1000
0100
0010
0001
1000
,  // measure 30
1001
1100
1100
1100
,  // measure 31
0011
0000
0011
0000
0110
1000
0001
0100
,  // measure 32
0010
0000
0010
0000
0010
0000
0010
1000
,  // measure 33
0001
0000
0001
1000
0100
0010
0100
1000
,  // measure 34
0010
0000
0010
0000
0010
0000
0010
0010
,  // measure 35
1000
0000
1000
0000
1000
0000
1000
1000
,  // measure 36
0001
0000
0001
0000
0001
0000
0001
0010
,  // measure 37
0100
0000
0100
0000
0100
0000
0100
0100
,  // measure 38
1000
0000
1000
0000
1000
0000
1000
0010
,  // measure 39
0100
0001
1000
0001
1000
0100
0010
0001
,  // measure 40
0100
0000
0100
0000
0010
0100
0010
1000
,  // measure 41
0000
1000
0001
1000
0100
0010
0100
0010
,  // measure 42
0001
0000
0001
0000
0010
0100
0010
0001
,  // measure 43
0000
0001
1000
0001
0100
0010
0100
0010
,  // measure 44
1000
0010
1000
0010
1000
0010
1000
0100
,  // measure 45
0010
0001
0010
0001
0010
0001
0010
0001
,  // measure 46
1000
1000
1000
1000
,  // measure 47
0010
0000
0100
0000
0010
0100
0001
0100
,  // measure 48
0010
0010
0010
0010
1000
1000
1000
1000
,  // measure 49
0001
0001
0001
0001
1001
1001
1001
1000
,  // measure 50
0200
0300
0100
0010
0100
0100
0010
0002
,  // measure 51
0003
0001
1000
0001
1000
0010
0100
0001
,  // measure 52
0200
0300
0100
0010
0100
0100
0010
2000
,  // measure 53
3000
1000
0001
1000
0001
0010
0100
1000
,  // measure 54
0010
1000
0001
1000
0010
1000
0001
1000
,  // measure 55
0100
0010
0100
1000
0100
0010
0100
1000
,  // measure 56
0002
0000
0010
1000
0000
0010
1003
0000
,  // measure 57
0020
0000
0100
1000
0000
0100
1030
0000
,  // measure 58
0001
0010
0100
1000
0001
0100
0010
1000
,  // measure 59
0010
2000
0100
0000
3100
0000
1000
0000
,  // measure 60
0001
0100
0010
1000
0001
0010
0100
1000
,  // measure 61
0200
0000
0010
2300
0000
3001
0100
0010
,  // measure 62
0100
0000
0100
0000
0100
0001
0010
0100
,  // measure 63
0000
1000
0100
1000
0001
0000
0001
1000
,  // measure 64
0010
0000
0010
0000
0010
1000
0100
0010
,  // measure 65
0000
0001
0010
0001
0100
0000
0100
0001
,  // measure 66
2000
0000
0M00
0000
00M0
0000
0000
0M00
0000
0000
000M
0000
00M0
0000
3200
0000
,  // measure 67
0000
0000
000M
0000
00M0
0000
0000
M000
0000
0000
00M0
0000
000M
0000
03M0
0000
,  // measure 68
2000
0000
000M
0000
00M0
0000
0000
0M00
0000
0000
00M0
0000
000M
0000
3M20
0000
,  // measure 69
0000
0000
000M
0000
0M00
0000
0000
M000
0000
0000
000M
0000
0M00
0000
M030
0000
;

//---------------dance-single - bpgbcg----------------
#NOTEDATA:;
#CHARTNAME:bpgbcg;
#CHARTHASH:1053226755;
#STEPSTYPE:dance-single;
#BANNER:;
#DESCRIPTION:bpgbcg;
#CHARTSTYLE:;
#DIFFICULTY:Hard;
#METER:13;
#METERF:0.000000;
#LASTSECONDHINT:134.006943;
#RADARVALUES:0.438900,0.669256,0.169455,0.346278,0.121566,417.000000,394.000000,23.000000,47.000000,39.000000,0.000000,0.000000,0.000000,0.000000,0.438900,0.669256,0.169455,0.346278,0.121566,417.000000,394.000000,23.000000,47.000000,39.000000,0.000000,0.000000,0.000000,0.000000;
#CREDIT:bpgbcg;
#NOTES:
0000
0000
0000
0000
,
0M00
0000
0000
0000
M000
0000
00M0
0000
0000
0000
0000
0000
,
0M00
0000
0000
0000
0000
0000
0000
0000
M000
0000
0000
0000
0M00
0000
0000
0000
0000
0000
0000
0000
0000
00M0
0000
0000
,
000M
0000
00M0
0000
,
0M00
0000
0000
0000
,
0002
0000
1003
0000
0020
0000
1030
0010
,
0200
0000
0001
0000
0000
0000
0310
1000
,
0002
0000
0013
0000
0200
0000
0310
0100
,
1000
2000
0010
0000
0000
0000
3001
0000
,
1000
0000
0000
0000
0100
0000
0000
0000
0010
0000
0000
0000
0010
0000
0000
0000
0000
0000
0100
0000
0000
0002
0000
0000
,
0000
0100
0000
0103
,
1000
0000
0000
0000
0010
0000
0000
0000
0100
0000
0000
0000
0100
0000
0000
0000
0000
0000
0010
0000
0000
0200
0000
0000
,
0000
0010
0000
1000
,
0000
0301
0010
0001
,
0200
0000
0000
0000
,
0320
0000
0000
0000
,
0230
0001
0001
0310
,
2000
0001
3002
0023
,
0230
0000
0010
0000
2300
0000
3001
0200
,
0000
0010
0301
0010
,
0200
0000
1000
0000
0302
0000
0103
2000
,
0000
3010
0001
0010
,
0100
0000
0100
0000
0100
0000
0001
1000
,
0000
0000
1000
0000
1000
0000
1000
0100
,
0010
0001
0010
0001
1000
0010
0100
1000
,
0100
0010
1000
0001
0100
0001
0100
0010
,
1000
0010
1000
0100
1000
0001
1000
0100
,
0010
0001
0010
0100
0010
1000
0010
0001
,
0100
0010
0100
1000
0100
0001
0010
0001
,
1000
0100
1000
0001
1000
0100
0010
0001
,
0101
0001
1001
0001
0011
0001
1001
0001
,
0011
0010
1010
0010
0110
0110
0001
1000
,
1010
1001
0011
1001
,
0110
0000
1001
0000
1000
0001
0100
0001
,
0010
0000
0010
0000
0010
0000
0010
0010
,
0001
0000
0001
0000
0001
0000
0001
0001
,
1000
0000
1000
0000
1000
0000
1000
0010
,
0100
0000
0100
0000
0100
0000
0100
0100
,
0001
0000
0001
0000
0001
0000
0001
0010
,
0100
1000
0001
0100
1000
0100
0010
1000
,
0200
0000
1000
0000
1300
0001
0010
0100
,
0000
0100
0100
1000
0001
0100
1000
0100
,
0002
0003
0001
0010
0100
0010
0001
2000
,
3000
1000
0010
0100
1000
0100
0001
1000
,
0100
0200
1000
1000
0010
0010
1000
1300
,
0010
0020
1000
1000
0100
0100
1000
1030
,
0001
0002
1000
1000
0010
0010
1000
1003
,
0001
0001
0100
0100
0010
0010
1000
1000
,
1010
0010
0110
0010
1010
1000
1001
1000
,
0011
0001
0101
0001
1001
1001
1001
1000
,
0100
0000
0000
0000
0100
0000
0010
0000
1000
0000
1000
0000
0010
0000
0001
1000
,
0010
0010
0100
0001
1000
0100
0001
0100
,
1000
0100
1000
0000
0010
0000
1000
0000
0010
0000
0100
0000
0010
0000
1000
0000
,
1000
1000
0001
0001
0020
0031
0200
0301
,
2000
0001
0010
0010
0001
0001
3100
0010
,
0002
1000
0100
0100
1000
1000
0013
0100
,
0020
0000
0100
0000
0031
0020
0000
0000
1000
0000
0000
0130
0020
0000
0000
0031
,
0020
0000
0030
0000
0001
0100
0010
0200
0000
0300
0001
1000
0200
0000
1300
0000
,
0001
0010
0100
0000
0M01
0010
0100
0000
0M01
1000
0010
0000
00M1
0100
0010
0000
,
0001
0020
1000
1030
0010
0100
0010
1000
,
0001
0100
0010
0000
00M1
0100
0010
0000
00M1
1000
0100
0000
0M01
0010
0100
0000
,
0020
0000
0031
0200
0000
0310
1000
0100
,
2000
0000
0000
0000
3001
0000
0000
0001
0010
0000
0010
0000
0001
0000
0200
0000
,
0300
0000
0100
0000
0010
0000
0100
0010
1000
0000
0100
0000
0001
0000
0100
0010
,
0002
0000
0000
0000
1003
0000
0000
1000
0010
0000
0010
0000
1000
0000
0200
0000
,
0300
0000
0100
0000
0010
0000
0100
0010
0001
0000
0100
0000
1000
0000
0100
0010
,
2000
0000
0M00
0000
00M0
0000
0000
0M00
0000
0000
000M
0000
00M0
0000
3200
0000
,
0000
0000
000M
0000
00M0
0000
0000
M000
0000
0000
00M0
0000
000M
0000
03M0
0000
,
2000
0000
000M
0000
00M0
0000
0000
0M00
0000
0000
00M0
0000
000M
0000
3M20
0000
,
0000
0000
000M
0000
0M00
0000
0000
M000
0000
0000
000M
0000
0M00
0000
M030
0000
;
