#TITLE:Wanna Be Your Special;
#ARTIST:Shoichiro Hirata feat. SUIMI;
#BANNER:Wanna Be Your Special.png;
#BACKGROUND:Wanna Be Your Special-bg.png;
#JACKET:Wanna Be Your Special-jacket.png;
#CDTITLE:./CDTITLES/NONE.PNG;
#MUSIC:Wanna Be Your Special.ogg;
#SAMPLESTART:53.211;
#SAMPLELENGTH:15;
#BPMS:0=137;

//---------------dance-single - t7r/P1989----------------
#NOTES:
     dance-single:
     t7r/P1989:
     Beginner:
     3:
     :
0000
0000
0000
0000
,
0000
0000
0000
0000
,
0000
0000
0000
0000
,
0000
0000
0000
0000
,
0000
0000
0000
0000
,
0001
0000
0000
0000
,
1000
0000
0000
0000
,
0100
0000
0000
0000
,
0020
0000
0000
0000
,
0000
0000
0000
0030
,
1000
0000
0000
0000
,
1000
0000
0000
0000
,
0001
0000
0000
0000
,
0001
0000
0000
0000
,
0100
0000
0000
0000
,
0100
0000
0000
0000
,
0010
0000
0000
0000
,
0010
0000
0000
0000
,
1001
0000
0000
0000
,
1000
0000
0000
0000
,
0100
0000
0000
0000
,
1000
0000
0000
0000
,
0001
0000
0000
0000
,
0100
0000
0000
0000
,
0010
0000
0000
0000
,
0200
0000
0300
0000
,
0010
0000
0000
0000
,
2000
0000
3000
0000
,
0001
0000
0000
0000
,
0020
0000
0030
0000
,
0001
0000
0000
0000
,
2000
0000
3000
0000
,
0001
0000
0100
0000
,
0002
0000
0003
0000
,
1000
0000
0100
0000
,
2000
0000
3000
0000
,
0010
0000
0100
0000
,
0010
0000
0220
0000
,
0330
0000
0001
0000
,
1000
0000
1000
0000
,
1000
0000
0000
0000
,
0100
0000
0100
0000
,
0100
0000
0000
0000
,
0010
0000
0010
0000
,
0010
0000
0000
0000
,
0001
0000
1000
0000
,
0001
0000
0000
0000
,
0000
1000
0000
0000
,
0000
0001
0000
0000
,
0000
0100
0000
0100
,
0000
0100
0000
0100
,
0000
0001
0000
0000
,
0000
1000
0000
0000
,
0000
0100
0000
0100
,
0000
0010
0000
0010
,
0010
0000
0010
0000
,
0001
0000
0001
0000
,
1000
0000
1000
0000
,
0010
0000
0010
0000
,
0100
0000
0000
0000
,
0001
0000
0000
0000
,
1000
0000
0000
0000
,
0100
0000
0000
0000
,
0110
0000
0000
0000
;

//---------------dance-single - t7r/P1989----------------
#NOTES:
     dance-single:
     t7r/P1989:
     Easy:
     5:
     :
0000
0000
0000
0000
,
0000
0000
0000
0000
,
0000
0000
0000
0000
,
0000
0000
0000
0000
,
0000
0000
0000
0000
,
2000
0000
0000
3000
,
0002
0000
0000
0003
,
0200
0000
0000
0000
,
0310
0000
0000
0000
,
1000
0000
0000
0000
,
0002
0000
0000
0003
,
0200
0000
0000
0300
,
0010
0000
1000
0000
,
0020
0000
0000
0030
,
0200
0000
0000
0300
,
0020
0000
0000
0030
,
2000
0000
0001
0000
,
0002
0000
0000
3003
,
1000
0100
1000
0000
,
0001
0100
0001
0000
,
1000
0010
1000
0000
,
0001
0010
0001
0000
,
2000
0000
3100
1000
,
0002
0000
0103
0010
,
1000
0000
0000
0001
0000
0000
0200
0000
,
0020
0000
0000
0330
,
1000
0000
0000
0001
0000
0000
2002
0000
,
0000
0000
3003
0010
,
0100
0000
0000
0220
0000
0000
0000
0000
,
0000
0000
0000
0000
,
0330
0000
0000
0000
,
0001
0100
0001
1000
,
0001
0010
0100
0100
,
1000
0010
1000
0001
,
1000
0100
0010
0010
,
0001
1000
0001
0100
,
0010
0010
1000
0001
,
1000
0010
1000
0001
,
0010
0001
0100
0110
,
0001
0000
1000
0000
0001
1000
0002
0000
,
0000
0003
0010
0100
,
1000
0000
0001
0000
1000
0001
2000
0000
,
0000
3000
0010
0010
,
0100
0000
0001
0000
1000
0010
2000
0000
,
0000
3000
0001
1000
,
0100
0000
0000
0010
0000
0000
2002
0000
,
0000
0000
0000
3003
,
1000
0100
0010
0100
,
0001
0100
0010
0100
,
1000
0010
0100
0010
,
0001
0010
0100
0010
,
1000
0100
2200
3300
,
0001
0100
0202
0303
,
1000
0010
2020
3030
,
0001
0010
0001
1000
,
1001
0001
0100
0110
,
0000
1000
0100
0110
,
0000
0010
0001
1000
,
0010
1000
0001
1001
,
0000
2000
0000
3001
,
0000
0002
0000
1003
,
0000
0020
0000
0230
,
0000
0010
0020
0330
,
2002
0000
0000
0000
,
0000
0000
0000
0000
,
3003
0000
0000
0000
;

//---------------dance-single - t7r/P1989----------------
#NOTES:
     dance-single:
     t7r/P1989:
     Medium:
     8:
     :
0000
0000
0000
0000
,
0000
0000
0000
0000
,
0000
0000
0000
0000
,
0000
0000
0000
0000
,
0000
0000
0000
0000
,
0002
0000
0000
0000
0000
0000
0000
0203
,
0000
0000
0000
0000
0000
0320
0000
0000
,
2030
0000
0000
0000
0000
0000
0000
0002
,
0000
0000
0000
0000
,
0000
0000
0000
3003
,
1000
0000
0000
1000
0000
0000
0100
0000
0000
1000
0000
0000
0000
0000
0000
0000
,
0001
0000
0000
0001
0000
0000
0100
0000
0000
0001
0000
0000
0000
0000
0000
0000
,
1000
0000
0000
1000
0000
0000
0010
0000
0000
1000
0000
0000
0000
0000
0000
0000
,
0001
0000
0000
0001
0000
0000
0010
0000
0000
0001
0000
0000
0000
0000
0000
0000
,
1000
0000
0000
0100
0000
0000
0010
0000
0000
0001
0000
0000
0000
0000
0000
0000
,
0100
0000
0000
0010
0000
0000
1000
0000
0000
0001
0000
0000
0000
0000
0000
0000
,
0010
0000
0000
0100
0000
0000
2000
0000
0000
0000
3001
0000
0100
0000
0000
0000
,
0020
0001
0100
1030
,
1001
0000
0001
0000
0100
0010
2000
0000
,
3001
0000
0010
0000
0100
0010
0002
0000
,
1003
0000
0100
0000
1000
0001
0100
0000
,
0010
0000
0000
0010
0000
0000
1000
0000
0000
0010
0000
0000
0200
0000
0000
0000
,
0301
0000
0010
0000
0100
1000
0002
0000
,
0103
0000
0010
0000
1000
0100
0020
0000
,
0032
0000
0000
0203
0000
0000
0320
0000
,
1000
0000
0000
2030
0000
0000
3001
1000
,
0200
0000
0000
0001
0000
0000
0010
0000
,
2300
0000
0000
0010
0000
0000
3001
0100
,
0020
0000
0001
0200
0000
0000
0000
0000
,
0000
0000
0000
0000
,
0330
0000
0000
0000
,
0001
0000
0100
0010
0000
1000
2010
0000
,
0001
0000
3100
0000
1000
0001
0010
0001
,
1000
0000
0100
0010
0000
0001
0012
0000
,
1000
0000
0103
0001
1000
0010
0100
0010
,
1000
0000
0001
0010
0000
0100
2100
0000
,
0001
0000
3010
0000
1000
0001
0100
0001
,
1000
0000
0100
0010
0000
0100
2001
0000
,
0100
0000
3010
0000
1000
0001
1000
0001
,
1000
0000
0000
0100
0000
0000
0010
0000
0000
0100
0000
0000
0001
0000
0000
0100
,
0000
0000
0010
0000
0000
0100
0000
0000
1000
0000
0010
0000
0100
0000
0000
0000
,
0001
0000
0000
0010
0000
0000
0100
0000
0000
0010
0000
0000
1000
0000
0000
0010
,
0000
0000
0100
0000
0000
0010
0000
0000
0001
0000
0100
0000
0010
0000
0000
0000
,
1000
0000
0000
0010
0000
0000
0001
0000
0000
1000
0000
0000
0100
0000
0000
0001
,
0000
0000
1000
0000
0000
0100
0000
0000
0010
0000
0001
0000
1000
0000
0000
0000
,
0001
0000
0000
0010
0000
0000
1000
0000
0000
0001
0000
0000
0200
0000
0000
0001
,
0000
0000
0010
0000
0000
1000
0000
0000
0010
0000
0000
0000
1300
0000
0000
0000
,
1001
0000
1000
0100
0000
0010
0100
1000
,
0000
0000
0001
0100
0000
0010
0100
0001
,
0000
0000
0010
0001
0000
1000
0010
1000
,
0000
0100
0000
1001
0000
0010
0000
1001
,
0000
0001
0010
0001
0000
0001
0100
0010
,
0000
1000
0010
1000
0000
1000
0100
0010
,
0000
0001
1000
0001
0000
0001
0100
0010
,
0000
0100
0000
0110
0000
2002
0000
3003
,
1000
0000
0100
0010
0001
1000
0100
0000
,
1000
0000
0001
0100
0010
1000
0001
0000
,
0010
0000
0001
1000
0001
0100
0010
1000
,
0000
0010
0000
0001
0000
0010
0000
0100
,
0001
0000
0010
0002
0000
0103
0001
0000
,
1000
0000
0010
2000
0000
3100
1000
0000
,
0001
0000
0100
0020
0000
2030
0000
3200
,
0000
0302
0000
0203
0000
0320
0000
0030
,
2002
0000
0000
0000
,
0000
0000
0000
0000
,
3003
0000
0000
0000
;

//---------------dance-single - t7r/P1989----------------
#NOTES:
     dance-single:
     t7r/P1989:
     Hard:
     12:
     :
0000
0000
0000
0000
,
0000
0000
0000
0000
,
0000
0000
0000
0000
,
0000
0000
0000
0000
,
0000
0000
0000
0000
,
0002
0000
1000
0000
0100
0000
1003
0020
,
0000
0000
0001
0000
0100
0000
1030
0100
,
2000
0000
0001
0000
0010
0000
3001
1000
,
0100
0000
0000
0100
0000
0000
0001
0000
0000
0001
0000
0000
0100
0000
0000
2000
,
0000
0000
0000
0000
,
3010
0000
0000
0100
0000
0000
0001
0000
0000
1000
0000
0000
0200
0000
0000
0000
,
0310
0000
0000
0100
0000
0000
1000
0000
0000
0001
0000
0000
0200
0000
0000
0000
,
0301
0000
0000
0010
0000
0000
1000
0000
0000
0010
0000
0000
0001
0000
1000
0000
,
0001
0000
0000
0100
0000
0000
0020
0000
0000
1000
0000
0000
0130
0000
0001
0000
,
1000
0000
0000
0100
0000
0000
0001
0000
0000
0100
0000
0000
0020
0000
0001
0000
,
0031
0000
0000
0100
0000
0000
1000
0000
0000
0100
0000
0000
0020
0000
1000
0000
,
2030
0000
3001
0002
0000
0103
0010
2000
,
0000
0000
0100
0000
0000
0001
0000
0000
3020
0000
0000
0100
0000
0000
0130
0000
,
0001
0000
0000
0001
0010
0000
0100
0000
1000
0001
0000
0000
1000
0000
0010
0000
,
1000
0000
0000
1000
0100
0000
0010
0000
0001
1000
0000
0000
0001
0000
0100
0000
,
0010
0000
0000
0010
0100
0000
0001
0000
1000
0100
0000
0000
1000
0000
0001
0000
,
0100
0000
0000
0100
0010
0000
0100
0000
0001
1000
0000
0000
0001
0000
0100
0000
,
0001
0000
0000
0001
0010
0000
1000
0000
0010
0100
0000
0000
1000
0000
0001
0000
,
1000
0000
0000
1000
0010
0000
0001
0000
0010
0100
0000
0000
0001
0000
1000
0000
,
0002
0000
0100
2003
0100
0000
3020
0000
,
0001
0000
0000
0100
0000
0000
1030
0100
,
1100
0000
0001
0020
0000
0031
2000
0000
,
0100
0000
0001
0001
3000
0000
1000
0001
,
1001
0000
0000
0000
0010
0000
0210
0000
0000
0000
0000
0000
0010
0000
0000
1000
,
0000
0000
0010
0000
0000
0001
0000
0000
0310
0000
0000
0110
0000
0000
1001
0000
,
0000
0000
0000
1000
0001
0100
1000
0100
,
0001
0000
0000
0010
0100
0000
1000
0000
0001
0010
0000
0000
0001
0000
0000
1000
,
0001
0000
1000
0000
0010
1000
0000
0000
0001
0000
0000
1000
0010
0000
1000
0000
,
0100
0000
0000
0010
0100
0000
0001
0000
0100
0010
0000
0000
0100
0000
0000
1000
,
0010
0000
0100
0000
0010
0001
0000
0000
0010
0000
1000
0000
1000
0000
0001
0000
,
1000
0000
0000
0010
0100
0000
0001
0000
1000
0010
0000
0000
1000
0000
0000
0001
,
1000
0000
0001
0000
0010
0001
0000
0000
1000
0000
0000
0001
0010
0000
0001
0000
,
0100
0000
0000
0010
0100
0000
1000
0000
0100
0010
0000
0000
0100
0000
0000
0001
,
0010
0000
0100
0000
0010
1000
0000
0000
0010
0000
0001
0000
0001
0000
1000
0000
,
1001
0000
0000
0001
1000
0000
0001
0100
0000
0001
0010
0000
0120
0000
0000
0000
,
1030
0000
0010
0100
0000
0010
0001
0000
2000
0000
0100
0000
3002
0000
0100
0000
,
1003
0000
0000
1000
0100
0000
0010
0001
0000
1000
0010
0000
0120
0000
0000
0000
,
0031
0000
0010
0100
0000
0010
1000
0000
0002
0000
0010
0000
2003
0000
0010
0000
,
3001
0000
0000
0001
0010
0000
0100
1000
0000
0001
0100
0000
0210
0000
0000
0000
,
1300
0000
0100
0001
0000
0010
0001
0000
2000
0000
0100
0000
3020
0000
0100
0000
,
1030
0000
0000
1000
0100
0000
1000
0001
0000
0100
0010
0000
1020
0000
0000
0000
,
0001
0000
0000
0000
1030
0000
0000
0000
1001
0000
0000
1001
0000
0000
0100
0000
,
0101
0100
0001
0020
1000
0000
0130
1000
,
0001
0100
1000
0200
0010
0000
0301
1000
,
0100
0001
0100
0020
1000
0000
0130
2000
,
0010
3002
0010
2003
0100
3002
0100
1003
,
0100
0010
1000
0010
0100
0100
1000
0001
,
0100
0010
0001
0010
0100
0100
0001
1000
,
0010
0001
0010
0100
0001
0001
1000
0200
,
0001
0320
1000
0230
1000
0320
0001
0130
,
1001
0000
0000
0000
0001
0000
0100
0010
0100
0000
1000
0000
0100
0000
0001
0000
,
0010
0000
0001
0000
1000
0000
0100
0010
0100
0000
0001
0000
0100
0000
1000
0000
,
0010
0000
1000
0000
0001
0000
0010
0100
0010
0000
0001
0000
0100
0000
0101
0000
,
0000
2010
0000
3200
0000
0302
0000
0103
,
0000
0010
0002
0100
0000
0013
0001
0100
,
0000
0010
2000
0100
0000
3010
1000
0100
,
0000
1000
0020
0001
0000
1030
0010
0001
,
0000
0020
0000
2030
0000
3200
0000
0300
,
2002
0000
0000
0000
,
0000
0000
0000
0000
,
3003
0000
0000
0000
;

//---------------dance-double - t7r----------------
#NOTES:
     dance-double:
     t7r:
     Easy:
     5:
     :
00000000
00000000
00000000
00000000
,
00000000
00000000
00000000
00000000
,
00000000
00000000
00000000
00000000
,
00000000
00000000
00000000
00000000
,
00000000
00000000
00000000
00000000
,
00200000
00000000
00000000
00300000
,
00002000
00000000
00000000
00003000
,
00020000
00000000
00000000
00000000
,
00031000
00000000
00000000
00000000
,
00000000
00000000
00000000
00000000
,
02000000
00000000
00000000
03000000
,
00020000
00000000
00000000
00030000
,
10000000
00000000
01000000
00000000
,
00200000
00000000
00000000
00300000
,
00002000
00000000
00000000
00003000
,
00020000
00000000
00000000
00030000
,
00000020
00000000
00000100
00000000
,
00000200
00000000
00000000
00000330
,
00000001
00000010
00000001
00000000
,
00001000
00000100
00001000
00000000
,
00000100
00000000
00010000
00000000
,
00001000
00010000
00001000
00000000
,
02000000
00000000
03100000
10000000
,
00020000
00000000
00130000
00000000
,
00010000
00000000
00000000
10000000
00000000
00000000
02000000
00000000
,
03200000
00000000
00000000
00301000
,
00010000
00000000
00000000
00000100
00000000
00000000
00002000
00000000
,
00000002
00000000
00003003
00000001
,
00000100
00000000
00000000
00002000
00000000
00000000
00000000
00000000
,
00000000
00000000
00000000
00000000
,
00003000
00000000
00000000
00000000
,
00010000
00001000
00010000
00000000
,
01000000
00000000
01000000
00000000
,
00100000
00010000
10000000
00000000
,
00100000
00000000
00100000
00000000
,
00010000
00001000
00010000
00000000
,
00001000
00000000
00001000
00000000
,
00000010
00000100
00000010
00000000
,
00000001
00000000
00000001
00000000
,
00000100
00000000
00000000
00000000
00000001
00001000
00000002
00000000
,
00000000
00000003
00001000
00000000
,
00000100
00000000
00000000
00000000
00010000
00001000
00020000
00000000
,
00000000
00030000
00001000
00001000
,
01000000
00000000
00000000
00000000
00100000
10000000
00200000
00000000
,
00000000
00300000
10000000
00010000
,
10000000
00000000
00000000
01000000
00000000
00000000
00020000
00000000
,
00000000
00000000
00000000
00030000
,
00001000
00010000
00000100
00000000
,
00001000
00000010
00001000
00000000
,
00000001
00000010
00000001
00000000
,
00001000
00000000
00000100
00000000
,
00010000
00001000
01000000
00000000
,
00010000
00100000
00010000
00000000
,
10000000
00100000
10000000
00000000
,
00010000
00000000
00100000
00000000
,
00001000
00010000
00001000
00011000
,
00000000
00000010
00000100
00000110
,
00000000
00000001
00001000
00000010
,
00001000
00000100
00010000
00011000
,
00000000
00002000
00000000
01003000
,
00000000
00020000
00000000
10030000
,
00000000
02000000
00000000
03010000
,
00000000
00000010
00002000
00003000
,
00002002
00000000
00000000
00000000
,
00000000
00000000
00000000
00000000
,
00003003
00000000
00000000
00000000
;

//---------------dance-double - t7r----------------
#NOTES:
     dance-double:
     t7r:
     Medium:
     8:
     :
00000000
00000000
00000000
00000000
,
00000000
00000000
00000000
00000000
,
00000000
00000000
00000000
00000000
,
00000000
00000000
00000000
00000000
,
00000000
00000000
00000000
00000000
,
00020000
00000000
00000000
00000000
00000000
00000000
00000000
00032000
,
00000000
00000000
00000000
00000000
00000000
02003000
00000000
00000000
,
03020000
00000000
00000000
00000000
00000000
00000000
00000000
20000000
,
00000000
00000000
00000000
00000000
,
00000000
00000000
00000000
30030000
,
10000000
00000000
00000000
10000000
00000000
00000000
01000000
00000000
00000000
00000000
00000000
00000000
00000000
00000000
00000000
00000000
,
00100000
00000000
00000000
00100000
00000000
00000000
00010000
00000000
00000000
00000000
00000000
00000000
00000000
00000000
00000000
00000000
,
00001000
00000000
00000000
00001000
00000000
00000000
00000010
00000000
00000000
00000000
00000000
00000000
00000000
00000000
00000000
00000000
,
00000100
00000000
00000000
00000100
00000000
00000000
00000001
00000000
00000000
00000000
00000000
00000000
00000000
00000000
00000000
00000000
,
00000010
00000000
00000000
00000010
00000000
00000000
00000100
00000000
00000000
00000000
00000000
00000000
00000000
00000000
00000000
00000000
,
00010000
00000000
00000000
00010000
00000000
00000000
00001000
00000000
00000000
00000000
00000000
00000000
00000000
00000000
00000000
00000000
,
01000000
00000000
00000000
01000000
00000000
00000000
00100000
00000000
00000000
00000000
00000000
00000000
00000000
00000000
00000000
00000000
,
10000000
01000000
00100000
00010000
,
00001000
00000000
00000001
00000000
00000100
00000010
00002000
00000000
,
00003001
00000000
00000010
00000000
00000100
00001000
00000002
00000000
,
00000103
00001000
00010000
01000000
,
10000000
00000000
00000000
10000000
00000000
00000000
00100000
00000000
00000000
01000000
00000000
00000000
00020000
00000000
00000000
00000000
,
10030000
00000000
00100000
00000000
01000000
00010000
20000000
00000000
,
31000000
00000000
00100000
00000000
00001000
00010000
00002000
00000000
,
00003200
00000000
00000000
00000302
00000000
00000000
00000023
00000000
,
00001000
00000000
00000000
00001000
00000000
00000000
00000130
00000000
,
00020000
00000000
00000000
00001000
00000000
00000000
00030200
00000000
,
00010000
00000000
00000000
00001000
00000000
00000000
00010300
00000000
,
02000000
00000000
00010000
00200000
00000000
00000000
00000000
00000000
,
00000000
00000000
00000000
00000000
,
03300000
00000000
00000000
00000000
,
10010000
00000000
10000000
01000000
00000000
00100000
00120000
00000000
,
01000000
00000000
00130000
00000000
00001000
00010000
00001000
00000000
,
00000010
00000000
00000100
00001000
00000000
00000001
00001002
00000000
,
00000010
00000000
00001003
00000000
00000001
00000100
00000001
00000000
,
00001000
00000000
00000010
00001000
00000000
00000100
00020100
00000000
,
00001000
00000000
00030100
00000000
00010000
00001000
01000000
00000000
,
00010000
00000000
00100000
01000000
00000000
00100000
20010000
00000000
,
00100000
00000000
30010000
00000000
10000000
00010000
10000000
00010000
,
10000000
00000000
00000000
00100000
00000000
00000000
01000000
00000000
00000000
00100000
00000000
00000000
00010000
00000000
00000000
00100000
,
00000000
00000000
10000000
00000000
00000000
01000000
00000000
00000000
00010000
00000000
00000000
00000000
00001000
00000000
00000000
00000000
,
00000010
00000000
00000000
00000100
00000000
00000000
00000010
00000000
00000000
00001000
00000000
00000000
00000010
00000000
00000000
00000001
,
00000000
00000000
00000100
00000000
00000000
00001000
00000000
00000000
00010000
00000000
00000000
00000000
00001000
00000000
00000000
00000000
,
00010000
00000000
00000000
01000000
00000000
00000000
00100000
00000000
00000000
01000000
00000000
00000000
10000000
00000000
00000000
00100000
,
00000000
00000000
01000000
00000000
00000000
00100000
00000000
00000000
00010000
00000000
00000000
00000000
00001000
00000000
00000000
00000000
,
00000100
00000000
00000000
00000001
00000000
00000000
00001000
00000000
00000000
00000100
00000000
00000000
00010000
00000000
00000000
00001000
,
00000000
00000000
00010000
00000000
00000000
01000000
00000000
00000000
10000000
00000000
00000000
00000000
00010000
00000000
00000000
00000000
,
10000000
00000000
01000000
00100000
00000000
00010000
10000000
00010000
,
00000000
00000000
10000000
01000000
00000000
00010000
00001000
00010000
,
00000000
00000000
00000100
00001000
00000000
00000001
00000100
00000001
,
00000000
00000010
00000000
00011000
00000000
00000100
00000000
00011000
,
00000000
00001000
01000000
00010000
00000000
00010000
10000000
01000000
,
00000000
10000000
00100000
10000000
00000000
10000000
00010000
01000000
,
00000000
00010000
00100000
00001000
00000000
00010000
00000000
00000100
,
00000000
00000010
00000000
00000110
00000000
00002002
00000000
00003003
,
00000001
00000000
00000100
00000010
00001000
00000000
00010000
00000000
,
10000000
00000000
01000000
00100000
00010000
00000000
00001000
00000000
,
00000001
00000000
00000010
00000100
00001000
00000000
00010000
10000000
,
00000000
00100000
00000000
00010000
00000000
00001000
00000000
00000010
,
00000100
00000000
00010000
00000200
00000000
00010300
00001000
00000000
,
01000000
00000000
00001000
00020000
00000000
00031000
01000000
00000000
,
00100000
00000000
10000000
00200000
00000000
00320000
00000000
00032000
,
00000000
00003200
00000000
00000302
00000000
00000023
00000000
00000030
,
00002002
00000000
00000000
00000000
,
00000000
00000000
00000000
00000000
,
00003003
00000000
00000000
00000000
;

//---------------dance-double - t7r----------------
#NOTES:
     dance-double:
     t7r:
     Hard:
     12:
     :
00000000
00000000
00000000
00000000
,
00000000
00000000
00000000
00000000
,
00000000
00000000
00000000
00000000
,
00000000
00000000
00000000
00000000
,
00000000
00000000
00000000
00000000
,
00020000
00000000
00000100
00000000
00001000
00000000
00030010
00002000
,
00000000
00000000
00000100
00000000
00003001
00001000
00000001
00000000
,
00000100
00000000
00000100
00000000
00001000
00000000
00010000
01000000
,
10000000
00000000
00000000
10000000
00000000
00000000
00100000
00000000
00000000
00100000
00000000
00000000
10000000
00000000
00000000
00020000
,
00000000
00000000
00000000
00000000
,
10030000
00000000
00000000
01000000
00000000
00000000
00100000
00000000
00000000
00010000
00000000
00000000
20000000
00000000
00000000
00000000
,
30100000
00000000
00000000
01000000
00000000
00000000
00010000
00000000
00000000
00001000
00000000
00000000
00000020
00000000
00000000
00000000
,
00001030
00000000
00000000
00000100
00000000
00000000
00000001
00000000
00000000
00000100
00000000
00000000
00001000
00000000
00000001
00000000
,
00001000
00000000
00000000
00000001
00000000
00000000
00000200
00000000
00000000
00000000
00000000
00000000
00000310
00000000
00010000
00000000
,
00001000
00000000
00000000
00010000
00000000
00000000
01000000
00000000
00000000
10000000
00000000
00000000
00200000
00000000
10000000
00000000
,
10300000
00000000
00000000
01000000
00000000
00000000
00010000
00000000
00000000
01000000
00000000
00000000
00200000
00000000
00001000
00000000
,
00302000
00000000
00013000
00020000
00000000
00031000
00000100
00000020
,
00000000
00000000
00000001
00000000
00000000
00000100
00000000
00000000
00002030
00000000
00000000
00000001
00000000
00000000
00003001
00000000
,
00000010
00000000
00000000
00000010
00000001
00000000
00000100
00000000
00000010
00000000
00000000
00000000
00010000
00000000
00000000
00000000
,
00001000
00000000
00000000
00001000
00010000
00000000
00100000
00000000
01000000
00000000
00000000
00000000
00010000
00000000
00000000
00000000
,
10000000
00000000
00000000
10000000
01000000
00000000
00100000
00000000
00001000
00000000
00000000
00000000
00010000
00000000
00000000
00000000
,
00000100
00000000
00000000
00000100
00001000
00000000
00000010
00000000
00001000
00000001
00000000
00000000
00000100
00000000
00000001
00000000
,
00001000
00000000
00000000
00001000
00000100
00000000
00000001
00000000
00000100
00000010
00000000
00000000
00000001
00000000
00000100
00000000
,
00001000
00000000
00000000
00001000
00010000
00000000
00001000
00000000
01000000
00010000
00000000
00000000
00100000
00000000
00010000
00000000
,
20000000
00000000
01000000
30020000
01000000
00000000
00230000
00000000
,
10000000
00000000
01000000
00000000
00310000
00000000
10000000
00010000
,
00001000
00000000
00000001
00000020
00000000
00000031
00002000
00000000
,
00000100
00000000
00000001
00000001
00003000
00000000
00001000
00000001
,
00000100
00000000
00000000
00000000
00001000
00000000
00021000
00000000
00000000
00000000
00000000
00000000
00100000
00000000
00000000
00100000
,
00000000
00000000
00000010
00000000
00000000
00000010
00000000
00000000
00031000
00000000
00000000
00011000
00000000
00000000
01010000
00000000
,
00000000
00000000
00000000
00000000
,
10000000
00000000
00000000
01000000
00100000
00000000
00010000
00000000
10000000
01000000
00000000
00000000
00100000
00000000
00000000
00001000
,
00010000
00000000
00000010
00000000
00001000
00000001
00000000
00000000
00000100
00000000
00000000
00000001
00001000
00000000
00001000
00000000
,
00000001
00000000
00000000
00000100
00000010
00000000
00001000
00000000
00000001
00000100
00000000
00000000
00000010
00000000
00000000
00010000
,
00001000
00000000
00100000
00000000
00010000
10000000
00000000
00000000
01000000
00000000
00000000
10000000
00010000
00000000
00010000
00000000
,
10000000
00000000
00000000
00100000
01000000
00000000
00010000
00000000
10000000
00100000
00000000
00000000
01000000
00000000
00000000
00001000
,
00010000
00000000
00000100
00000000
00001000
00000001
00000000
00000000
00000010
00000000
00000000
00000001
00001000
00000000
00001000
00000000
,
00000001
00000000
00000000
00000010
00000100
00000000
00001000
00000000
00000100
00010000
00000000
00000000
00001000
00000000
00000000
00010000
,
00100000
00000000
01000000
00000000
00010000
10000000
00000000
00000000
01000000
00000000
00100000
00000000
00100000
00000000
00001000
00000000
,
00010000
00000000
00000000
00001000
00000100
00000000
00000001
00000010
00000000
00000001
00001000
00000000
00001002
00000000
00000000
00000000
,
00000103
00001000
00010000
01000000
20000000
00100000
30020000
00100000
,
10030000
00000000
00000000
01000000
00100000
00000000
00010000
10000000
00000000
00010000
00100000
00000000
00120000
00000000
00000000
00000000
,
10030000
00000000
00100000
01000000
00000000
00010000
00100000
00000000
00002000
00000000
01000000
00000000
00023000
00000000
00000100
00000000
,
00031000
00000000
00000000
00000010
00000100
00000000
00000010
00000001
00000000
00001000
00000010
00000000
00000210
00000000
00000000
00000000
,
00001300
00000000
00000100
00000001
00000000
00000010
00000001
00000000
00002000
00000000
00000100
00000000
00003020
00000000
00001000
00000000
,
00000130
00000000
00000000
00001000
00010000
00000000
00100000
10000000
00000000
00010000
00100000
00000000
00210000
00000000
00000000
00000000
,
00001000
00000000
00000000
00000000
01300000
00000000
00000000
00000000
11000000
00000000
00000000
11000000
00000000
00000000
10000000
00000000
,
10010000
10000000
01000000
00100000
00010000
00002000
00000010
00000000
,
00003001
00000001
00000010
00000100
00001000
00020000
00100000
00000000
,
10030000
10000000
00100000
01000000
00010000
00002000
00000010
00003002
,
00000100
00002003
00000000
00003200
00000000
00010300
00001000
00010000
,
01000000
01000000
10000000
00100000
00010000
00010000
00001000
00000000
,
00000100
00000100
00000001
00000010
00001000
00001000
00010000
00000000
,
00100000
00100000
10000000
01000000
00010000
00010000
00001000
00000020
,
00000000
00000032
00000000
00000203
00000000
00002300
00000000
00013000
,
00011000
00000000
00000000
00000000
00001000
00000000
01000000
00010000
01000000
00000000
00010000
00000000
10000000
00000000
01000000
00000000
,
00010000
00000000
00000000
00000000
00001000
00000000
00010000
00001000
00010000
00000000
00001000
00000000
00000100
00000000
00000001
00000000
,
00001000
00000000
00000000
00000000
00000001
00000000
00000010
00000001
00000010
00000000
00000100
00000000
00010000
00000000
00011000
00000000
,
00000000
02001000
00000000
03020000
00000000
20030000
00000000
30100000
,
00000000
10000000
02000000
00010000
00000000
13000000
01000000
00100000
,
00000000
00001000
00020000
00000100
00000000
00031000
00010000
00000010
,
00001000
00000001
00000200
00001000
00000000
00000301
00000100
00000010
,
00000000
00002000
00000000
00003200
00000000
00020300
00000000
00030000
,
00022000
00000000
00000000
00000000
,
00000000
00000000
00000000
00000000
,
00033000
00000000
00000000
00000000
;
