#VERSION:0.83;
#TITLE:Walkie Talkie;
#SUBTITLE:(Momo Mix);
#ARTIST:King Kong & D. Jungle Girls;
#TITLETRANSLIT:;
#SUBTITLETRANSLIT:;
#ARTISTTRANSLIT:;
#GENRE:;
#ORIGIN:;
#CREDIT:;
#BANNER:Walkie Talkie (Momo Mix)-banner.png;
#BACKGROUND:Walkie Talkie (Momo Mix)-bg.png;
#PREVIEWVID:;
#JACKET:Walkie Talkie (Momo Mix)-jacket.png;
#CDIMAGE:;
#DISCIMAGE:;
#LYRICSPATH:Walkie Talkie (Momo Mix).lrc;
#CDTITLE:;
#MUSIC:Walkie Talkie (Momo Mix).ogg;
#OFFSET:0.000000;
#SAMPLESTART:33.453999;
#SAMPLELENGTH:11.151000;
#SELECTABLE:YES;
#BPMS:0.000=172.177;
#STOPS:;
#DELAYS:;
#WARPS:;
#TIMESIGNATURES:0.000=4=4;
#TICKCOUNTS:0.000=4;
#COMBOS:0.000=1;
#SPEEDS:0.000=1.000=0.000=0;
#SCROLLS:0.000=1.000,
236.000=0.000,
236.500=2.000,
237.000=0.000,
237.500=2.000,
238.000=0.000,
238.500=2.000,
239.000=1.000;
#FAKES:;
#LABELS:0.000=Song Start;
#BGCHANGES:;
#KEYSOUNDS:;
#ATTACKS:
;

//---------------dance-single - ----------------
#NOTEDATA:;
#CHARTNAME:;
#STEPSTYPE:dance-single;
#DESCRIPTION:;
#CHARTSTYLE:;
#DIFFICULTY:Beginner;
#METER:2;
#RADARVALUES:0.121088,0.171429,0.142857,0.028571,0.000000,89.000000,74.000000,15.000000,3.000000,0.000000,0.000000,0.000000,0.000000,0.000000,0.121088,0.171429,0.142857,0.028571,0.000000,89.000000,74.000000,15.000000,3.000000,0.000000,0.000000,0.000000,0.000000,0.000000;
#CREDIT:djfipu;
#NOTES:
// measure 0
0000
0000
0000
0000
,  // measure 1
0000
0000
0000
0000
,  // measure 2
0000
0000
0000
0000
,  // measure 3
0000
0000
0000
0000
,  // measure 4
1001
0000
0000
0000
,  // measure 5
1000
0000
0000
0000
,  // measure 6
0010
0000
0000
0000
,  // measure 7
0100
0000
0000
0000
,  // measure 8
0110
0000
0000
0100
,  // measure 9
0000
0000
0010
0000
,  // measure 10
1000
0000
0000
0000
,  // measure 11
0001
0000
0000
0000
,  // measure 12
1001
0000
0000
0000
,  // measure 13
0001
0000
0000
0000
,  // measure 14
0010
0000
0000
0000
,  // measure 15
0001
0000
0000
0000
,  // measure 16
1001
0000
0000
0000
,  // measure 17
1000
0000
0000
0000
,  // measure 18
0100
0000
0000
0000
,  // measure 19
0010
0000
0010
0000
,  // measure 20
0002
0000
0000
0023
,  // measure 21
0230
0000
0300
0000
,  // measure 22
0010
0000
0000
0000
,  // measure 23
0100
0000
0000
0000
,  // measure 24
0110
0000
0000
0000
,  // measure 25
0100
0000
0000
0000
,  // measure 26
1000
0000
0000
0000
,  // measure 27
0010
0000
0010
0000
,  // measure 28
0100
0000
0000
0000
,  // measure 29
0001
0000
0000
0000
,  // measure 30
0010
0000
0000
0000
,  // measure 31
0001
0000
0000
0000
,  // measure 32
1001
0000
0000
0000
,  // measure 33
1000
0000
0000
0000
,  // measure 34
0100
0000
0000
0000
,  // measure 35
1000
0000
0000
0000
,  // measure 36
1001
0000
0000
0000
,  // measure 37
0001
0000
0000
0000
,  // measure 38
0010
0000
0000
0000
,  // measure 39
0100
0000
0000
0000
,  // measure 40
0110
0000
0000
0000
,  // measure 41
0010
0000
0000
0000
,  // measure 42
0001
0000
0000
0000
,  // measure 43
1000
0000
0000
0000
,  // measure 44
0010
0000
0000
0000
,  // measure 45
0100
0000
0000
0000
,  // measure 46
0010
0000
0000
0000
,  // measure 47
0100
0000
0000
0000
,  // measure 48
0110
0000
0000
0000
,  // measure 49
0010
0000
0000
0000
,  // measure 50
1000
0000
0000
0000
,  // measure 51
0001
0000
0000
0000
,  // measure 52
0100
0000
0000
0010
,  // measure 53
0100
0000
0000
0000
,  // measure 54
0001
0000
0000
0000
,  // measure 55
1001
0000
0000
0000
,  // measure 56
1001
0000
0000
0000
,  // measure 57
1000
0000
0000
0000
,  // measure 58
0001
0000
0000
0000
,  // measure 59
0110
0000
0000
0000
,  // measure 60
1001
0000
0000
0000
,  // measure 61
0001
0000
0000
0000
,  // measure 62
0010
0000
0000
0000
,  // measure 63
0001
0000
0000
0000
,  // measure 64
1000
0000
0000
0000
,  // measure 65
0010
0000
0000
0000
,  // measure 66
1000
0000
0000
0000
,  // measure 67
0100
0000
0000
0000
,  // measure 68
1001
0000
0000
0000
,  // measure 69
0001
0000
0000
0000
,  // measure 70
0010
0000
0000
0000
,  // measure 71
0100
0000
0000
0000
,  // measure 72
0110
0000
0000
0000
;

//---------------dance-single - ----------------
#NOTEDATA:;
#CHARTNAME:;
#STEPSTYPE:dance-single;
#DESCRIPTION:;
#CHARTSTYLE:;
#DIFFICULTY:Easy;
#METER:7;
#RADARVALUES:0.342857,0.411429,0.095238,0.714286,0.000000,252.000000,242.000000,10.000000,75.000000,0.000000,0.000000,0.000000,0.000000,0.000000,0.342857,0.411429,0.095238,0.714286,0.000000,252.000000,242.000000,10.000000,75.000000,0.000000,0.000000,0.000000,0.000000,0.000000;
#CREDIT:djfipu;
#NOTES:
// measure 0
0000
0000
0000
0000
,  // measure 1
0000
0000
0000
0000
,  // measure 2
0000
0000
0000
0000
,  // measure 3
0000
0000
0000
0000
,  // measure 4
0000
0000
0002
0000
0023
0000
0030
0002
,  // measure 5
0000
0003
2000
0000
3000
0000
0100
0000
,  // measure 6
0100
0000
2000
0000
3020
0000
0030
2000
,  // measure 7
0000
3000
0200
0000
0320
0000
0030
0000
,  // measure 8
0110
0010
0001
0100
,  // measure 9
0001
1000
0001
0001
,  // measure 10
2000
3010
2000
3100
,  // measure 11
2000
3010
2000
3001
,  // measure 12
1000
0010
0001
0100
,  // measure 13
1000
0010
0100
0100
,  // measure 14
0002
0013
0002
0103
,  // measure 15
0002
0013
0002
1003
,  // measure 16
1001
0001
0100
0010
,  // measure 17
0100
0001
0010
0001
,  // measure 18
1000
0100
1000
0001
,  // measure 19
2000
3020
2030
3020
,  // measure 20
0230
0000
0000
0310
,  // measure 21
0200
0001
0301
1000
,  // measure 22
0001
0001
1000
1000
,  // measure 23
0100
0020
0200
0330
,  // measure 24
0010
0010
0100
0100
,  // measure 25
0010
0001
1000
0010
,  // measure 26
0100
0100
0010
0010
,  // measure 27
0110
0110
0110
1000
,  // measure 28
0001
0001
1000
1000
,  // measure 29
0010
0000
0000
0200
0000
0310
0000
1000
,  // measure 30
0000
0000
1000
0010
,  // measure 31
0100
0001
1000
0000
,  // measure 32
0000
0000
0200
0000
2300
0000
3000
0200
,  // measure 33
0000
0300
0020
0000
0030
0000
0100
0000
,  // measure 34
1000
0000
0020
0000
0230
0000
0300
0020
,  // measure 35
0000
0030
0200
0000
0301
0000
1000
0000
,  // measure 36
0001
0000
0020
0000
0032
0000
0003
0020
,  // measure 37
0000
0030
0200
0000
0300
0000
0010
0000
,  // measure 38
0001
0000
0200
0000
0320
0000
0030
0200
,  // measure 39
0000
0300
0020
0000
1030
0000
0001
0000
,  // measure 40
1000
0100
1000
0010
,  // measure 41
0100
0010
0100
0100
,  // measure 42
0020
0130
0020
0031
,  // measure 43
0020
0130
0020
1030
,  // measure 44
0010
0100
0001
0001
,  // measure 45
1000
0001
1000
1000
,  // measure 46
0200
0310
0200
0301
,  // measure 47
0200
0310
0200
1300
,  // measure 48
0110
0100
1000
0010
,  // measure 49
0100
0010
1000
0100
,  // measure 50
0010
0001
1000
0010
,  // measure 51
0200
0302
0203
0302
,  // measure 52
2003
0000
0000
3010
,  // measure 53
0200
0001
0301
0001
,  // measure 54
1000
1000
0001
0001
,  // measure 55
0010
0200
0020
0330
,  // measure 56
0100
0100
0010
0010
,  // measure 57
0100
1000
0001
0100
,  // measure 58
0010
0010
0100
0100
,  // measure 59
0110
0110
0110
0010
,  // measure 60
1000
1000
0001
0001
,  // measure 61
0100
0000
0000
0020
0000
0130
0000
0001
,  // measure 62
0000
0000
0001
0100
,  // measure 63
0010
1000
0001
0000
,  // measure 64
0000
0000
0200
0000
0302
0000
0003
0200
,  // measure 65
0000
0300
0020
0000
0030
0000
0100
0000
,  // measure 66
0001
0000
0020
0000
0230
0000
0300
0020
,  // measure 67
0000
0030
0200
0000
1300
0000
0001
0000
,  // measure 68
1000
0000
0020
0000
2030
0000
3000
0020
,  // measure 69
0000
0030
0200
0000
0300
0000
0010
0000
,  // measure 70
1000
0000
0200
0000
0320
0000
0030
0200
,  // measure 71
0000
0300
0020
0000
0031
0000
1000
0000
,  // measure 72
1001
0000
0000
0000
;

//---------------dance-single - ----------------
#NOTEDATA:;
#CHARTNAME:;
#STEPSTYPE:dance-single;
#DESCRIPTION:;
#CHARTSTYLE:;
#DIFFICULTY:Medium;
#METER:10;
#RADARVALUES:0.450340,0.480000,0.171429,0.809524,0.000000,331.000000,313.000000,18.000000,85.000000,0.000000,0.000000,0.000000,0.000000,0.000000,0.450340,0.480000,0.171429,0.809524,0.000000,331.000000,313.000000,18.000000,85.000000,0.000000,0.000000,0.000000,0.000000,0.000000;
#CREDIT:djfipu;
#NOTES:
// measure 0
0000
0000
0000
0000
,  // measure 1
0000
0000
0000
0000
,  // measure 2
0000
0000
0000
0000
,  // measure 3
0000
0000
0000
0000
,  // measure 4
1001
0000
2000
0000
3020
0000
0030
2000
,  // measure 5
0000
3001
0200
0000
0310
0000
1000
0000
,  // measure 6
0001
0000
0002
0000
0013
0020
0000
0230
,  // measure 7
0000
0310
0002
0000
2003
0000
3000
0000
,  // measure 8
0010
0000
0110
0000
0010
0010
0200
0000
,  // measure 9
0301
1000
0001
0000
0100
0000
0010
0000
,  // measure 10
0010
1000
0020
0030
0010
0001
0020
0030
,  // measure 11
0100
1000
0200
0300
0100
0001
0200
0300
,  // measure 12
0001
0100
1000
0010
,  // measure 13
0001
0010
0100
0000
0010
0000
0100
0000
,  // measure 14
0100
1000
0200
0300
0100
0001
0200
0300
,  // measure 15
0010
1000
0020
0030
0010
0001
0020
0030
,  // measure 16
0011
0000
0001
0000
1000
0010
0000
0100
,  // measure 17
0000
0000
0001
0100
0001
0000
0010
0200
,  // measure 18
0000
0320
0000
0032
0000
2003
0000
3000
,  // measure 19
0002
2003
3002
0203
,  // measure 20
0302
0000
1003
0000
0100
0010
0000
0200
,  // measure 21
0000
0300
1000
0100
1000
0000
0010
0100
,  // measure 22
0000
1000
0000
0100
0000
0010
0000
0000
,  // measure 23
0010
0000
0200
0002
0000
0000
0303
0000
,  // measure 24
0001
0001
1000
1000
,  // measure 25
0100
0010
0100
0010
0000
0010
0100
0000
,  // measure 26
1000
1000
0001
0001
,  // measure 27
0110
0011
1010
0110
,  // measure 28
1001
1000
0001
0001
,  // measure 29
1000
0010
1000
0020
0000
0130
0000
0001
,  // measure 30
0000
1000
0000
0010
0000
1000
0100
0000
,  // measure 31
0010
0000
0001
0010
0000
0010
0100
0000
,  // measure 32
0110
0000
0020
0000
0230
0000
0300
2000
,  // measure 33
0000
3100
0020
0000
0031
0000
0100
0000
,  // measure 34
0010
0000
2000
0000
3001
0200
0000
0320
,  // measure 35
0000
1030
0020
0000
0130
0000
0001
0000
,  // measure 36
1000
0000
0200
0000
0320
0000
0030
0002
,  // measure 37
0000
0013
0200
0000
1300
0000
0010
0000
,  // measure 38
0100
0000
0002
0000
1003
0020
0000
0230
,  // measure 39
0000
0301
0200
0000
0310
0000
1000
0000
,  // measure 40
1100
0000
0100
0000
0010
0100
1000
0000
,  // measure 41
0010
1000
0100
0000
0010
0000
0010
0000
,  // measure 42
0001
0010
0002
0003
1000
0010
2000
3000
,  // measure 43
0001
0100
0002
0003
1000
0100
2000
3000
,  // measure 44
0100
0000
1100
0000
1000
0010
0100
0000
,  // measure 45
0010
1000
0001
0000
0010
0000
0010
0000
,  // measure 46
0001
0010
0002
0003
1000
0010
2000
3000
,  // measure 47
0001
0100
0002
0003
1000
0100
2000
3000
,  // measure 48
0011
0000
0010
0100
0010
0000
0100
2000
,  // measure 49
0000
3000
0010
0100
0001
0000
0001
2000
,  // measure 50
0000
3002
0000
0023
0000
0230
0000
0300
,  // measure 51
0020
0032
0023
0230
,  // measure 52
0320
0000
0031
1000
0000
0010
0000
0200
,  // measure 53
0000
0300
0001
0100
0001
0000
1000
0010
,  // measure 54
0000
1000
0000
0001
0000
0100
0000
0000
,  // measure 55
0001
0000
0020
0200
0000
0000
0330
0000
,  // measure 56
0010
0010
0100
0100
,  // measure 57
1000
0100
1000
0100
0000
1000
0010
0000
,  // measure 58
0010
0010
0100
0100
,  // measure 59
0110
0110
0110
1010
,  // measure 60
1000
1000
0001
0001
,  // measure 61
0100
0001
0100
0002
0000
0013
0000
0001
,  // measure 62
0000
1000
0000
0010
0000
1000
0010
0000
,  // measure 63
0100
0000
0010
0100
0000
0100
0010
0000
,  // measure 64
0110
0000
0200
0000
0320
0000
0030
2000
,  // measure 65
0000
3010
0200
0000
0301
0000
1000
0000
,  // measure 66
0001
0000
0002
0000
1003
0020
0000
0230
,  // measure 67
0000
0301
0200
0000
0310
0000
1000
0000
,  // measure 68
0001
0000
0020
0000
0230
0000
0300
2000
,  // measure 69
0000
3100
0020
0000
0031
0000
0100
0000
,  // measure 70
0010
0000
2000
0000
3001
0200
0000
0320
,  // measure 71
0000
1030
0020
0000
0130
0000
0001
0000
,  // measure 72
0101
0000
0000
0000
;

//---------------dance-single - ----------------
#NOTEDATA:;
#CHARTNAME:;
#STEPSTYPE:dance-single;
#DESCRIPTION:;
#CHARTSTYLE:;
#DIFFICULTY:Hard;
#METER:13;
#RADARVALUES:0.526531,0.548571,0.219048,0.828571,0.047619,387.000000,364.000000,23.000000,87.000000,12.000000,0.000000,8.000000,0.000000,0.000000,0.526531,0.548571,0.219048,0.828571,0.047619,387.000000,364.000000,23.000000,87.000000,12.000000,0.000000,8.000000,0.000000,0.000000;
#CREDIT:djfipu;
#NOTES:
// measure 0
0000
0000
0000
0000
,  // measure 1
0000
0000
0000
0000
,  // measure 2
0000
0000
0000
0000
,  // measure 3
0000
0000
0000
0000
,  // measure 4
0011
0000
0002
0000
0203
0000
0300
0020
,  // measure 5
0000
0130
0002
0000
0013
0001
1000
0000
,  // measure 6
0001
0000
2000
0000
3010
0020
0000
1030
,  // measure 7
0000
0000
1000
0000
0002
0000
0000
0000
0103
0000
0000
0100
0010
0000
0100
0000
,  // measure 8
0001
0000
1001
0000
0001
1000
0100
0000
,  // measure 9
0010
1000
0010
0100
2000
0000
3010
0000
,  // measure 10
4000
0100
0000
0100
0000
0001
0000
3001
,  // measure 11
0004
0100
0000
0100
0000
1000
0000
2003
,  // measure 12
3020
0030
0020
0030
0001
0100
1000
0000
,  // measure 13
0010
0001
0010
0100
0002
0000
0013
0000
,  // measure 14
0004
0010
0000
0010
0000
1000
0000
1003
,  // measure 15
4000
0010
0000
0010
0000
0001
0000
3001
,  // measure 16
1001
0000
1000
0010
0100
0010
1000
0002
,  // measure 17
0000
0013
0010
0001
1000
0100
1000
0002
,  // measure 18
0000
0023
0000
0230
0000
2300
0000
3000
,  // measure 19
2000
3020
0230
0302
,  // measure 20
1003
0000
0001
0001
1000
0010
1000
0200
,  // measure 21
0000
0000
0310
0010
0001
1000
0001
0011
,  // measure 22
0000
0001
0000
0100
0000
0020
0000
0000
,  // measure 23
0130
0000
0100
0000
0001
0000
2000
0000
0000
0000
0000
3100
0010
0000
0100
0000
,  // measure 24
2000
0000
3010
00M0
0002
0000
0013
00M0
,  // measure 25
1000
0010
1000
0020
0000
1030
0010
0100
,  // measure 26
0002
0000
0013
00M0
2000
0000
3010
00M0
,  // measure 27
0001
0010
1000
0010
0001
0010
1000
0010
,  // measure 28
0002
0000
0103
0M00
2000
0000
3100
0M00
,  // measure 29
0001
0100
0001
0200
0000
0301
0100
0110
,  // measure 30
0000
1010
0000
1100
0000
0100
1000
0100
,  // measure 31
0010
0100
1000
0002
0000
1003
0010
0100
,  // measure 32
0101
0000
2000
0000
3020
0000
0030
0200
,  // measure 33
0000
0310
2000
0000
3100
1000
0001
0000
,  // measure 34
0101
0000
0200
0000
0310
0020
0000
2030
,  // measure 35
0000
0000
3001
0000
0020
0000
0000
0000
0130
0000
0000
0010
0001
0000
1000
0000
,  // measure 36
1100
0000
2000
0000
3002
0000
0003
0200
,  // measure 37
0000
0310
0001
0000
0010
0100
0010
0000
,  // measure 38
1000
0000
0200
0000
0310
0020
0000
2030
,  // measure 39
0000
0000
3010
0000
0002
0000
0000
0000
1003
0000
0000
1000
0010
0000
0100
0000
,  // measure 40
0010
0000
0110
0000
1000
0001
0010
0000
,  // measure 41
0100
0001
0100
0010
0002
0000
0103
0000
,  // measure 42
0400
1000
0000
1000
0000
0010
0000
0310
,  // measure 43
0040
0001
0000
0001
0000
0100
0000
0130
,  // measure 44
0002
0000
1003
0000
1000
0100
0010
0000
,  // measure 45
0010
1000
0010
0100
2000
0000
3010
0000
,  // measure 46
0040
0001
0000
0001
0000
0100
0000
0130
,  // measure 47
0400
1000
0000
1000
0000
0010
0000
0310
,  // measure 48
0110
0000
0010
0100
0010
1000
0010
0200
,  // measure 49
0000
0301
0001
0010
0001
1000
0100
2000
,  // measure 50
0000
3020
0000
0230
0000
0302
0000
0003
,  // measure 51
2000
3200
0320
0032
,  // measure 52
1003
0000
1000
1000
0001
0010
0001
0200
,  // measure 53
0000
0000
0310
0010
1000
0100
1000
1100
,  // measure 54
0000
1000
0000
0010
0000
0200
0000
0000
,  // measure 55
0310
0000
1000
0000
0001
0000
0200
0000
0000
0000
0300
0000
0010
0100
0010
0100
,  // measure 56
0020
0000
1030
M000
0200
0000
1300
M000
,  // measure 57
0010
1000
0010
2000
0000
3001
0010
0100
,  // measure 58
0020
0000
0031
000M
0200
0000
0301
000M
,  // measure 59
0110
0000
0000
0000
0110
0000
0000
0000
0110
0000
0000
0001
1000
0000
0010
0000
,  // measure 60
0200
0000
1300
M000
0020
0000
1030
M000
,  // measure 61
0100
0001
0100
0002
0000
0103
0010
1010
,  // measure 62
0000
0110
0000
0101
0000
0001
1000
0100
,  // measure 63
1000
0000
0010
0000
1000
0000
0002
0000
0000
0000
0000
1003
0010
0000
0100
0000
,  // measure 64
0110
0000
0002
0000
0203
0000
0300
0020
,  // measure 65
0000
0130
0002
0000
0013
0001
1000
0000
,  // measure 66
1010
0000
0020
0000
0130
0200
0000
0302
,  // measure 67
0000
0000
1003
0000
0200
0000
0000
0000
0310
0000
0000
0100
1000
0000
0001
0000
,  // measure 68
0011
0000
0002
0000
2003
0000
3000
0020
,  // measure 69
0000
0130
1000
0000
0100
0010
0100
0000
,  // measure 70
0001
0000
0020
0000
0130
0200
0000
0302
,  // measure 71
0000
0000
0103
0000
2000
0000
0000
0000
3001
0000
0000
0001
1000
0000
0100
0000
,  // measure 72
1100
0000
0000
0000
;
