#VERSION:0.83;
#TITLE:Wake Up;
#SUBTITLE:;
#ARTIST:Meet Me @ The Altar;
#TITLETRANSLIT:;
#SUBTITLETRANSLIT:;
#ARTISTTRANSLIT:;
#GENRE:;
#ORIGIN:;
#CREDIT:;
#BANNER:Wake Up.png;
#BACKGROUND:Wake Up-bg.png;
#PREVIEWVID:;
#JACKET:Wake Up-jacket.png;
#CDIMAGE:;
#DISCIMAGE:;
#LYRICSPATH:;
#CDTITLE:;
#MUSIC:Wake Up.ogg;
#OFFSET:1.141441;
#SAMPLESTART:49.477688;
#SAMPLELENGTH:15.000008;
#SELECTABLE:YES;
#BPMS:0.000=128.000;
#STOPS:;
#DELAYS:;
#WARPS:;
#TIMESIGNATURES:0.000=4=4;
#TICKCOUNTS:0.000=4;
#COMBOS:0.000=1;
#SPEEDS:0.000=1.000=0.000=0;
#SCROLLS:0.000=1.000;
#FAKES:;
#LABELS:0.000=Song Start;
#BGCHANGES:;
#KEYSOUNDS:;
#ATTACKS:
;

//---------------dance-single - ----------------
#NOTEDATA:;
#CHARTNAME:;
#STEPSTYPE:dance-single;
#DESCRIPTION:;
#CHARTSTYLE:;
#DIFFICULTY:Challenge;
#METER:16;
#RADARVALUES:0.602450,0.707317,0.314713,0.031471,0.944138,536.000000,496.000000,40.000000,4.000000,0.000000,0.000000,0.000000,0.000000,0.000000,0.602450,0.707317,0.314713,0.031471,0.944138,536.000000,496.000000,40.000000,4.000000,0.000000,0.000000,0.000000,0.000000,0.000000;
#CREDIT:Daniel Van Eden;
#NOTES:
0000
0000
0000
0000
,
0000
0000
0000
0000
,
0000
0000
0000
0000
,
0000
0000
0000
0000
,
0000
0000
0000
0000
,
0000
0000
0000
0000
,
0000
0000
0000
0000
,
0000
0000
0000
0000
,
0000
0000
0000
0000
,
0000
0000
0000
0000
,
0000
0000
0000
0000
0000
0000
0000
0000
1000
0001
0000
0010
0000
0110
0000
1001
,
0000
1000
0001
0000
0100
0000
0000
0000
0020
0100
0100
0000
1030
0100
0000
1100
,
0000
0000
1000
0000
0100
0000
0000
0000
0010
0000
0000
0000
0001
0000
1000
0010
1000
0000
0001
0000
0000
0000
1000
0000
0010
0000
0100
0000
0000
0000
0101
0000
,
0000
0100
0001
0000
0010
0000
1000
0000
0010
0100
0010
0000
0001
1000
0000
1010
,
0000
0000
0010
0000
0100
0000
0000
0000
0010
0000
0000
0000
1000
0000
0001
0010
0001
0000
1000
0000
0000
0000
0001
0000
0100
0000
0010
0000
0000
0000
1010
0000
,
0000
1000
0001
0000
0010
0000
0000
0000
0100
1000
0010
0000
1000
0001
0000
1001
,
0000
0000
1000
0000
0010
0000
0000
0000
0001
0000
0000
0000
0010
0000
0100
0010
0100
0000
0001
0000
0000
0000
1000
0000
0100
0000
0010
0000
0000
0000
0011
0000
,
0000
0001
1000
0000
0010
0000
0010
0000
0100
0001
0010
0000
0001
1000
0000
1001
,
0000
0000
1000
0000
0100
0000
0000
0000
0001
0000
0000
0000
0100
0000
0010
0100
0010
0000
0001
0000
0000
0000
0011
0000
0000
0000
2010
0000
0000
0000
0000
0000
,
3001
0100
0001
1000
0000
0000
1000
0001
1000
0100
0000
0000
0100
1000
0100
0010
,
0000
0000
0010
0100
0010
1000
0000
0000
1000
0010
0001
0000
1000
0100
0001
0000
,
0100
0010
0100
1000
0000
0000
1000
0100
1000
0010
0000
0000
0010
1000
0010
0100
,
0000
0000
0100
0010
0100
0001
0000
0000
0001
0100
1000
0000
1000
0100
0001
0000
,
1000
0100
1000
0001
0000
0000
0001
1000
0001
0100
0000
0000
0100
0001
0100
0010
,
0000
0000
0010
0100
0010
0001
0000
0000
0001
0010
1000
0000
0001
0100
1000
0000
,
0100
0010
0100
0001
0000
0000
0001
0100
0001
0010
0000
0000
0010
0001
0010
0100
,
0000
0000
0100
0010
0100
1000
0000
0000
0001
0100
0010
1000
0001
0010
0100
1000
,
0001
0000
0000
0001
0010
0100
0000
0100
0010
0000
0011
0000
0101
0000
0000
0110
,
0000
0010
0100
0010
1000
0001
0000
0001
0010
0100
0010
0001
1000
0001
0010
0100
,
1000
0000
0000
1000
0010
0100
0000
0100
0010
0000
1010
0000
1100
0000
0000
0110
,
0000
0000
0000
0100
0000
0000
1000
0000
0000
0001
0000
0000
1000
0000
0000
0000
0000
0000
0001
0000
0100
0000
0010
0000
1000
0000
0000
0000
0000
0000
0001
0000
0000
1000
0000
0000
0001
0000
0000
0000
0000
0000
1000
0000
0100
0000
0010
0000
,
0001
0000
0000
0001
1000
0010
0000
0010
0100
0000
0110
0000
0101
0000
0000
1010
,
0000
0010
0100
0001
0010
0001
0000
0001
0100
0010
0100
0001
1000
0010
0100
0001
,
1000
0000
0000
1000
0001
0010
0000
0010
0100
0000
0110
0000
1100
0000
0000
0011
,
0000
0000
0000
0001
0000
0000
1000
0000
0000
0010
0000
0000
1000
0000
0000
0000
0000
0000
0010
0000
1000
0000
0001
0000
0100
0000
0000
0000
0000
0000
0001
0000
0000
0010
0000
0000
0001
0000
0000
0000
0000
0000
0010
0000
0001
0000
1000
0000
,
0100
0000
0010
0100
0000
1000
0100
0000
0100
0000
1000
0100
0000
0001
0100
0000
,
0010
0000
0001
0100
0000
0010
0100
0000
0100
0000
0001
0100
0000
1000
0100
0000
,
0001
0000
1000
0010
0100
0001
1000
0000
0001
0000
0010
0001
0010
0100
1000
0001
,
1001
0000
0000
0000
0000
0000
0000
0000
0000
0000
0000
0010
0100
0000
0010
0000
,
1001
0000
1000
0100
1000
0000
0001
0000
1000
0010
0000
0100
0001
0000
1000
0001
,
1000
0100
0000
0010
0001
0000
0010
0100
0010
0001
0000
1000
0100
0000
1000
0000
,
1001
0000
0001
0100
0001
0000
1000
0000
0001
0100
0000
0010
1000
0000
0001
1000
,
0001
0010
0000
0100
1000
0000
0010
0100
0010
1000
0000
0001
0100
0000
0001
0000
,
0010
0000
0000
0000
0000
0000
0000
0000
0000
0000
0000
0000
0000
0000
0000
0000
0100
0000
0000
0000
0000
0000
0000
0000
0000
0000
0000
0000
0000
0000
0000
0000
1000
0000
0000
0000
0000
0000
0000
0000
0000
0000
0000
0000
0000
0000
0000
0000
0010
0000
0000
0000
0000
0000
0000
0000
1000
0000
0000
0000
0000
0000
0000
0000
0100
0000
0000
0000
0000
0000
0000
0000
0010
0000
0000
0000
0000
0000
0000
0000
0001
0000
0000
0000
0000
0000
0000
0000
1000
0000
0000
0000
0000
0000
0000
0000
0001
0000
0000
0000
0000
0000
0000
0000
0000
0000
0000
0000
0010
0000
0000
0000
0000
0000
0000
0000
0000
0000
0000
0000
0000
0000
0000
0000
0000
0000
0000
0000
0000
0000
0000
0000
0100
0000
0000
0000
0000
0000
0000
0000
0000
0000
0000
0000
0001
0000
0000
0000
0000
0000
0000
0000
0000
0000
0000
0000
0000
0000
0000
0000
0000
0000
0000
0000
0000
0000
0000
0000
0100
0000
0000
0000
0000
0000
0010
0000
0000
0000
0000
0000
0100
0000
0000
0000
0000
0000
0010
0000
0000
0000
0000
0000
,
0100
1000
0000
0010
0100
0000
1000
0100
0010
1000
0000
0001
0010
0000
0100
0000
,
1000
0000
0010
1000
0010
0000
0100
0000
0001
0000
1000
0000
0100
0000
0010
0000
0001
0000
1000
0000
0000
0000
0010
0000
0100
0000
0000
0000
1000
0000
0100
0000
,
0010
1000
0000
0001
0010
0000
0100
0010
0100
0001
0000
0100
1000
0000
0001
0000
,
1001
0000
0000
1000
0010
1000
0000
1000
0100
0000
0110
0000
0011
0000
0000
0101
,
0000
0100
0001
0100
1000
0100
0000
0100
0010
1000
0001
0010
1000
0010
0001
0100
,
0001
0000
0000
0001
0010
0001
0000
0001
0100
0000
0110
0000
1010
0000
0000
1100
,
0000
0000
0000
0100
0000
0000
0001
0000
0000
0100
0000
0000
0010
0000
0000
0000
0000
0000
0010
0000
0001
0000
1000
0000
0010
0000
0000
0000
0000
0000
0100
0000
0000
0001
0000
0000
0010
0000
0000
0000
0000
0000
0010
0000
0001
0000
1000
0000
,
0010
0000
0000
0010
0100
0001
0000
0001
1000
0000
1010
0000
1100
0000
0000
0011
,
0000
0010
0001
0010
1000
0010
0000
0010
0100
1000
0001
0100
1000
0100
0001
0010
,
0100
0000
0000
0100
1000
0010
0000
0010
0100
0000
0101
0000
0011
0000
0000
1100
,
0000
0000
0000
0100
0000
0000
0001
0000
0000
0100
0000
0000
0010
0000
0000
0000
0000
0000
0010
0000
0100
0000
1000
0000
0001
0000
0000
0000
0000
0000
1000
0000
0000
0001
0000
0000
0100
0000
0000
0000
0000
0000
0000
0000
0000
0000
0000
0000
,
0000
0000
2002
0000
,
0000
0000
0000
0000
,
0000
0000
0000
0000
,
3003
0000
0000
0000
;

//---------------dance-single - ----------------
#NOTEDATA:;
#CHARTNAME:;
#STEPSTYPE:dance-single;
#DESCRIPTION:;
#CHARTSTYLE:;
#DIFFICULTY:Hard;
#METER:14;
#RADARVALUES:0.493425,0.570417,0.125885,0.070810,0.664831,439.000000,423.000000,16.000000,9.000000,0.000000,0.000000,0.000000,0.000000,0.000000,0.493425,0.570417,0.125885,0.070810,0.664831,439.000000,423.000000,16.000000,9.000000,0.000000,0.000000,0.000000,0.000000,0.000000;
#CREDIT:Daniel Van Eden;
#NOTES:
0000
0000
0000
0000
,
0000
0000
0000
0000
,
0000
0000
0000
0000
,
0000
0000
0000
0000
,
0000
0000
0000
0000
,
0000
0000
0000
0000
,
0000
0000
0000
0000
,
0000
0000
0000
0000
,
0000
0000
0000
0000
,
0000
0000
0000
0000
,
0000
0000
0000
0000
0000
0000
0000
0000
0001
1000
0000
0100
0000
0010
0000
0001
,
0000
0001
1000
0000
0100
0000
0000
0000
2000
0000
0000
0000
3010
0100
0000
0010
,
0000
0010
1000
0000
0010
0000
1000
0001
1000
0001
0000
0010
0000
0100
0000
1000
,
0000
1000
0001
0000
0010
0000
0001
0000
1000
0000
0010
0000
0100
0010
0000
0100
,
0000
0100
0001
0000
0010
0000
0001
1000
0001
1000
0000
0010
0000
0100
0000
0001
,
0000
0001
1000
0000
0100
0000
0000
0000
0010
0000
0100
0000
1000
0001
0000
0010
,
0000
0010
0001
0000
1000
0000
0100
0010
0100
0010
0000
0001
0000
1000
0000
0010
,
0000
0010
1000
0000
0001
0000
0100
0000
0001
0000
0010
0000
0001
1000
0000
0010
,
0000
0010
1000
0000
0001
0000
0010
0100
1000
0001
0000
0010
0000
0010
0000
0000
,
0001
0100
0001
0100
0000
0000
0010
1000
0010
1000
0000
0000
0001
0010
0001
0010
,
0000
0000
0100
1000
0100
1000
0000
0000
0010
1000
0010
0000
1000
0010
1000
0000
,
0100
1000
0100
1000
0000
0000
0001
0010
0001
0010
0000
0000
0001
0100
0001
0100
,
0000
0000
0010
1000
0010
1000
0000
0000
0100
1000
0001
0000
0100
0001
1000
0000
,
0010
0100
0010
0100
0000
0000
0001
1000
0001
1000
0000
0000
0100
0010
0100
0010
,
0000
0000
0001
1000
0001
1000
0000
0000
0001
0100
0001
0000
1000
0010
1000
0000
,
0100
0010
0100
0010
0000
0000
0001
1000
0001
1000
0000
0000
0010
0100
0010
0100
,
0000
0000
0001
1000
0001
1000
0000
0000
0001
0010
0100
1000
0100
0010
0001
1000
,
0001
0000
0100
0000
0001
0010
0000
0010
0001
0000
1000
0000
0010
0000
0000
1010
,
0000
0000
0010
0000
1000
0100
0000
0100
1000
0000
0001
0000
0010
0000
0100
0000
,
1000
0000
0100
0000
1000
0010
0000
0010
1000
0000
0001
0000
0010
0000
0000
0011
,
0000
0000
0001
0100
0001
0000
0100
0010
1000
0000
0010
1000
0010
0000
1000
0001
,
0100
0000
0000
0010
1000
0000
0001
0000
1000
0000
0100
0000
0100
0000
0110
0000
,
0000
0010
0001
0000
0100
0010
0000
0010
0100
0000
0001
1000
0001
0000
0100
0000
,
0010
0000
0000
0100
0001
0000
1000
0000
0001
0000
0010
0000
0100
0000
0010
0000
,
0001
0100
0000
0010
0100
0000
0001
0010
0001
0000
0010
0100
1000
0000
0001
1000
,
0002
0000
0000
0100
0000
0000
0103
0000
2000
0000
0000
0100
0000
0000
3100
0000
,
0010
0100
0000
0010
0200
0000
0310
0000
0020
0000
0000
0001
0000
0000
0031
0000
,
0001
0000
0001
0000
1000
0000
1000
0000
0010
0000
0010
0000
0100
0001
1000
0100
,
0010
0000
0000
0000
0000
0000
0000
0000
0000
0000
0000
0010
0100
0000
1000
0000
,
1001
0000
0001
0010
0001
0000
1000
0000
0001
0100
0000
0001
0010
0000
0001
0000
,
1000
0100
0000
1000
0001
0000
1000
0000
0010
1000
0000
0001
0100
0000
0010
0000
,
1010
0000
1000
0100
1000
0000
0001
0000
1000
0100
0000
1000
0010
0000
1000
0000
,
0001
0100
0000
0001
1000
0000
0001
0000
0010
0001
0000
1000
0100
0000
1000
0000
,
0002
0000
0000
0000
2003
0000
0000
0000
3100
0010
0000
0100
1000
0000
0001
0000
,
0100
0010
0000
0100
0001
0000
0100
0000
0010
1000
0000
0001
0010
0000
0100
0000
,
1000
0100
1000
0100
0010
0001
1000
0001
1000
0010
0000
0100
0010
0000
1000
0000
,
0001
0010
0000
0100
0010
0000
0001
0000
1000
0100
0000
0010
0001
0000
1000
0000
,
1001
0000
0000
1000
0010
1000
0000
1000
0001
0000
0100
0000
0010
0000
0000
0110
,
0000
0100
0001
0000
1000
0010
0000
0010
1000
0000
0001
0000
0010
0001
0000
0001
,
1000
0000
0000
0001
0010
0001
0000
0001
1000
0000
0010
0000
0100
0000
0000
0100
,
0001
0011
0010
0110
1000
1010
0010
0110
,
1001
0000
0000
0001
0100
0001
0000
0001
1000
0000
0010
0000
0100
0000
0000
0110
,
0000
0010
1000
0000
0001
0100
0000
0100
0001
0000
1000
0000
0100
1000
0000
1000
,
0010
0000
0000
1010
0000
0000
0101
0000
0001
0000
1000
0000
0010
0000
1000
0000
,
0001
0010
0000
0100
1000
0000
0001
0100
0010
0000
0010
1000
0001
0000
0000
0000
,
0000
0000
2002
0000
,
0000
0000
0000
0000
,
0000
0000
0000
0000
,
3003
0000
0000
0000
;

//---------------dance-single - ----------------
#NOTEDATA:;
#CHARTNAME:;
#STEPSTYPE:dance-single;
#DESCRIPTION:;
#CHARTSTYLE:;
#DIFFICULTY:Medium;
#METER:10;
#RADARVALUES:0.331572,0.387884,0.062943,0.149489,0.129819,295.000000,287.000000,8.000000,19.000000,0.000000,0.000000,0.000000,0.000000,0.000000,0.331572,0.387884,0.062943,0.149489,0.129819,295.000000,287.000000,8.000000,19.000000,0.000000,0.000000,0.000000,0.000000,0.000000;
#CREDIT:Daniel Van Eden;
#NOTES:
0000
0000
0000
0000
,
0000
0000
0000
0000
,
0000
0000
0000
0000
,
0000
0000
0000
0000
,
0000
0000
0000
0000
,
0000
0000
0000
0000
,
0000
0000
0000
0000
,
0000
0000
0000
0000
,
0000
0000
0000
0000
,
0000
0000
0000
0000
,
0000
0000
0000
0000
,
0000
0000
0000
0000
1000
0000
0000
0000
0020
0000
0000
0000
1030
0000
0000
0100
,
0000
0000
0100
0000
1000
0000
0010
0000
1000
0000
0001
0000
0100
0000
0000
0001
,
0000
0001
0010
0001
0010
0100
1000
0000
,
0001
0000
0010
0000
1000
0000
0010
0000
0001
0000
1000
0000
0001
0000
0000
0100
,
0000
0000
0100
0000
0010
0000
0000
0000
1000
0000
0010
0000
1000
0000
0000
0001
,
0000
0000
0001
0000
1000
0000
1000
0000
0001
0000
0010
0000
0100
0000
0000
0010
,
0000
0010
0001
0100
0001
1000
0010
0100
,
1000
0100
0001
1000
0100
0010
0001
0000
,
2001
0000
0000
0010
0000
0000
0010
0000
0000
0100
0000
0000
0100
0000
0000
3001
,
0000
0000
0002
0000
0000
0013
0000
0000
0020
0000
0130
0000
0200
0000
0310
0000
,
0020
0000
0000
0001
0000
0000
0001
0000
0000
1000
0000
0000
1000
0000
0000
0130
,
0000
0000
0200
0000
0000
1300
0000
0000
1000
0000
0010
0000
0001
0000
0010
0000
,
0200
0000
0000
0010
0000
0000
0010
0000
0000
1000
0000
0000
1000
0000
0000
0301
,
0000
0000
0002
0000
0000
0013
0000
0000
0020
0000
0130
0000
0200
0000
0310
0000
,
0020
0000
0000
0031
0000
0000
0002
0000
0000
0103
0000
0000
0200
0000
0000
0310
,
0000
0000
0020
0000
0000
1030
0000
0000
1000
0000
0010
0000
0100
0000
0001
0000
,
1000
0000
0010
0000
0010
0000
1000
0000
0001
0000
1000
0000
0100
0000
0000
0010
,
0000
0010
0001
1000
1000
0001
0010
0100
,
1000
0000
0001
0000
0001
0000
1000
0000
1000
0000
0010
0000
0100
0000
0000
0100
,
0000
0010
0100
0010
0100
0000
1010
0000
,
0011
0000
0000
0010
0000
0000
0001
0000
1000
0000
0001
0000
0100
0000
0000
0010
,
0000
0010
1000
0001
0001
0010
0100
0000
,
1000
0000
0000
0001
0000
0000
1000
0000
0010
0000
1000
0000
0100
0000
0000
0000
,
0010
0000
0000
0010
0000
0000
0010
0000
0001
0000
0000
0000
1001
0000
0000
0000
,
1000
0000
0000
0100
0000
0000
0100
0000
0100
0000
0000
0100
0000
0000
1000
0000
,
0001
0000
0000
0100
0000
0000
0100
0000
0100
0000
0000
0100
0000
0000
0100
0000
,
0001
1000
0001
1000
0100
0010
0100
0010
,
0001
0000
0000
1001
,
0001
0100
0001
0100
0010
0100
0001
1000
,
0100
0010
0100
0010
0001
1000
0010
1000
,
0100
1000
0100
1000
0001
0010
0001
0010
,
0001
1000
0001
1000
0010
1000
0010
0100
,
0020
0000
0000
0000
1030
0001
1000
0001
,
0010
0001
1000
0001
0010
0100
1000
0001
,
0200
0000
0000
0000
0310
1000
0010
1000
,
0001
0100
0010
0100
0001
1000
0100
0010
,
0001
1000
1000
0100
0100
0010
0100
0000
,
1000
0001
0001
0100
0100
0010
0100
0001
,
1000
0010
0010
0100
0100
0001
1000
0000
,
0100
0001
0100
1000
0100
0001
0100
1000
,
0010
1000
1000
0001
0001
0010
0001
0000
,
0010
0100
0100
0010
0010
0001
1000
0010
,
1000
0000
0000
0100
0000
0000
0010
0000
0000
0000
1001
0000
0000
0000
0001
0000
,
0010
0000
0000
0010
0000
0000
0010
0000
0000
0000
0000
0000
0110
0000
0000
0000
,
0000
0000
2002
0000
,
0000
0000
0000
0000
,
0000
0000
0000
0000
,
3003
0000
0000
0000
;

//---------------dance-single - ----------------
#NOTEDATA:;
#CHARTNAME:;
#STEPSTYPE:dance-single;
#DESCRIPTION:;
#CHARTSTYLE:;
#DIFFICULTY:Easy;
#METER:7;
#RADARVALUES:0.232663,0.319434,0.102282,0.165224,0.007868,207.000000,194.000000,13.000000,21.000000,0.000000,0.000000,0.000000,0.000000,0.000000,0.232663,0.319434,0.102282,0.165224,0.007868,207.000000,194.000000,13.000000,21.000000,0.000000,0.000000,0.000000,0.000000,0.000000;
#CREDIT:Daniel Van Eden;
#NOTES:
0000
0000
0000
0000
,
0000
0000
0000
0000
,
0000
0000
0000
0000
,
0000
0000
0000
0000
,
0000
0000
0000
0000
,
0000
0000
0000
0000
,
0000
0000
0000
0000
,
0000
0000
0000
0000
,
0000
0000
0000
0000
,
0000
0000
0000
0000
,
0000
0000
0000
0000
,
0000
1000
0002
0013
,
0100
0000
1000
0000
0010
1000
0010
0000
,
1000
0000
0100
0000
0010
0001
0010
0000
,
0100
0000
1000
0000
0001
1000
0001
0000
,
0000
1001
0001
1000
,
0010
0000
0100
0000
0001
0100
0001
0000
,
0010
0000
0100
0000
1000
0100
1000
0000
,
0010
0000
0010
0000
0010
0100
0010
0000
,
2000
0000
0000
3002
0000
0000
0023
0000
,
0000
0230
0000
0000
1300
0000
1000
0000
,
0002
0000
0000
2003
0000
0000
3020
0000
,
0000
0230
0000
0000
0301
1000
0001
1000
,
0002
0000
0000
2003
0000
0000
3200
0000
,
0000
0320
0000
0000
0031
0000
0001
0000
,
2000
0000
0000
3002
0000
0000
0203
0000
,
0000
0320
0000
0000
1030
0000
0100
0000
,
0011
0000
0001
0000
1000
0010
1000
0000
,
0001
0010
0100
1000
,
1100
0000
1000
0000
0001
0100
0001
0000
,
1000
0010
0110
1001
,
0001
0000
0010
0000
0100
0000
1000
0001
,
0000
0001
1000
0000
0010
0000
0100
0000
,
0001
1000
0100
0010
,
0100
0000
0000
0100
0000
0000
0100
0000
0000
0000
0000
0000
1001
0000
0000
0000
,
0001
0010
0010
0001
,
0001
1000
1000
0010
,
0100
0000
0010
0000
1000
0001
1000
0001
,
1000
0000
0000
1001
,
0001
0010
0001
0000
1000
0010
1000
0000
,
0001
1000
0001
0000
1000
0100
1000
0000
,
0001
0100
0001
0000
1000
0100
1000
0000
,
0001
1000
0001
0000
1000
0010
1000
0000
,
0002
0000
0000
0000
0013
0100
0010
0000
,
0100
1000
0100
0000
1000
0001
1000
0000
,
0020
0000
0000
0000
0130
0001
0100
0000
,
0001
1000
0001
0000
0010
0001
0010
0000
,
0100
0000
1000
0000
0001
1000
0001
0000
,
0100
0000
0010
0000
1000
0010
1000
0000
,
0001
0000
0010
0000
0100
0010
0100
0000
,
0000
0110
0000
0110
0000
1001
0000
1001
,
0000
0000
1000
0000
0100
1000
0100
0000
,
1000
0000
0001
0000
0010
0100
0010
0000
,
0001
1000
0010
1000
,
0100
0000
0000
0100
0000
0000
0100
0000
0000
0000
0000
0000
0110
0000
0000
0000
,
0000
0000
2002
0000
,
0000
0000
0000
0000
,
0000
0000
0000
0000
,
3003
0000
0000
0000
;

//---------------dance-single - ----------------
#NOTEDATA:;
#CHARTNAME:;
#STEPSTYPE:dance-single;
#DESCRIPTION:;
#CHARTSTYLE:;
#DIFFICULTY:Beginner;
#METER:5;
#RADARVALUES:0.152861,0.205350,0.078678,0.031471,0.000000,136.000000,126.000000,10.000000,4.000000,0.000000,0.000000,0.000000,0.000000,0.000000,0.152861,0.205350,0.078678,0.031471,0.000000,136.000000,126.000000,10.000000,4.000000,0.000000,0.000000,0.000000,0.000000,0.000000;
#CREDIT:Daniel Van Eden;
#NOTES:
// measure 0
0000
0000
0000
0000
,  // measure 1
0000
0000
0000
0000
,  // measure 2
0000
0000
0000
0000
,  // measure 3
0000
0000
0000
0000
,  // measure 4
0000
0000
0000
0000
,  // measure 5
0000
0000
0000
0000
,  // measure 6
0000
0000
0000
0000
,  // measure 7
0000
0000
0000
0000
,  // measure 8
0000
0000
0000
0000
,  // measure 9
0000
0000
0000
0000
,  // measure 10
0000
0000
0000
0000
,  // measure 11
0000
1000
2002
3003
,  // measure 12
0001
0010
0001
0000
,  // measure 13
1000
0001
1000
0000
,  // measure 14
1000
1000
0010
0010
,  // measure 15
0000
0100
0110
0000
,  // measure 16
0010
0100
0010
0000
,  // measure 17
1000
0001
1000
0000
,  // measure 18
0001
0001
0010
0010
,  // measure 19
0100
0000
0000
0100
0000
0000
0100
0000
,  // measure 20
0000
0100
0000
0000
0010
0000
0010
0000
,  // measure 21
0100
0000
0000
0100
0000
0000
0100
0000
,  // measure 22
0000
0100
0000
0000
1000
0000
1000
0000
,  // measure 23
0010
0000
0000
0010
0000
0000
0010
0000
,  // measure 24
0000
0010
0000
0000
0100
0000
0100
0000
,  // measure 25
0010
0000
0000
0010
0000
0000
0010
0000
,  // measure 26
0000
0010
0000
0000
1000
0000
0001
0000
,  // measure 27
1001
0000
0001
0000
,  // measure 28
0010
0010
0010
0000
,  // measure 29
0100
0000
1000
0000
,  // measure 30
0010
0100
0010
0100
,  // measure 31
0110
0000
0100
0000
,  // measure 32
0001
0001
0001
0000
,  // measure 33
1000
0000
0100
0000
,  // measure 34
0010
0010
0010
0000
,  // measure 35
1000
0000
0001
0000
,  // measure 36
0010
0000
0001
0000
,  // measure 37
1000
0000
0010
0010
,  // measure 38
0010
0000
0000
0000
,  // measure 39
1001
0000
1000
1000
,  // measure 40
0001
0001
0010
0000
,  // measure 41
0110
0000
0100
0100
,  // measure 42
1000
1000
0001
0000
,  // measure 43
1000
0000
1001
0000
,  // measure 44
0001
0100
0001
0000
,  // measure 45
1000
0000
1001
0000
,  // measure 46
1000
0100
1000
0000
,  // measure 47
0010
0010
0100
0000
,  // measure 48
0010
0010
1000
0000
,  // measure 49
0100
0100
0010
0000
,  // measure 50
0001
1000
0001
1000
,  // measure 51
0001
0001
0100
0000
,  // measure 52
1000
1000
0100
0000
,  // measure 53
0001
0010
0001
0000
,  // measure 54
1000
1000
0001
1001
,  // measure 55
0000
0000
2002
0000
,  // measure 56
0000
0000
0000
0000
,  // measure 57
0000
0000
0000
0000
,  // measure 58
3003
0000
0000
0000
;
