#TITLE:WORD@RT;
#SUBTITLE:;
#ARTIST:Z-I-v SOUND TEAM "Kaystar";
#TITLETRANSLIT:;
#SUBTITLETRANSLIT:;
#ARTISTTRANSLIT:;
#GENRE:;
#CREDIT:KAYSTAR;
#MUSIC:word art.ogg;
#BANNER:word art bn.png;
#BACKGROUND:word art bg.png;
#CDTITLE:;
#SAMPLESTART:19.259;
#SAMPLELENGTH:10.000;
#SELECTABLE:YES;
#OFFSET:0.000;
#BPMS:0.000=162.000
,89.250=81.000
,89.500=40.500
,89.750=162.000
;
#STOPS:50.000=0.370
,112.000=0.370
,215.000=0.370
;
#DISPLAYBPM:162.000;
#BGCHANGES:19.896=word art.avi=1.000=0=0=1===CrossFade_Fastest==,
252.000=word art bg.png=1.000=0=0=1,
99999.000=-nosongbg-=1.000=0=0=0=StretchNoLoop====
;
#FGCHANGES:;

//--------------- dance-single - KAYSTAR ----------------
#NOTES:
     dance-single:
     KAYSTAR:
     Beginner:
     3:
     0,0,0,0,0:
0000
0000
0000
0000
,
0000
0000
0000
0000
,
0000
0000
0000
0000
,
0000
0000
0000
0000
,
0000
0000
0000
0000
,
1000
0000
1000
0000
,
0001
0000
0001
0000
,
0100
0000
0100
0000
,
0010
0000
0010
0000
,
0200
0000
0000
0000
,
0300
0000
0000
0000
,
0002
0000
0000
0000
,
0003
0000
0000
1000
,
0000
0100
0100
0000
,
0000
1000
0000
0001
,
0000
0100
0100
0000
,
0000
0010
0010
0010
,
0000
1000
1000
0000
,
0000
0001
0000
0010
,
0000
0001
0001
0000
,
0000
1001
0000
1000
,
0000
1000
0000
0000
1000
0000
0000
1000
,
0000
0000
0000
0000
0001
0000
0000
0001
,
0000
0000
0001
0000
0000
0001
0000
0000
,
0000
0000
0100
0000
,
0100
0000
0100
0000
,
0100
0000
0100
0100
,
0100
0100
0100
0100
,
0000
0002
0000
0000
,
0000
0003
0000
0000
,
0000
0020
0000
0000
,
0000
0030
0000
0000
,
0000
0200
0000
0000
,
0000
0300
0000
0000
,
0000
2000
0000
0000
,
0000
3000
0000
0000
,
0000
0001
0000
0000
,
0000
0000
0000
0100
,
0000
0010
0000
0000
,
0000
0000
0000
1000
,
0000
0100
0000
0100
,
0000
0010
0000
0010
,
0000
0000
0000
0000
,
0000
0000
0000
0000
,
0000
0001
0000
0010
,
0010
0000
0000
0100
,
0100
0100
0000
0000
,
1000
0000
0000
1000
0000
0000
0010
0000
,
0010
0010
0000
0100
,
0100
0000
0000
0001
,
0001
0001
0000
1000
,
0000
1001
0000
1001
,
0000
0020
0000
0000
,
0000
0000
0000
0000
0000
0030
0000
0000
,
0100
0100
0100
0100
,
0100
0100
0100
0100
,
0100
0100
0100
0100
,
0100
0100
0100
0100
,
0100
0100
0100
0100
,
0100
0100
0100
0000
,
1000
0000
0000
1000
0000
0000
0001
0000
,
0000
0001
0000
0000
0100
0000
0100
0000
,
0100
0000
0000
0000
,
1001
0000
0000
0000
;

//--------------- dance-single - KAYSTAR ----------------
#NOTES:
     dance-single:
     KAYSTAR:
     Easy:
     8:
     0,0,0,0,0:
0000
0000
0000
0000
,
0000
0000
0000
0000
,
0000
0000
0000
0000
,
0000
0000
0000
0000
,
0000
0000
0000
0000
,
1000
0000
0000
0010
0000
0000
1000
0000
0001
0000
0000
0010
0000
0000
0001
0000
,
1000
0000
0000
0100
0000
0000
1000
0000
0001
0000
0000
0000
1001
0000
0000
0000
,
1000
0000
0000
0010
0000
0000
1000
0000
0001
0000
0000
0100
0000
0000
0001
0000
,
1000
0000
0000
0100
0000
0000
1000
0000
0001
0000
0000
0000
0000
0000
0000
0000
,
2000
0000
0000
0000
,
3000
0000
0000
0000
,
0020
0000
0000
0000
,
0030
0000
0000
0000
0000
0000
1000
0100
,
0000
0000
1000
0001
0100
0001
0000
1000
,
0000
0000
0001
0100
0001
0100
0010
1000
,
0000
0000
0001
0010
0001
0000
0000
1000
,
0000
0000
0010
0100
0010
0100
0001
0100
,
0000
0000
0001
1000
0100
1000
0000
0001
,
0000
0000
1000
0100
1000
0100
0010
0001
,
0000
0000
1000
0010
0100
0000
0000
0100
,
0000
0000
0001
1000
0001
1000
0100
0000
,
0000
0001
0000
0000
0010
0000
0000
1000
,
0000
0000
0000
0000
0100
0000
0000
1000
,
0000
0000
0010
0000
0000
0001
0000
0000
,
0100
0100
0100
0000
,
0100
0000
0100
0000
,
0100
0000
0100
0100
,
0100
0000
0100
0000
0100
0010
0100
0010
,
0001
0000
2000
0000
0010
0000
0000
3001
,
0000
0000
2000
0000
0010
0000
0000
3001
,
0000
0000
0002
0000
0010
0000
0000
1003
,
0000
0000
0002
0000
0010
0000
0000
1003
,
0000
0000
2000
0000
0100
0000
0000
3001
,
0000
0000
2000
0000
0100
0000
0000
3001
,
0000
0000
0002
0000
0100
0000
0000
1003
,
0000
0000
0001
0000
1000
0010
0000
2000
,
0000
0000
3002
0000
0000
0023
0000
0000
,
0230
0000
0000
2300
0000
0000
3001
1000
,
0010
0000
2000
0000
0000
3020
0000
0000
,
0230
0000
0000
0302
0000
0000
1003
0001
,
0010
0001
0100
0001
,
1000
0002
0023
0230
,
2300
3000
0000
0000
,
0000
0000
0000
0001
,
0001
0000
1000
0010
1000
0000
0001
0000
,
1000
0010
1000
0000
0001
0000
1000
0001
,
1000
0001
1000
0000
0001
0010
0001
0000
,
2000
0000
0100
0000
0000
3001
1000
0001
,
1000
0001
0100
0010
0100
0000
0001
0000
,
0100
0010
1000
0000
0001
0000
0010
0100
,
0010
0100
0010
0000
0001
0000
1000
0000
,
0020
0000
0100
0000
0000
1030
0010
0200
,
0000
0000
0301
0000
0000
0010
0000
0000
,
1000
0000
0000
0100
0000
0000
0001
0000
,
0100
0100
0001
0010
,
0100
0100
1000
0010
,
0100
0001
0100
0000
0010
0000
1000
0100
,
1000
0000
0010
0000
0100
0001
0100
0000
,
0010
1000
0010
0000
0100
0000
1001
0000
,
0001
0010
0100
1000
0001
0010
0100
1000
,
0100
0000
0000
0001
0000
0000
0010
0000
,
0000
1000
0000
0000
0100
0000
0100
0000
,
0110
0000
0000
0000
,
1001
0000
0000
0000
;

//--------------- dance-single - KAYSTAR ----------------
#NOTES:
     dance-single:
     KAYSTAR:
     Medium:
     13:
     0,0,0,0,0:
0000
0000
0000
0000
,
0000
0000
0000
0000
,
0000
0000
0000
0000
,
0000
0000
0000
0000
,
0000
0000
0000
0000
,
0000
0000
0000
0000
,
0000
0000
0000
0000
,
0000
0000
0000
0000
,
0000
0000
0000
0000
,
1200
0000
0000
0001
0000
0310
0001
2000
,
0000
0000
3010
0200
0000
0000
0301
0000
,
0020
0000
0000
1000
0000
0130
1000
0001
,
0100
0010
1000
0010
0100
0000
0001
0001
,
1000
0100
0010
0000
1000
1000
0000
0001
,
0100
0000
0001
1000
0010
0100
0001
0001
,
1000
0100
0010
0000
1000
1000
0000
0010
,
0010
0000
1000
0100
0001
0100
1000
1000
,
0001
0100
0010
0000
0001
0001
0000
1000
,
0100
0000
1000
0001
0010
0100
1000
1000
,
0001
0100
0010
0000
1000
0100
0000
0001
,
0100
0000
0000
0000
1000
0000
0010
0000
0100
0000
0001
0000
1000
0100
0010
0000
,
0000
0000
1000
0100
0010
0000
0000
0000
1000
0100
0010
0000
0000
0000
1000
0100
,
0010
0000
0000
0000
2000
0000
0000
0000
3001
0100
0010
0000
0000
0000
0001
0100
,
0010
0000
0000
0000
0001
0100
0010
0000
0000
0000
0001
0100
0010
0000
0000
0000
,
0001
0000
0000
0000
0000
0000
0000
0000
0000
0000
0000
0000
1000
0000
0000
0000
0100
0000
0000
0000
0010
0000
0000
0000
0001
0000
0000
0000
0000
0000
0000
0000
0000
0000
0000
0000
0100
0000
0000
0001
0000
0000
0000
0000
0000
0000
0000
0000
,
1000
0000
0000
0000
0100
1000
0000
0000
0001
0000
0000
0000
0010
0001
0000
0001
,
1000
0000
0000
0000
0010
1000
0000
0000
1001
0000
0000
0000
0101
0000
0000
0000
,
1001
0000
1100
0000
1000
0100
0001
0010
,
1000
0000
0001
0100
0010
0100
0001
0010
,
0000
0000
1000
0010
0100
0010
1000
0100
,
0000
0000
0001
0010
0100
0010
0001
0100
,
0000
0000
1000
0100
0010
0100
1000
0010
,
0000
0000
0001
0100
0010
1000
0100
0010
,
0000
0000
1000
0010
0100
0001
0010
0100
,
0000
0000
0001
0100
0010
0001
0010
0100
,
0000
0000
1000
0100
0010
1000
0010
0100
,
2000
0000
3100
0010
0001
0100
0010
0100
,
0001
0010
0100
0010
0001
0100
0010
1000
,
0001
0000
1000
0100
0010
0100
1000
0010
,
0100
0010
1000
0100
0010
0100
1000
0001
,
0100
0000
0010
1000
0100
0010
0001
0100
,
0010
0000
0000
1000
0000
0000
0100
0000
0010
0000
0000
0000
0010
0000
0001
0000
0000
0000
0001
0000
0100
0000
0000
0000
,
0100
0010
0000
0000
0000
0000
0000
0000
0000
0000
0000
0000
,
0000
0000
0000
1000
,
1000
0000
0000
0000
0100
1000
0100
0000
0010
0000
0100
0010
0000
0010
0001
0000
,
0100
0001
0100
0000
0001
0000
0100
0010
0000
0010
1000
0000
0100
0000
0010
0000
,
0100
0000
1000
0000
0010
1000
0010
0000
0100
0000
0010
0100
0000
0100
0001
0000
,
1000
0001
1000
0000
0100
0000
1000
0001
1000
0000
0100
0000
1000
0000
0010
0000
,
0100
0000
0001
0000
0100
0001
0100
0000
0010
0000
0100
0010
0000
0010
1000
0000
,
0100
0010
0001
0100
1000
0100
0001
0010
,
0100
0000
1000
0000
0001
1000
0001
0000
0010
0000
0001
1000
0001
0000
0100
0000
,
0010
1000
0010
0000
0100
0000
0010
1000
0010
0000
0100
0000
0001
0000
0020
0000
,
0000
0000
0031
0000
0000
0011
0000
0000
,
1100
0000
0000
0101
0000
0000
1001
0000
,
1000
0000
0001
0100
0001
0000
1000
0000
0001
0100
0001
0000
1000
0000
0001
0010
,
0001
0000
1000
0000
0001
0010
0001
0000
1000
0000
0010
0000
0100
0000
0001
0000
,
1000
0000
0100
0010
0100
0000
1000
0000
0100
0010
0100
0000
1000
0000
0001
0100
,
0001
0000
1000
0000
0001
0100
0001
0000
1000
0000
0010
0000
0100
0000
0001
0000
,
1000
0000
0100
0010
0001
0000
1000
0000
0100
0010
0001
0000
1000
0000
0100
0010
,
0001
0100
0010
1000
0100
0001
0100
1000
,
0001
0010
0100
0000
0000
0000
0001
0010
0100
0000
0000
0000
1000
0100
0010
0000
,
0000
0000
0000
0000
0000
0000
1000
0000
0000
0100
0000
0000
0010
0000
0000
0000
0000
0000
0000
0000
0000
0000
0000
0000
0001
0000
0000
0000
0000
0000
0000
0000
0000
0000
0000
0000
0100
0000
0000
0000
0010
0000
0000
0000
1000
0000
0000
0000
,
0001
0000
0000
0000
,
0220
0330
0000
0000
;

//--------------- dance-single - KAYSTAR ----------------
#NOTES:
     dance-single:
     KAYSTAR:
     Hard:
     16:
     0,0,0,0,0:
0000
0000
0000
0000
,
0000
0000
0000
0000
,
0000
0000
0000
0000
,
0000
0000
0000
0000
,
0000
0000
0000
0000
,
1000
0000
0000
1000
0100
0000
1000
0000
0001
0000
0000
0001
0100
0000
0001
0000
,
1000
0000
0000
1000
0010
0000
1000
0000
0001
0000
0010
0000
0100
0000
0010
0000
,
0001
0000
0000
0001
0100
0000
0010
0000
1000
0000
0000
1000
0100
0000
0010
0000
,
0001
0000
0000
0001
0100
0000
0010
0000
1000
0000
0100
0000
0010
0000
0100
0000
,
1000
0000
0200
0001
0000
1300
0001
0200
,
0000
0000
0301
0020
0000
0130
1000
0000
,
0010
0000
0200
1000
0000
0301
1000
0010
,
0100
0000
0001
0000
0010
0000
0100
0000
1000
0000
0000
0000
0010
1000
0010
0000
,
0100
0010
1000
0000
0001
0000
0010
0000
0001
0100
0001
0000
1000
0100
0010
0000
,
1000
0100
0010
0000
0001
0000
0100
0000
1000
0000
0100
0000
0001
0010
0001
0000
,
0010
0100
1000
0000
0010
0000
0100
0000
0001
0100
0001
0100
0010
0000
0001
0100
,
0001
0100
0010
0000
1000
0000
0100
0000
0001
0000
0100
0000
0010
0001
0010
0000
,
0100
0010
0001
0000
0100
0000
0010
0000
1000
0100
1000
0000
0001
0100
0010
0000
,
0001
0100
0010
0000
1000
0000
0100
0000
0001
0000
0100
0000
1000
0010
1000
0000
,
0010
0100
0001
0000
0010
0000
0100
0000
1000
0100
0010
0001
0000
0000
1000
0010
,
0100
0001
0000
0000
1000
0000
0100
0000
0010
0000
0001
0000
1000
0001
0100
0000
,
0010
0000
1000
0001
0100
0000
0010
1000
0001
1000
0100
0000
0010
0000
0001
1000
,
0100
0000
0010
0001
0200
0000
0000
0000
0310
1000
0001
0000
0100
0000
0010
1000
,
0001
0000
0100
0001
1000
0001
0010
0000
0100
0000
1000
0001
0010
0000
0001
0000
,
0100
0000
0000
0000
0000
0000
0010
0000
0000
1000
0000
0000
0010
0000
0000
0000
0100
0000
0000
0000
0001
0000
0000
0000
1000
0000
0000
0000
0000
0000
0000
0000
0000
0000
0000
0000
0001
0000
0000
0010
0000
0000
0000
0000
0000
0000
0000
0000
,
1100
0000
0000
0000
1000
0010
0000
0000
0101
0000
0000
0000
0001
0010
0000
0010
,
0100
0000
0000
0000
1000
0010
0000
0000
0100
0001
0000
0000
0100
0001
0000
0000
,
1000
0100
0000
0000
1000
0100
0000
0000
0010
0001
0010
0001
1000
0010
1000
0010
,
0100
0000
0001
0000
1000
0001
1000
0100
,
0000
0000
0000
0000
1000
0000
0001
0000
0100
0000
0001
0000
1000
0000
0100
0010
,
0000
0100
1000
0001
0010
0001
1000
0010
,
0000
0000
1000
0001
0010
0001
1000
0010
,
1000
0100
0010
0001
0100
1000
0100
0010
,
0000
0000
0000
0000
1000
0000
0100
0000
0001
0000
0100
0000
0010
0000
0001
0010
,
0000
0100
1000
0001
0100
0010
0001
0010
,
0000
0000
1000
0100
0010
1000
0010
0001
,
1000
0001
1000
0001
1000
0000
0010
0000
0100
0000
1000
0000
0100
0000
0010
0000
,
1000
0100
0010
1000
0010
0100
1000
0010
,
0100
0000
0001
0100
0010
0001
0010
0100
,
0001
0010
0100
0001
0100
0010
0001
0100
,
0010
0000
1000
0100
0001
0100
0010
1000
,
0010
0000
0000
0001
0000
0000
1000
0000
0100
0000
1000
0000
0001
0000
0100
0000
0001
0000
1000
0000
0010
0000
0100
0000
,
0001
0000
0000
0000
0010
0000
0000
0000
0100
0000
0000
0000
1000
0000
0000
0000
0000
0000
0100
0000
0000
1000
0000
0000
0000
0000
0000
0001
0000
0000
0000
0000
0000
0100
0000
0000
0001
0000
0000
0000
0000
0000
0100
0000
0000
0010
0000
0000
,
0100
0010
1000
0000
0100
0010
0100
0010
0001
0000
1000
0000
0010
0000
0000
0000
,
0110
0000
0000
0000
1000
0100
1000
0000
0001
0000
1000
0100
0000
0010
0001
0000
,
0100
0001
0100
0001
1000
0000
0001
0100
0000
0010
1000
0000
0002
0000
0100
0000
,
2003
0000
0100
0000
3001
0010
0001
0000
1000
0000
0001
0010
0000
0100
1000
0000
,
0001
1000
0001
1000
0010
0000
0001
1000
0001
1000
0010
0000
1000
0000
0100
0000
,
0001
0000
0100
0000
1000
0010
1000
0000
0001
0000
1000
0010
0000
0100
0001
0000
,
1000
0100
1000
0100
0010
0001
1000
0010
1000
0010
0100
0001
2000
0000
0100
0000
,
3002
0000
0103
0010
1000
0100
1000
0100
0010
0000
0001
0010
0001
0010
0100
0000
,
1000
0001
1000
0001
0100
0000
1000
0001
1000
0001
0100
0000
0020
0000
2000
0000
,
3030
0000
0101
0000
0000
0011
0000
0000
,
1100
0000
0000
1010
0000
0000
1001
0000
,
1000
0001
1000
0001
0100
0000
1000
0001
1000
0001
0100
0000
0001
1000
0001
1000
,
0100
0000
0001
1000
0001
1000
0100
0000
0010
0000
1000
0000
0010
0000
0001
0000
,
0100
0001
0100
0001
1000
0000
0100
0001
0100
0001
1000
0000
0100
1000
0100
1000
,
0001
0000
0100
1000
0100
1000
0001
0000
1000
0000
0010
0000
0001
0000
0010
0000
,
0100
0001
0100
0010
1000
0000
0100
0001
0100
0010
1000
0000
0010
1000
0010
0100
,
0001
0010
0100
1000
0001
0010
0100
1000
0001
0100
0010
1000
0100
0010
0001
0100
,
0010
1000
0100
0000
0010
0000
0100
1000
0001
0000
1000
0010
0100
0001
0010
0000
,
0100
0000
0000
0000
0000
0000
0010
0000
0000
0001
0000
0000
0100
0000
0000
0000
0000
0000
0001
0000
0000
0000
0000
0000
1000
0000
0000
0000
0000
0000
0010
0000
0000
1000
0000
0000
0010
0000
0000
0000
0100
0000
0000
0000
0001
0000
0000
0000
,
1000
0000
0000
0001
0000
0000
1000
0000
0000
0000
0000
0000
0001
0000
0000
0010
0000
0000
0100
0000
0000
1000
0000
0000
0010
0000
0000
0000
0100
0000
0000
0000
0010
0000
0000
0000
1000
0000
0000
0000
0000
0000
0100
0000
0000
0000
0000
0000
,
0002
0003
0000
0000
;

//--------------- dance-double - KAYSTAR ----------------
#NOTES:
     dance-double:
     KAYSTAR:
     Easy:
     8:
     0,0,0,0,0:
00000000
00000000
00000000
00000000
,
00000000
00000000
00000000
00000000
,
00000000
00000000
00000000
00000000
,
00000000
00000000
00000000
00000000
,
00000000
00000000
00000000
00000000
,
00000000
10000000
00000000
00010000
,
00000000
01000000
00010000
00100000
,
00000000
00001000
00000000
00010000
,
00000000
00000010
00001000
00000000
,
00000002
00000000
00000000
00000000
,
00000003
00000000
00000000
00000000
,
00000020
00000000
00000000
00000000
,
00000030
00000000
00000000
00000000
00000000
00000000
00000100
00001000
,
00000000
00000000
00000100
00000000
00010000
00001000
00000000
00000000
,
01000000
00000000
00100000
00000000
10000000
00000000
01000000
00100000
,
00000000
00000000
00001000
00000000
00010000
00001000
00000000
00010000
,
00001000
00000000
00000010
00000000
00000001
00000000
00001000
00000010
,
00000000
00000000
00010000
00000000
00001000
00100000
00000000
00000000
,
01000000
00000000
10000000
00000000
00100000
00000000
01000000
00010000
,
00000000
00000000
00100000
00000000
00001000
00010000
00000000
00001000
,
00010000
00011000
00000000
00002000
,
00000000
02003000
00000000
00000000
03200000
00000000
00000000
00320000
,
00000000
00000000
00031000
00000000
00020000
00000000
00000000
00030200
,
00000000
00000000
00000320
00000000
00000000
00002030
00000000
00000000
,
00013000
00011000
00001000
00000000
,
00010000
00000000
00001000
00000000
,
00010000
00000000
00001000
00010000
,
00001000
00000000
00010000
00000000
00001000
00010000
00001000
00010000
,
00001000
02000000
00000000
00000000
,
00000000
03000000
00000000
00000000
,
00000000
00200000
00000000
00000000
,
00000000
00300000
00000000
00000000
,
00000000
00020000
00000000
00000000
,
00000000
00030000
00000000
00000000
,
00000000
00002000
00000000
00000000
,
00000000
00003000
00000000
00000000
,
00000000
00000010
00000001
00000100
,
00000010
00001000
00000100
00010000
,
00000000
00001000
01000000
00100000
,
10000000
01000000
00100000
00001000
,
00000000
00010000
00011000
00001000
,
00011000
00020000
02030000
23000000
,
30200000
00300000
00000000
00000000
,
00000000
00000000
00000000
01000000
,
01000000
00000000
00010000
01000000
00010000
00000000
10000000
00000000
,
00010000
01000000
00010000
00000000
01000000
00000000
00001000
00010000
,
00001000
00010000
00000010
00001000
00000010
00000000
00000100
00000000
,
00000002
00000000
00000010
00000000
00001000
00000000
00000103
00000010
,
00001000
00000000
00000001
00000010
00000001
00000000
00001000
00000000
,
00000001
00000010
00000001
00000000
00001000
00000000
00000010
00010000
,
00001000
00010000
00001000
00000000
01000000
00000000
00100000
00000000
,
20000000
00000000
00100000
00000000
00010000
00000000
31000000
00100000
,
00000000
00000000
00001000
00000000
00000000
00011000
00000000
00000000
,
00010000
00000000
00000000
00011000
00000000
00000000
00000000
00000000
,
00010000
00000100
00000010
00000001
,
00000100
00000010
00010000
00001000
,
00100000
01000000
10000000
00100000
,
01000000
00001000
00010000
00000100
,
00000010
00000001
00000100
00000010
,
00010000
00001000
00010000
00001000
00010000
00001000
00010000
00001000
,
00020000
00000000
00000000
00230000
00000000
00000000
02300000
00000000
,
00000000
03002000
00000000
00000000
00010000
00000000
00013000
00000000
,
00011000
00000000
00000000
00000000
,
00000020
00000030
00000000
00000000
;

//--------------- dance-double - KAYSTAR ----------------
#NOTES:
     dance-double:
     KAYSTAR:
     Medium:
     13:
     0,0,0,0,0:
00000000
00000000
00000000
00000000
,
00000000
00000000
00000000
00000000
,
00000000
00000000
00000000
00000000
,
00000000
00000000
00000000
00000000
,
00000000
00000000
00000000
00000000
,
00000000
00000000
00000000
00000000
,
00000000
00000000
00000000
00000000
,
00000000
00000000
00000000
00000000
,
00000000
00000000
00000000
00000000
,
20000000
00000000
00000000
01000000
00000000
30010000
01000000
00001000
,
00020000
00000000
00000000
00030020
00000000
00000000
00000230
00000000
,
00000302
00000000
00000000
00000010
00000000
00001003
00000100
00010000
,
00001000
01000000
00100000
10000000
01000000
00000000
10000000
10000000
,
00010000
00100000
01000000
00000000
00010000
00010000
01000000
00001000
,
00010000
00000000
00000010
00000100
00000001
00000010
00000001
00000001
,
00001000
00000100
00000010
00000000
00001000
00001000
00000010
00010000
,
00010000
00000000
01000000
10000000
00010000
01000000
00100000
00100000
,
10000000
01000000
00100000
00000000
10000000
10000000
00010000
01000000
,
00001000
00000000
00010000
00000010
00000100
00000001
00000010
00000010
,
00000001
00000010
00000100
00000000
00010000
00010000
00000000
00001000
,
00001000
00000000
00000000
00000000
00010000
00000000
00000100
00000000
00000010
00000000
00000001
00000000
00000100
00000001
00001000
00000000
,
00000000
00000000
00000100
00000001
00001000
00000000
00000000
00000000
00000100
00010000
00001000
00000000
00000000
00000000
00000100
00010000
,
00001000
00000000
00000000
00000000
00012000
00000000
00000000
00000000
01003000
00010000
10000000
00000000
00000000
00000000
01000000
00010000
,
10000000
00000000
00000000
00000000
00010000
00100000
00001000
00000000
00000000
00000000
00010000
00100000
00001000
00000000
00000000
00000000
,
00011000
00000000
00000000
00000000
00000000
00000000
00000000
00000000
00000000
00000000
00000000
00000000
00001000
00000000
00000000
00000000
00010000
00000000
00000000
00000000
00001000
00000000
00000000
00000000
00100000
00000000
00000000
00000000
00000000
00000000
00000000
00000000
00000000
00000000
00000000
00000000
00010000
00000000
00000000
00001000
00000000
00000000
00000000
00000000
00000000
00000000
00000000
00000000
,
00000010
00000000
00000000
00000000
00001000
00010000
00000000
00000000
01000000
00000000
00000000
00000000
00010000
00001000
00000000
00001000
,
00010000
00000000
00000000
00000000
00000100
00010000
00000000
00000000
00011000
00000000
00000000
00000000
00110000
00000000
00000000
00000000
,
00011000
00000000
00001010
00000000
00001000
00010000
00001000
00010000
,
01000000
00000000
10000000
00100000
01000000
00010000
00100000
00001000
,
00000000
00000000
00000001
00000010
00000100
00001000
00000010
00010000
,
00000000
00000000
10000000
01000000
00100000
00010000
01000000
00001000
,
00000000
00000000
00000001
00000010
00000100
00001000
00000010
00010000
,
00000000
00000000
10000000
01000000
00010000
01000000
00100000
00001000
,
00000000
00000000
00000001
00000100
00001000
00000100
00000010
00010000
,
00000000
00000000
10000000
01000000
00100000
10000000
00100000
00001000
,
00000000
00000000
00000001
00000100
00001000
00000100
00000010
00020000
,
00001000
00000000
00030010
00010000
00001000
00100000
00001000
00010000
,
00000010
00010000
00001000
00100000
00001000
00010000
01000000
00010000
,
00001000
00000000
00100000
00001000
00010000
00000010
00010000
00001000
,
00100000
00001000
00010000
00000010
00010000
00001000
00000100
00001000
,
00010000
00000000
00001000
01000000
00100000
10000000
01000000
00100000
,
00010000
00000000
00000000
01000000
00000000
00000000
00001000
00000000
00010000
00000000
00000000
00000000
00010000
00000000
00000100
00000000
00000000
00000000
00000100
00000000
00000010
00000000
00000000
00000000
,
00000010
00000001
00000000
00000000
00000000
00000000
00000000
00000000
00000000
00000000
00000000
00000000
,
00000000
00000000
00000000
00000002
,
00000203
00000000
00000000
00000000
00000310
00001000
00000010
00000000
00000100
00000000
00000010
00001000
00000000
00000000
00000001
00000000
,
00000010
00000100
00000010
00000000
00000001
00000000
00000010
00000100
00000000
00000000
00010000
00000000
00001000
00000000
01000000
00000000
,
00100000
00000000
10000000
00000000
00010000
01000000
00010000
00000000
10000000
00000000
00010000
01000000
00000000
00000000
00100000
00000000
,
10000000
00010000
01000000
00000000
00001000
00000000
00100000
00010000
10000000
00000000
00100000
00000000
01000000
00000000
00001000
00000000
,
00010000
00000000
00000100
00000000
00000010
00000001
00000010
00000000
00000100
00000000
00000010
00000001
00000000
00000000
00001000
00000000
,
00000010
00010000
00001000
00100000
01000000
00100000
00001000
00010000
,
00000010
00000000
00000100
00000000
00000001
00001000
00000100
00000000
00010000
00000000
00000010
00001000
00000001
00000000
00000100
00000000
,
00000001
00001000
00000001
00000000
00000010
00000000
00000100
00010000
00000100
00000000
00010000
00000000
00002000
00000000
00020000
00000000
,
00033000
00000000
00011000
00000000
00000000
00100000
00000000
00000000
,
00011000
00000000
00000000
00000010
00000000
00000000
00011000
00000000
,
00001000
00010000
00001000
00000000
00100000
00000000
01000000
00000000
10000000
00000000
00100000
00000000
01000000
00010000
01000000
00000000
,
00100000
00000000
10000000
00000000
01000000
00000000
00100000
00000000
00001000
00010000
00001000
00000000
00010000
00001000
00010000
00000000
,
00000010
00001000
00000010
00000000
00001000
00000000
00000001
00000010
00000001
00000000
00001000
00000000
00000100
00001000
00000100
00000000
,
00010000
00000000
00001000
00010000
00001000
00000000
00100000
00000000
00010000
00000000
10000000
00000000
00100000
00000000
01000000
00000000
,
00010000
01000000
00010000
00000000
00100000
00000000
00001000
00010000
00001000
00000000
00000010
00000000
00000100
00000000
00010000
00000000
,
00001000
01000000
00100000
10000000
01000000
00010000
00001000
00000100
,
00000001
00000010
00000100
00000000
00000000
00000000
00000001
00000010
00000100
00000000
00000000
00000000
00010000
00000100
00001000
00000000
,
00000000
00000000
00000000
00000000
00000000
00000000
00010000
00000000
00000000
00000100
00000000
00000000
00001000
00000000
00000000
00000000
00000000
00000000
00000000
00000000
00000000
00000000
00000000
00000000
00000010
00000000
00000000
00000000
00000000
00000000
00000000
00000000
00000000
00000000
00000000
00000000
00010000
00000000
00000000
00000000
00001000
00000000
00000000
00000000
00010000
00000000
00000000
00000000
,
00001000
00000000
00000000
00000000
,
00200000
00300000
00000000
00000000
;

//--------------- dance-double - KAYSTAR ----------------
#NOTES:
     dance-double:
     KAYSTAR:
     Hard:
     16:
     0,0,0,0,0:
00000000
00000000
00000000
00000000
,
00000000
00000000
00000000
00000000
,
00000000
00000000
00000000
00000000
,
00000000
00000000
00000000
00000000
,
00000000
00000000
00000000
00000000
,
10000000
00000000
00000000
10000000
00010000
00000000
00100000
00000000
00001000
00000000
00000000
00001000
00010000
00000000
00000010
00000000
,
00001000
00000000
00000000
00001000
00000001
00000000
00000100
00000000
00000010
00000000
00010000
00000000
00001000
00000000
00000010
00000000
,
00000001
00000000
00000000
00000001
00001000
00000000
00000010
00000000
00010000
00000000
00000000
00010000
00001000
00000000
00100000
00000000
,
00010000
00000000
00000000
00010000
10000000
00000000
01000000
00000000
00100000
00000000
00001000
00000000
00010000
00000000
00100000
00000000
,
20000000
00000000
31000000
00020000
00000000
00031000
00000100
00000002
,
00000000
00000000
00000013
00002000
00000000
00000000
00103000
00000000
,
02000000
00000000
03010000
00002000
00000000
00003100
00000010
00001000
,
00000001
00000000
00000010
00000000
00000100
00000000
00010000
00000000
00001000
00000000
00000000
00000000
01000000
00010000
01000000
00000000
,
00100000
01000000
00010000
00000000
00100000
00000000
00001000
00000000
00010000
00000100
00010000
00000000
00000100
00000010
00000001
00000000
,
00000100
00000010
00000001
00000000
00000010
00000000
00000100
00000000
00010000
00000000
00000010
00000000
00000100
00000001
00000100
00000000
,
00000010
00000100
00000001
00000000
00000010
00000000
00000100
00000000
00010000
00001000
00010000
00001000
00100000
00000000
00010000
00001000
,
00010000
00001000
00100000
00000000
01000000
00000000
00010000
00000000
01000000
00000000
10000000
00000000
00100000
10000000
00100000
00000000
,
01000000
00100000
10000000
00000000
00010000
00000000
00100000
00000000
00000100
00010000
00000100
00000000
00000010
00000100
00001000
00000000
,
00000010
00000100
00001000
00000000
00000100
00000000
00010000
00000000
00000010
00000000
00000100
00000000
00000001
00000100
00000001
00000000
,
00000100
00000010
00001000
00000000
00000100
00000000
00010000
00000000
00000100
00000010
00000001
00000010
00000100
00000000
00001000
00000010
,
00000100
00000010
00001000
00000000
00000100
00000000
00010000
00000000
00100000
00000000
10000000
00000000
01000000
00100000
00010000
00000000
,
00100000
00000000
00001000
00010000
00000100
00000000
00001000
00000100
00000010
00000001
00001000
00000000
00000010
00000000
00010000
00001000
,
00100000
00000000
01000000
10000000
00020000
00000000
00000000
00000000
01030000
00100000
10000000
00000000
00100000
00000000
01000000
00001000
,
00010000
00000000
00000010
00001000
00000001
00000100
00000010
00000000
00010000
00000000
00001000
01000000
00100000
00000000
10000000
00000000
,
00010000
00000000
00000000
00000000
00000000
00000000
00000000
00000000
00000000
00000000
00000000
00000000
01000000
00000000
00000000
00000000
00001000
00000000
00000000
00000000
00010000
00000000
00000000
00000000
00001000
00000000
00000000
00000000
00000000
00000000
00000000
00000000
00000000
00000000
00000000
00000000
00010000
00000000
00000000
00000100
00000000
00000000
00000000
00000000
00000000
00000000
00000000
00000000
,
00011000
00000000
00000000
00000000
00001000
01000000
00000000
00000000
00011000
00000000
00000000
00000000
00010000
00000100
00000000
00000100
,
00010000
00000000
00000000
00000000
00001000
01000000
00000000
00000000
00100000
10000000
00000000
00000000
10000000
01000000
00000000
00000000
,
01000000
00100000
00000000
00000000
00100000
00001000
00000000
00000000
00001000
00010000
00001000
00010000
00000010
00001000
00000001
00000100
,
00000010
00000000
00001000
00000001
00000100
00001000
00010000
01000000
,
10000000
00000000
00010000
10000000
01000000
00010000
00001000
00000100
,
00000000
00000010
00000100
00000000
00000001
00000000
00000010
00000000
00001000
00000000
00010000
00000000
00100000
00000000
10000000
00000000
,
00010000
00000000
10000000
00100000
00010000
00001000
00000010
00000001
,
00000000
00000100
00000010
00000000
00001000
00000000
00010000
00000000
01000000
00000000
00100000
00000000
10000000
00000000
01000000
00000000
,
00010000
00000000
00001000
00010000
01000000
10000000
00100000
00010000
,
00000000
00001000
00010000
00000000
00001000
00000000
00000010
00000000
00000100
00000000
00001000
00000000
00000001
00000000
00000100
00000000
,
00001000
00000000
00010000
00001000
00000100
00000001
00000010
00001000
,
00020000
00000000
00031000
00000100
00000001
00001000
00000010
00000001
,
00001000
00000100
00000001
00001000
00000010
00000001
00001000
00000100
,
00000010
00000000
00010000
01000000
10000000
00010000
00100000
10000000
,
00010000
01000000
10000000
00010000
00100000
10000000
00010000
01000000
,
00100000
00000000
00001000
00010000
00100000
00010000
00001000
00000010
,
00001000
00000000
00000000
00010000
00000000
00000000
01000000
00000000
10000000
00000000
00100000
00000000
01000000
00000000
00010000
00000000
00100000
00000000
00001000
00000000
00010000
00000000
00000100
00000000
,
00001000
00000010
00000100
00000001
00000000
00000000
00000000
00000000
00000000
00000000
00000000
00000000
,
00000000
00000000
00000000
00011000
,
00011000
00000000
00000000
00000000
10000000
00100000
10000000
00000000
01000000
00000000
00100000
00010000
00000000
00100000
00001000
00000000
,
00010000
00001000
00010000
00000000
00000010
00000000
00000100
00000001
00000000
00000100
00000010
00000000
00001000
00000000
00010000
00000000
,
00001000
00000000
00000010
00000000
00000100
00000001
00000100
00000000
00000010
00000000
00001000
00000100
00000000
00010000
00000100
00000000
,
00100000
00010000
00100000
00010000
10000000
00000000
00100000
00010000
00100000
00010000
10000000
00000000
01000000
00000000
00010000
00000000
,
00001000
00000000
00000100
00000000
00000001
00000100
00000001
00000000
00000010
00000000
00000100
00001000
00000000
00000100
00010000
00000000
,
00001000
01000000
00001000
01000000
00100000
10000000
00100000
10000000
00010000
00100000
00010000
00100000
01000000
00000000
00010000
00000000
,
00001000
00000000
00010000
00001000
00010000
00001000
01000000
00010000
01000000
00000000
00100000
10000000
00000000
00010000
01000000
00000000
,
00001000
00010000
00001000
00010000
00000100
00000000
00001000
00010000
00001000
00010000
00000100
00000000
00000020
00000000
00000002
00000000
,
00000033
00000000
00000101
00000000
00000000
00010010
00000000
00000000
,
00101000
00000000
00000000
11000000
00000000
00000000
10010000
00000000
,
10000000
00100000
10000000
00100000
01000000
00000000
10000000
00100000
10000000
00100000
01000000
00000000
00001000
00010000
00001000
00010000
,
00000100
00000000
00001000
00010000
00001000
00010000
00000100
00000000
00000010
00000000
00000001
00000000
00000100
00000000
00001000
00000000
,
00000100
00000001
00000100
00000001
00001000
00000000
00000100
00000001
00000100
00000001
00001000
00000000
00000100
00010000
00000100
00010000
,
00001000
00000000
00000100
00010000
00000100
00010000
00001000
00000000
00010000
00000000
00100000
00000000
10000000
00000000
01000000
00000000
,
00100000
00001000
00100000
00001000
00010000
00000000
00100000
00001000
00100000
00001000
00010000
00000000
00000010
00001000
00000010
00001000
,
00000001
00000010
00000001
00000010
00000001
00001000
00000001
00001000
00000100
00010000
00001000
01000000
00100000
10000000
01000000
00100000
,
00010000
10000000
00010000
00000000
01000000
00000000
00001000
00010000
00000010
00000000
00000100
00000001
00001000
00000010
00000100
00000000
,
00000001
00000000
00000000
00000000
00000000
00000000
00000010
00000000
00000000
00000100
00000000
00000000
00010000
00000000
00000000
00000000
00000000
00000000
00001000
00000000
00000000
00000000
00000000
00000000
00010000
00000000
00000000
00000000
00000000
00000000
00000000
00000000
00000000
00000000
00000000
00000000
00000010
00000000
00000000
00000000
00010000
00000000
00000000
00000000
00001000
00000000
00000000
00000000
,
00010000
00000000
00000000
00000000
00000000
00000000
00000000
00000000
00000000
00000000
00000000
00000000
00100000
00000000
00000000
10000000
00000000
00000000
00100000
00000000
00000000
10000000
00000000
00000000
01000000
00000000
00000000
00000000
00010000
00000000
00000000
00000000
00001000
00000000
00000000
00000000
00000100
00000000
00000000
00000000
00000000
00000000
00000001
00000000
00000000
00000000
00000000
00000000
,
00000020
00000030
00000000
00000000
;
