#VERSION:0.83;
#TITLE:WHO GOTTA FUNK?;
#SUBTITLE:;
#ARTIST:ASLETICS;
#TITLETRANSLIT:;
#SUBTITLETRANSLIT:;
#ARTISTTRANSLIT:;
#GENRE:;
#ORIGIN:;
#TAGS:;
#CREDIT:;
#BANNER:;
#BACKGROUND:;
#PREVIEWVID:;
#JACKET:;
#CDIMAGE:;
#DISCIMAGE:;
#LYRICSPATH:;
#CDTITLE:;
#MUSIC:Who Gotta Funk.ogg;
#OFFSET:1.759000;
#SAMPLESTART:4.289000;
#SAMPLELENGTH:12.000000;
#SELECTABLE:YES;
#DISPLAYBPM:100.000000:135.000000;
#BPMS:0.000000=112.089996
,31.000000=131.919998
,62.000000=133.750000
,64.000000=104.959999
,97.000000=100.000000
,104.000000=200.000000
,106.000000=100.000000
,113.000000=200.000000
,115.000000=270.059998
,118.000000=135.029999
,142.000000=134.070007
,143.000000=125.999992
,143.500000=105.000000
,144.000000=81.000000
,144.250000=75.000000
,144.500000=58.000000
;
#STOPS:10.000000=0.530000
,31.000000=1.369000
,64.000000=1.708000
,115.000000=0.111000
,115.500000=0.056000
,115.750000=0.111000
,116.250000=0.056000
,116.500000=0.167000
,117.250000=0.056000
,117.500000=0.056000
,117.750000=0.056000
;
#DELAYS:;
#WARPS:;
#TIMESIGNATURES:0.000000=4=4
;
#TICKCOUNTS:0.000000=4
;
#COMBOS:0.000000=1
;
#SPEEDS:0.000000=1.000000=0.000000=0
,10.000000=0.500000=0.530000=1
,10.020833=1.000000=0.530000=1
,31.000000=0.200000=1.369000=1
,64.000000=1.000000=1.708000=1
,125.000000=1.250000=1.000000=0
,126.000000=1.000000=1.000000=0
,133.000000=1.250000=1.000000=0
,134.000000=1.000000=1.000000=0
,135.000000=1.100000=1.000000=0
,137.000000=1.200000=1.000000=0
,139.000000=1.300000=1.000000=0
,141.000000=1.400000=1.000000=0
,143.000000=0.100000=2.000000=0
;
#SCROLLS:0.000000=1.000000
,31.000000=5.000000
,64.000000=1.000000
;
#FAKES:;
#LABELS:0.000000=Song Start
;
#BGCHANGES:;
#KEYSOUNDS:;
#ATTACKS:
;

//---------------dance-single - ----------------
#NOTEDATA:;
#CHARTNAME:;
#CHARTHASH:1134173901;
#STEPSTYPE:dance-single;
#BANNER:;
#DESCRIPTION:;
#CHARTSTYLE:;
#DIFFICULTY:Beginner;
#METER:3;
#METERF:0.000000;
#LASTSECONDHINT:75.517746;
#RADARVALUES:0.140486,0.166072,0.039336,0.091784,0.006556,75.000000,72.000000,3.000000,7.000000,0.000000,0.000000,0.000000,0.000000,0.000000,0.140486,0.166072,0.039336,0.091784,0.006556,75.000000,72.000000,3.000000,7.000000,0.000000,0.000000,0.000000,0.000000,0.000000;
#CREDIT:OrangeRight;
#OFFSET:1.759000;
#BPMS:0.000000=112.089996
,31.000000=131.919998
,62.000000=133.750000
,64.000000=104.959999
,97.000000=100.000000
,104.000000=200.000000
,106.000000=100.000000
,113.000000=200.000000
,115.000000=270.059998
,118.000000=135.029999
,142.000000=134.070007
,143.000000=125.999992
,143.500000=105.000000
,144.000000=81.000000
,144.250000=75.000000
,144.500000=58.000000
;
#STOPS:10.000000=0.530000
,31.000000=1.369000
,64.000000=1.708000
,115.000000=0.111000
,115.500000=0.056000
,115.750000=0.111000
,116.250000=0.056000
,116.500000=0.167000
,117.250000=0.056000
,117.500000=0.056000
,117.750000=0.056000
;
#DELAYS:;
#WARPS:;
#TIMESIGNATURES:0.000000=4=4
;
#TICKCOUNTS:0.000000=4
;
#COMBOS:0.000000=1
;
#SPEEDS:0.000000=1.000000=0.000000=0
;
#SCROLLS:0.000000=1.000000
;
#FAKES:;
#LABELS:0.000000=Song Start
;
#DISPLAYBPM:100.000000:135.000000;
#NOTES:
0000
0000
0000
0000
,
0000
0000
0000
0000
,
0000
0000
0000
1000
,
0000
1000
0000
0001
,
0000
0001
0000
1000
,
0000
0001
0000
0100
,
0000
0010
0000
1000
,
0000
0001
0000
2002
,
3003
0000
0000
0000
,
1000
0000
1000
0000
,
0001
0000
0100
0000
,
0001
0000
0001
0000
,
1000
0000
0010
0000
,
1000
0000
1000
0000
,
0100
0000
0100
0000
,
0010
0000
0001
0000
,
2002
3003
1000
0000
0000
0000
1000
0000
,
0000
0001
0100
0001
,
0000
0001
0000
0001
,
0000
1000
0010
1000
,
0000
1000
0000
0100
,
0000
0010
0100
1000
,
0000
0001
0000
0100
,
0000
0010
0100
0001
,
0000
1000
0001
1000
,
0000
0001
1000
0001
,
0000
0000
0100
0010
,
0100
0000
0010
0100
,
0010
0000
0000
2000
,
0000
0000
3000
1000
,
0000
0001
0000
1000
,
0000
0100
0000
0010
,
0000
0001
0000
0100
,
0000
0010
0000
1000
,
0000
0100
0000
0001
,
0000
0010
0000
2002
,
0000
0000
0000
3003
0000
0000
0000
0000
0000
0000
0000
0000
0000
0000
0000
0000
;

//---------------dance-single - ----------------
#NOTEDATA:;
#CHARTNAME:;
#CHARTHASH:2419218456;
#STEPSTYPE:dance-single;
#BANNER:;
#DESCRIPTION:;
#CHARTSTYLE:;
#DIFFICULTY:Easy;
#METER:5;
#METERF:0.000000;
#LASTSECONDHINT:75.517746;
#RADARVALUES:0.256621,0.308419,0.078672,0.288464,0.006556,137.000000,131.000000,6.000000,22.000000,0.000000,0.000000,0.000000,0.000000,0.000000,0.256621,0.308419,0.078672,0.288464,0.006556,137.000000,131.000000,6.000000,22.000000,0.000000,0.000000,0.000000,0.000000,0.000000;
#CREDIT:OrangeRight;
#OFFSET:1.759000;
#BPMS:0.000000=112.089996
,31.000000=131.919998
,62.000000=133.750000
,64.000000=104.959999
,97.000000=100.000000
,104.000000=200.000000
,106.000000=100.000000
,113.000000=200.000000
,115.000000=270.059998
,118.000000=135.029999
,142.000000=134.070007
,143.000000=125.999992
,143.500000=105.000000
,144.000000=81.000000
,144.250000=75.000000
,144.500000=58.000000
;
#STOPS:10.000000=0.530000
,31.000000=1.369000
,64.000000=1.708000
,115.000000=0.111000
,115.500000=0.056000
,115.750000=0.111000
,116.250000=0.056000
,116.500000=0.167000
,117.250000=0.056000
,117.500000=0.056000
,117.750000=0.056000
;
#DELAYS:;
#WARPS:;
#TIMESIGNATURES:0.000000=4=4
;
#TICKCOUNTS:0.000000=4
;
#COMBOS:0.000000=1
;
#SPEEDS:0.000000=1.000000=0.000000=0
,143.000000=0.100000=2.000000=0
;
#SCROLLS:0.000000=1.000000
;
#FAKES:;
#LABELS:0.000000=Song Start
;
#ATTACKS: TIME=-1.772655: LEN=2.000000: MODS=*50 Dark: TIME=0.368482: LEN=2.500000: MODS=*0.5 0% Dark:
;
#DISPLAYBPM:100.000000:135.000000;
#NOTES:
0000
0000
0000
0000
,
0000
0000
0000
0000
,
0000
0000
0000
0000
2002
3003
2000
0000
,
3000
1000
0001
0200
,
0300
0001
1000
0002
,
0003
0001
0010
0100
,
1000
0020
0030
2000
,
3000
0000
0001
0000
1000
0000
0002
0003
,
1000
0100
1000
0100
,
0010
0001
0100
0000
,
0001
0100
0001
0100
,
0010
1000
0100
0000
,
1000
0001
1000
0001
,
0010
0001
0100
0010
,
1000
0100
1000
0010
,
0100
0001
2000
3000
,
2002
3003
1000
0000
0100
0000
0010
0000
,
0010
0000
0001
0000
0100
0000
0010
1000
,
0010
1000
0010
0100
,
0100
0000
0001
0000
1000
0000
0001
1000
,
0001
0000
1000
0100
1000
0000
0001
0000
,
1000
0000
0001
1000
0001
1000
0001
0000
,
1000
0000
0001
0010
0001
0000
1000
0000
,
0001
2000
0000
3002
,
0000
0000
1003
0001
1000
0000
0001
0000
,
1001
0000
1000
0000
0010
0000
0100
0001
,
0200
0000
0000
0000
0301
1000
0001
0000
,
1000
1001
0001
0010
,
0100
1000
0200
0000
0000
0000
2300
0000
,
0000
3000
1001
0001
,
0100
0010
0100
0001
,
0010
0200
1000
1300
,
0010
0100
0010
1000
,
0100
0020
0001
0032
,
0100
2003
0010
3001
,
1000
0000
0001
1000
0001
0000
2002
0000
,
0000
0000
0000
3003
0000
0000
0000
0000
0000
0000
0000
0000
0000
0000
0000
0000
;

//---------------dance-single - ----------------
#NOTEDATA:;
#CHARTNAME:;
#CHARTHASH:153202519;
#STEPSTYPE:dance-single;
#BANNER:;
#DESCRIPTION:;
#CHARTSTYLE:;
#DIFFICULTY:Medium;
#METER:8;
#METERF:0.000000;
#LASTSECONDHINT:75.517746;
#RADARVALUES:0.417711,0.427042,0.144232,0.196680,0.006556,223.000000,212.000000,11.000000,15.000000,0.000000,0.000000,0.000000,0.000000,0.000000,0.417711,0.427042,0.144232,0.196680,0.006556,223.000000,212.000000,11.000000,15.000000,0.000000,0.000000,0.000000,0.000000,0.000000;
#CREDIT:OrangeRight;
#OFFSET:1.759000;
#BPMS:0.000000=112.089996
,31.000000=131.919998
,62.000000=133.750000
,64.000000=104.959999
,97.000000=100.000000
,104.000000=200.000000
,106.000000=100.000000
,113.000000=200.000000
,115.000000=270.059998
,118.000000=135.029999
,142.000000=134.070007
,143.000000=125.999992
,143.500000=105.000000
,144.000000=81.000000
,144.250000=75.000000
,144.500000=58.000000
;
#STOPS:10.000000=0.530000
,31.000000=1.369000
,64.000000=1.708000
,115.000000=0.111000
,115.500000=0.056000
,115.750000=0.111000
,116.250000=0.056000
,116.500000=0.167000
,117.250000=0.056000
,117.500000=0.056000
,117.750000=0.056000
;
#DELAYS:;
#WARPS:;
#TIMESIGNATURES:0.000000=4=4
;
#TICKCOUNTS:0.000000=4
;
#COMBOS:0.000000=1
;
#SPEEDS:0.000000=1.000000=0.000000=0
,10.000000=0.500000=0.530000=1
,10.020833=1.000000=0.530000=1
,31.000000=0.500000=1.369000=1
,64.000000=1.000000=1.708000=1
,143.000000=0.100000=2.000000=0
;
#SCROLLS:0.000000=1.000000
,31.000000=2.000000
,64.000000=1.000000
;
#FAKES:;
#LABELS:0.000000=Song Start
;
#ATTACKS: TIME=-1.772655: LEN=1.759000: MODS=*100 Dark: TIME=-1.772655: LEN=1.759000: MODS=*100 Dark: TIME=-1.772655: LEN=2.000000: MODS=*100 -200% Flip,*100 Dark,*20 200% Tipsy: TIME=0.368482: LEN=2.900000: MODS=*0.8 0% Flip:
;
#DISPLAYBPM:100.000000:135.000000;
#NOTES:
0000
0000
0000
0000
,
0000
0000
0000
0000
,
0000
0000
0000
0000
2002
3003
1000
0100
,
0010
0001
0100
0010
0100
0000
0001
1000
,
0001
1000
0010
0100
0010
0100
0001
0010
,
0100
1000
0010
1000
1010
0000
0100
0001
,
0101
0000
0001
1000
0001
0000
1000
0100
,
0010
0001
0100
1000
0100
0000
2002
3003
,
1000
0100
1000
0100
1000
0100
1000
0000
,
0001
1000
0001
0000
1000
0001
1000
0000
,
0001
0010
0001
0010
0100
1000
0100
0000
,
1000
0001
1000
0000
0001
1000
0001
0000
,
1000
0010
0100
0001
1000
0100
0010
0000
,
0001
0010
0001
0000
1000
0010
1000
0000
,
0001
0100
0001
0000
1000
0100
1000
0000
,
0001
1000
0001
0000
1001
0000
0110
0000
,
2002
3003
1000
0100
0010
0010
0100
1000
,
0010
0010
0100
0001
0010
0100
1000
0000
,
1001
0000
0001
0100
0010
0010
0100
0001
,
0010
0010
0100
1000
0010
0100
0001
0000
,
1001
0000
1000
0010
0001
0001
0010
1000
,
0001
0001
1000
0100
0010
0001
0100
0000
,
0101
0000
0001
0100
1000
1000
0100
0001
,
1000
1000
0100
0010
0001
1000
0010
0100
,
0001
0000
1000
1000
0100
0000
0010
0010
,
0001
0000
1000
0001
0100
0010
1000
0100
,
2000
0000
0000
0000
3001
0001
0100
0000
,
0010
0010
1000
0000
0001
0100
1000
0100
,
0001
1000
0002
0000
0000
0000
2003
0000
,
0000
0000
0000
0000
3001
0000
1000
0100
,
1000
0001
0000
0001
1000
0000
0001
0100
,
0001
1000
0200
0000
1300
0000
1000
0010
,
0100
0001
0000
0001
0010
0000
0001
0100
,
0010
1000
0002
0000
1003
0000
2000
0001
,
3001
0000
0002
1000
1003
0000
1000
0001
,
0100
0010
1000
1000
0001
0001
2002
0000
,
0000
0000
0000
3003
0000
0000
0000
0000
0000
0000
0000
0000
0000
0000
0000
0000
;

//---------------dance-single - ----------------
#NOTEDATA:;
#CHARTNAME:;
#CHARTHASH:528560141;
#STEPSTYPE:dance-single;
#BANNER:;
#DESCRIPTION:;
#CHARTSTYLE:;
#DIFFICULTY:Hard;
#METER:12;
#METERF:0.000000;
#LASTSECONDHINT:75.517746;
#RADARVALUES:0.561943,0.569389,0.118008,0.183568,0.367136,300.000000,291.000000,9.000000,14.000000,0.000000,0.000000,0.000000,0.000000,0.000000,0.561943,0.569389,0.118008,0.183568,0.367136,300.000000,291.000000,9.000000,14.000000,0.000000,0.000000,0.000000,0.000000,0.000000;
#CREDIT:OrangeRight;
#OFFSET:1.759000;
#BPMS:0.000000=112.089996
,31.000000=131.919998
,62.000000=133.750000
,64.000000=104.959999
,97.000000=100.000000
,104.000000=200.000000
,106.000000=100.000000
,113.000000=200.000000
,115.000000=270.059998
,118.000000=135.029999
,142.000000=134.070007
,143.000000=125.999992
,143.500000=105.000000
,144.000000=81.000000
,144.250000=75.000000
,144.500000=58.000000
;
#STOPS:10.000000=0.530000
,31.000000=1.369000
,64.000000=1.708000
,115.000000=0.167000
,115.750000=0.167000
,116.500000=0.167000
,117.250000=0.056000
,117.500000=0.056000
,117.750000=0.056000
;
#DELAYS:;
#WARPS:;
#TIMESIGNATURES:0.000000=4=4
;
#TICKCOUNTS:0.000000=4
;
#COMBOS:0.000000=1
;
#SPEEDS:0.000000=1.000000=0.000000=0
,10.000000=0.500000=0.530000=1
,10.020833=1.000000=0.530000=1
,31.000000=0.333330=1.369000=1
,64.000000=1.000000=1.708000=1
,125.000000=1.250000=1.000000=0
,126.000000=1.000000=0.500000=0
,133.000000=1.250000=1.000000=0
,134.000000=1.000000=0.500000=0
,135.000000=1.100000=1.000000=0
,137.000000=1.200000=1.000000=0
,139.000000=1.300000=1.000000=0
,141.000000=1.400000=1.000000=0
,143.000000=0.100000=2.000000=0
;
#SCROLLS:0.000000=1.000000
,31.000000=3.000000
,64.000000=1.000000
;
#FAKES:;
#LABELS:0.000000=Song Start
;
#ATTACKS: TIME=-1.772655:LEN=2.500000:MODS=*50 Dark, *50 50% Flip,*50 -200% Mini: TIME=0.368482:LEN=2.000000:MODS=*0.3 0% Dark,*0.3 0% Flip:
;
#DISPLAYBPM:100.000000:135.000000;
#NOTES:
// measure 0
0000
0000
0000
0000
,  // measure 1
0000
0000
0000
0000
,  // measure 2
0000
0000
0000
0000
2002
3003
1000
0100
,  // measure 3
1000
0010
1000
0000
0010
0100
0010
0000
0100
0000
0001
0000
1000
0000
0100
0000
,  // measure 4
0001
0000
0100
0000
1000
0001
1000
0000
0001
0000
1001
0000
1000
0010
0000
0100
,  // measure 5
0000
0001
0000
0000
0010
0000
0001
1000
0001
0000
0010
0000
0100
0000
1000
0001
,  // measure 6
1000
0010
0100
0001
0010
0001
1001
0000
,  // measure 7
1000
0010
0000
0100
0001
0000
0010
0100
0010
0000
0001
0000
2002
0000
3003
0000
,  // measure 8
1000
0100
0001
0100
1000
0001
1000
0000
,  // measure 9
1000
0010
0010
0100
0001
0010
0010
0100
,  // measure 10
1000
0010
0001
0010
1000
0100
0010
0000
,  // measure 11
0001
0100
0100
0010
1000
0100
0100
0010
,  // measure 12
0001
0100
1000
0100
0001
0010
0100
0000
,  // measure 13
0010
0001
0001
0100
0010
1000
1000
0100
,  // measure 14
1000
0010
0010
0100
0001
1000
1000
0100
,  // measure 15
1000
1000
0001
0001
0100
0010
0110
0000
,  // measure 16
2002
0000
3003
0000
1000
0000
0100
0000
0010
0001
0010
0000
0001
0000
0100
0000
,  // measure 17
0010
1000
0010
0000
1000
0001
1000
0001
0100
0000
0010
0000
1000
0100
1000
0000
,  // measure 18
0001
0000
1000
0000
0001
0000
0010
0000
0100
1000
0100
0000
1000
0000
0010
0000
,  // measure 19
0100
0001
0100
0000
0010
0100
0010
0100
0001
0000
0010
0000
0100
1000
0100
0000
,  // measure 20
1000
0000
0001
0000
1000
0010
1000
0000
0010
0000
0100
0000
0001
0010
0001
0000
,  // measure 21
0100
0000
0010
0000
1000
0100
1000
0000
0001
0100
0001
0000
1000
0001
1000
0001
,  // measure 22
1000
0000
0000
0000
0001
0100
0010
0000
1000
0000
0100
0000
1000
0010
0100
0000
,  // measure 23
0001
0000
1000
0000
0010
1000
0010
1000
0010
0100
0010
0100
0001
0100
0001
0000
,  // measure 24
1000
0000
0001
0000
1000
0000
0100
0000
1000
0001
0000
0000
0001
0000
0100
0000
,  // measure 25
0001
1000
0000
0000
1000
0000
0100
1000
0100
1000
0001
0000
1000
0000
0010
0000
,  // measure 26
2010
0000
0000
0000
0000
0000
0000
0000
3001
0000
0100
0000
0010
1000
0000
0000
,  // measure 27
1000
0000
0100
0000
0010
0001
0000
0000
0001
0000
0100
0010
1000
0001
1000
0000
,  // measure 28
0100
0000
0010
0000
0012
0000
0000
0000
0000
0000
0000
0000
1003
0000
0000
0100
,  // measure 29
0000
0000
0010
0000
0000
0001
0000
0100
0001
0000
1000
0000
0001
0000
0001
0010
,  // measure 30
0000
0010
0100
0000
1000
0000
0010
0000
1000
0000
0001
0000
1000
0000
1000
0100
,  // measure 31
0000
0100
0010
0000
0002
0000
0100
0000
0103
0000
0001
0000
1000
0000
0001
1000
,  // measure 32
0000
1000
0001
0000
1000
0000
0100
0000
1000
0000
0001
0000
0100
0000
0010
0100
,  // measure 33
0000
0100
0010
0000
2000
0000
0100
0000
3100
0000
1000
0000
0020
0000
0100
0000
,  // measure 34
0130
0000
0010
0000
2000
0000
0001
0000
3001
0000
1000
0000
0100
0000
1000
0010
,  // measure 35
0100
0000
0001
0000
1000
0000
0100
0000
0010
0001
1000
0000
2002
0000
0000
0000
,  // measure 36
0000
0000
0000
3003
0000
0000
0000
0000
0000
0000
0000
0000
0000
0000
0000
0000
;

//---------------dance-single - ----------------
#NOTEDATA:;
#CHARTNAME:;
#CHARTHASH:2192464748;
#STEPSTYPE:dance-single;
#BANNER:;
#DESCRIPTION:;
#CHARTSTYLE:;
#DIFFICULTY:Challenge;
#METER:14;
#METERF:0.000000;
#LASTSECONDHINT:75.517746;
#RADARVALUES:0.745511,0.735460,0.432696,0.131120,0.819500,398.000000,365.000000,33.000000,10.000000,12.000000,0.000000,0.000000,0.000000,0.000000,0.745511,0.735460,0.432696,0.131120,0.819500,398.000000,365.000000,33.000000,10.000000,12.000000,0.000000,0.000000,0.000000,0.000000;
#CREDIT:OrangeRight;
#OFFSET:1.759000;
#BPMS:0.000000=112.089996
,31.000000=131.919998
,62.000000=133.750000
,64.000000=104.959999
,97.000000=100.000000
,104.000000=200.000000
,106.000000=100.000000
,113.000000=200.000000
,115.000000=270.059998
,118.000000=135.029999
,142.000000=134.070007
,143.000000=125.999992
,143.500000=105.000000
,144.000000=81.000000
,144.250000=75.000000
,144.500000=58.000000
;
#STOPS:10.000000=0.530000
,31.000000=1.369000
,64.000000=1.708000
,115.000000=0.111000
,115.500000=0.056000
,115.750000=0.111000
,116.250000=0.056000
,116.500000=0.167000
,117.250000=0.056000
,117.500000=0.056000
,117.750000=0.056000
;
#DELAYS:;
#WARPS:;
#TIMESIGNATURES:0.000000=4=4
;
#TICKCOUNTS:0.000000=4
;
#COMBOS:0.000000=1
;
#SPEEDS:0.000000=1.000000=0.000000=0
,10.000000=0.500000=0.530000=1
,10.020833=1.000000=0.530000=1
,31.000000=0.333300=1.369000=1
,36.500000=0.300000=0.500000=0
,37.000000=0.333300=0.500000=0
,38.500000=0.300000=0.500000=0
,39.000000=0.333300=0.500000=0
,44.500000=0.300000=0.500000=0
,45.000000=0.333300=0.500000=0
,46.500000=0.300000=0.500000=0
,47.000000=0.333300=0.500000=0
,52.500000=0.300000=0.500000=0
,53.000000=0.333300=0.500000=0
,54.500000=0.300000=0.500000=0
,55.000000=0.333300=0.500000=0
,56.500000=0.300000=0.500000=0
,57.000000=0.333300=0.500000=0
,58.500000=0.300000=0.500000=0
,59.000000=0.333300=0.500000=0
,62.000000=0.300000=0.500000=0
,62.500000=0.333300=0.500000=0
,64.000000=1.000000=1.708000=1
,67.000000=0.800000=0.000000=0
,67.125000=1.000000=0.250000=0
,67.500000=0.800000=0.000000=0
,67.625000=1.000000=0.250000=0
,72.000000=1.200000=0.000000=0
,72.125000=1.000000=0.250000=0
,72.500000=1.200000=0.000000=0
,72.625000=1.000000=0.250000=0
,75.000000=0.800000=0.000000=0
,75.125000=1.000000=0.250000=0
,75.500000=0.800000=0.000000=0
,75.625000=1.000000=0.250000=0
,80.000000=1.200000=0.000000=0
,80.125000=1.000000=0.250000=0
,80.500000=1.200000=0.000000=0
,80.625000=1.000000=0.250000=0
,83.000000=0.800000=0.000000=0
,83.125000=1.000000=0.250000=0
,83.500000=0.800000=0.000000=0
,83.625000=1.000000=0.250000=0
,88.000000=1.200000=0.000000=0
,88.125000=1.000000=0.250000=0
,88.500000=1.200000=0.000000=0
,88.625000=1.000000=0.250000=0
,90.500000=0.800000=0.000000=0
,90.625000=1.000000=0.250000=0
,92.500000=1.200000=0.000000=0
,92.625000=1.000000=0.250000=0
,93.000000=0.800000=2.000000=0
,95.000000=1.000000=2.000000=0
,125.000000=1.250000=1.000000=0
,126.000000=1.000000=0.500000=0
,133.000000=1.250000=1.000000=0
,134.000000=1.000000=0.500000=0
,135.000000=1.100000=1.000000=0
,137.000000=1.200000=1.000000=0
,139.000000=1.300000=1.000000=0
,141.000000=1.400000=1.000000=0
,143.000000=0.100000=2.000000=0
;
#SCROLLS:0.000000=1.000000
,31.000000=3.000000
,64.000000=1.000000
;
#FAKES:;
#LABELS:0.000000=Song Start
;
#ATTACKS: TIME=-1.772655: LEN=1.759000: MODS=*100 Dark: TIME=57.089134: LEN=4.200000: MODS=*5 25% Drunk: TIME=-1.772655: LEN=1.759000: MODS=*100 Dark: TIME=57.089134: LEN=4.200000: MODS=*5 25% Drunk: TIME=-1.772655: LEN=1.759000: MODS=*100 Dark: TIME=57.089134: LEN=4.200000: MODS=*5 25% Drunk: TIME=-1.772655: LEN=1.759000: MODS=*100 Dark: TIME=57.089134: LEN=4.200000: MODS=*5 25% Drunk: TIME=-1.772655: LEN=1.759000: MODS=*100 Dark: TIME=-1.772655: LEN=1.759000: MODS=*100 Dark: TIME=-1.772655: LEN=1.759000: MODS=*100 Dark: TIME=-1.772655: LEN=1.759000: MODS=*100 Dark: TIME=-1.772655: LEN=1.759000: MODS=*100 Dark: TIME=-1.772655: LEN=4.282000: MODS=*5 50% Flip,50% Tipsy,-100 movex1,100 movex4,100 movey2,-100 movey3,*10 100% Centered: TIME=2.509619: LEN=1.000000: MODS=*1.5 0% Flip,*1.5 0 movey2,*1.5 0 movey3,*1.5 0 movex1,*1.5 0 movex4,*1.5 0% Centered: TIME=31.716806: LEN=0.800000: MODS=*1.2 250% Dizzy, *1.5 Tipsy, *1.5 200% Drunk: TIME=52.289135: LEN=4.200000: MODS=*5 25% Drunk: TIME=57.089134: LEN=4.200000: MODS=*5 25% Drunk: TIME=15.351155: LEN=0.400000: MODS=40% Flip,-200 movey2,-200 movey3: TIME=17.174976: LEN=13.640000: MODS=*5 20% Beat: TIME=63.446819: LEN=0.100000: MODS=*3 -25% Dizzy: TIME=65.224205: LEN=0.100000: MODS=*3 25% Dizzy: TIME=67.001587: LEN=0.100000: MODS=*3 -25% Dizzy: TIME=68.778969: LEN=0.100000: MODS=*3 25% Dizzy: TIME=70.556351: LEN=0.100000: MODS=*3 -25% Dizzy: TIME=71.445045: LEN=0.100000: MODS=*10 50% Dizzy: TIME=72.333733: LEN=0.100000: MODS=*10 -50% Dizzy: TIME=73.222427: LEN=0.100000: MODS=*10 75% Dizzy: TIME=73.444595: LEN=0.100000: MODS=*10 -75% Dizzy: TIME=73.666771: LEN=3.000000: MODS=*10 500% Dizzy:
;
#DISPLAYBPM:100.000000:135.000000;
#NOTES:
0000
0000
0000
0000
,
0000
0000
0000
0000
,
0000
0000
0000
0000
2002
3003
1000
0100
,
0010
0001
1000
0000
0010
1000
0001
0000
0100
0000
0101
0000
0001
0000
0010
0100
,
1000
0000
0010
0100
0001
1000
0001
1000
0010
0100
0010
0000
1000
0100
0000
0010
,
0000
0001
0000
1000
0001
0000
1000
0001
0100
0000
0010
0000
1000
0000
0001
1000
,
0100
0000
0010
0000
0001
0010
0100
1000
0010
0000
0110
0000
1001
0000
1000
0000
,
0100
0010
0000
0010
0001
0000
1000
0001
1000
0000
0001
0000
2002
0000
3003
0000
,
1000
0001
0010
1000
0010
0001
0100
0010
,
1000
0100
01M0
0001
1000
0010
0M10
0001
,
1000
0100
1000
0000
0001
0000
0100
0010
0100
0000
0001
0010
0100
1000
0010
0100
,
0001
0010
0M10
1000
0001
0100
01M0
1000
,
0001
0100
0001
0000
0010
0100
1000
0001
0100
0001
1000
0000
0100
1000
0000
0001
,
1000
0010
0M10
0100
1000
0100
01M0
0001
,
0010
0001
0010
0000
0M10
0000
1000
0000
0100
1000
0100
0000
01M0
0000
0001
0000
,
1000
0100
0010
0001
1000
0010
0100
0001
0010
0000
0100
0000
0110
0000
0000
0000
,
2002
0000
3003
0000
1000
0000
1010
0000
0010
0100
0001
0000
0011
0000
1100
0000
,
1000
0001
1000
0000
0001
0010
0001
0010
0100
0010
0100
0010
0100
1000
0100
0000
,
1100
0000
0011
0000
0001
0010
0001
0100
0010
1000
0100
0000
1100
0000
0011
0000
,
0001
1000
0001
0000
1000
0010
1000
0010
0100
0010
0100
0010
0100
0001
0100
0000
,
0101
0000
1010
0000
0010
1000
0100
0010
0100
1000
0001
0000
1001
0000
0110
0000
,
0010
1000
0001
0000
1000
0100
0001
0100
1000
0010
0100
0001
0010
0100
0010
0000
,
0110
0000
1001
0000
0001
0100
1000
0100
0001
0000
0011
0000
0010
0100
1000
0010
,
0100
0000
0101
0000
0001
0010
0000
0100
1000
0000
0010
0000
0100
0001
0100
0001
,
1000
0000
1001
0000
1000
0100
0010
0100
1000
0010
0000
0M10
0001
0100
0010
0100
,
0001
0010
0000
0M10
1000
0100
0001
0100
1000
0010
0100
0001
0010
0100
1000
0001
,
2000
0000
0000
0000
0000
0000
0000
0000
3001
1000
0100
1000
0010
0100
0000
01M0
,
1000
0001
0010
0001
0100
0010
0000
0M10
0001
0100
1000
0100
0010
1000
0100
0001
,
0100
0010
0100
1000
0002
0000
0000
0000
0000
0000
0000
0000
1003
0000
0001
1000
,
0000
1000
0001
0000
0000
0100
0010
0100
0010
0000
1010
0000
1000
0000
0100
1000
,
0000
1000
0100
0000
0010
0001
0010
0001
1000
0000
1001
0000
0001
0000
0100
0001
,
0000
0001
0100
0000
0010
1000
0010
1000
0001
0000
1001
0000
1000
0000
0010
0100
,
0000
0100
0010
0000
1000
0100
0010
0001
0100
0000
0101
0000
0001
0000
0100
0010
,
0000
0010
1000
0000
0100
1000
0010
0100
0010
0000
1010
0000
1000
0100
0010
0001
,
0100
0000
0101
0000
0001
0100
0010
1000
0100
0000
1100
0000
1000
0010
0100
0001
,
0010
0000
0011
0000
1010
0000
1100
0000
1000
0100
0010
0002
2000
0000
0000
0000
,
0000
0000
0000
3003
0000
0000
0000
0000
0000
0000
0000
0000
0000
0000
0000
0000
;
