#TITLE:Voxane;
#SUBTITLE:;
#ARTIST:Remo-con;
#TITLETRANSLIT:;
#SUBTITLETRANSLIT:;
#ARTISTTRANSLIT:;
#GENRE:;
#CREDIT:;
#MUSIC:Voxane.ogg;
#BANNER:Voxane.png;
#BACKGROUND:Voxane-bg.png;
#CDTITLE:;
#SAMPLESTART:12.341;
#SAMPLELENGTH:15.000;
#SELECTABLE:YES;
#OFFSET:1.373;
#BPMS:0.000=140.000
,103.000=280.000
,104.000=140.000
,128.000=280.000
,130.000=140.000
,208.500=280.000
,209.500=140.000
;
#STOPS:103.000=0.214
,128.000=0.429
,132.500=1.286
,208.500=0.214
,244.000=5.509
;
#DISPLAYBPM:140.000;
#BGCHANGES:;
#FGCHANGES:;

//--------------- dance-single - Extraordiberry ----------------
#NOTES:
     dance-single:
     Extraordiberry:
     Beginner:
     3:
     0,0,0,0,0:
0000
0000
0000
0000
,
0000
0000
0000
0000
,
0000
0000
0000
0000
,
0000
0000
0000
0000
,
0000
0000
0000
0000
,
0000
1000
0000
0000
0000
0000
0000
0000
,
0000
0001
0000
0000
0000
0000
0000
0000
,
0000
1000
0000
0000
0000
0000
0000
0000
,
0001
0000
0000
0000
,
1000
0000
0000
0000
,
0000
0000
0000
0000
,
1000
0000
0000
0000
,
0000
0000
0000
0000
,
0001
0000
0000
0000
,
0000
0000
0000
0000
,
0001
0000
0000
0000
,
1000
0000
0000
0000
,
0001
0000
0000
0000
,
0100
0000
0000
0000
,
0001
0000
0000
0000
,
1000
0000
0000
0000
,
1001
0000
0000
0000
,
0000
0000
0000
0000
,
0001
0000
0000
0000
,
0000
0000
0000
0000
,
0000
0000
0000
0000
,
0000
0000
0000
0000
,
1000
0000
0000
0000
,
0000
0000
0000
0000
,
0001
0000
0000
0000
,
0000
0000
0000
0000
,
0100
0000
0000
0000
,
0010
0000
0000
0000
,
0000
0000
0000
0000
,
0000
1000
0000
0000
,
0000
0000
0000
0000
,
0000
0001
0000
0000
,
0000
1000
0000
0000
,
0000
0001
0000
0000
,
0000
1000
0000
0000
,
0000
0001
0000
0000
,
0000
1001
0000
0000
,
0000
1000
0000
0000
,
0000
0100
0000
0000
,
0000
0010
0000
0000
,
0000
0001
0000
0000
,
0000
0100
0000
0000
,
0000
0010
0000
0000
,
0000
1000
0000
0000
,
0000
1001
0000
0000
,
0000
0000
0000
0000
,
0000
1000
0000
0000
,
0000
0000
0000
0000
,
0000
0001
0000
0000
,
0000
0000
0000
0000
,
0000
1000
0000
0000
,
0000
0000
0000
0000
,
0000
1000
0000
0000
,
0000
0000
0000
0000
,
0000
0001
0000
0000
,
0000
0000
0000
0000
0000
0000
0000
0000
0000
0000
0000
0000
0000
0000
0000
0000
0000
0000
0000
0000
0000
0000
0000
0000
0000
0000
0000
0000
0000
0000
0000
0000
0000
0000
0000
0000
0000
0000
0000
0000
0000
0000
0000
0000
0000
0000
0000
0000
0000
0000
0000
0000
0000
0000
0000
0000
0000
0000
0000
0000
0000
0000
0000
0000
0000
0000
0000
0000
0000
0000
0000
0000
0000
0000
0000
0000
0000
0000
0000
0000
0000
0000
0000
0000
0000
0000
0000
0000
0000
0000
0000
0000
0000
0000
0000
0000
0000
0000
0000
0000
0000
0000
0000
0000
0000
0000
0000
0000
0000
0000
0000
0000
0000
0000
0000
0000
0000
0000
0000
0000
0000
0000
0000
0000
0000
0000
0000
0000
0000
0000
0000
0000
0000
0002
0000
0000
0000
0000
0000
0000
0000
0000
0000
0000
0000
0000
0000
0000
0000
0000
0000
0000
0000
0000
0000
0000
0000
0000
0000
0000
0000
0000
0000
0000
0000
0000
0000
0000
0000
0000
0000
0000
0000
0000
0000
0000
0000
0000
0000
0000
0000
0000
0000
0000
0000
0000
0000
0000
0000
0000
0000
0000
,
0000
0003
0000
0000
0000
0000
0000
0000
0000
0000
0000
0000
0000
0000
0000
0000
0000
0000
0000
0000
0000
0000
0000
0000
0000
0000
0000
0000
0000
0000
0000
0000
0000
0000
0000
0000
0000
0000
0000
0000
0000
0000
0000
0000
0000
0000
0000
0000
0000
0000
0000
0000
0000
0000
0000
0000
0000
0000
0000
0000
0000
0000
0000
0000
0000
0000
0000
0000
0000
0000
0000
0000
0000
0000
0000
0000
0000
0000
0000
0000
0000
0000
0000
0000
0000
0000
0000
0000
0000
0000
0000
0000
0000
0000
0000
0000
;

//--------------- dance-single - Extraordiberry ----------------
#NOTES:
     dance-single:
     Extraordiberry:
     Easy:
     7:
     0,0,0,0,0:
0000
0000
0000
0000
,
0000
0000
0000
0000
,
0000
0000
0000
0000
,
0000
0000
0000
0000
,
0000
0000
0000
0000
,
0000
1000
0000
1000
0000
1000
0000
0000
,
0000
0001
0000
0001
0000
0001
0000
0000
,
0000
0010
0000
0010
0000
0010
0000
0000
,
0100
0000
1001
0000
,
1000
0100
1000
0000
,
0001
0010
0001
0000
,
1000
0010
1000
0000
,
0001
0100
0001
0100
,
0001
1000
0001
0000
,
0010
0100
0010
0000
,
0001
0010
0001
1000
,
0001
0100
0001
0010
,
0001
0001
0001
0000
,
1000
1000
1000
0000
,
0010
0010
0010
0010
,
1000
0001
0010
0100
,
2000
0000
0000
0000
,
3002
0000
0000
0000
,
2003
0000
0000
0000
,
3020
0000
0000
0000
,
0230
0000
0000
0000
,
0301
0000
0000
0001
,
2000
0000
3000
0000
,
1000
0000
0000
1000
,
0000
0002
0000
0000
0000
0003
0000
0000
,
1000
0000
0001
0001
,
0000
2000
0000
0000
0000
3000
0000
0000
,
0001
0000
0002
0000
,
0000
2003
3001
0000
0001
0000
0001
0000
,
0000
0010
0010
0010
,
0000
0100
0100
0100
,
0000
1000
1000
1000
,
0000
1001
0000
0001
,
0000
1001
0000
1000
,
0000
0110
0100
0110
,
1001
0120
0000
0100
,
0130
1000
0100
0001
,
0100
1000
0100
0010
,
0000
0001
0100
1000
,
0100
0000
0000
0000
0001
0000
0000
0000
0100
0000
0000
0000
0010
0000
0000
0010
,
0000
2000
0001
0000
,
0100
0000
0001
3001
,
0000
0002
1000
0000
,
0100
0000
1000
1000
,
0010
2003
3001
0000
,
0001
0000
0000
0100
0000
0000
0000
0000
0100
0000
0000
0000
,
0100
0200
0300
0020
,
0000
0000
0000
1030
0000
0000
0002
0000
,
0003
2000
3000
0001
,
0000
0002
0003
0000
,
0000
1001
0000
1000
,
0000
0000
0000
2000
0000
3000
0000
0000
,
0000
0002
0000
0000
,
0000
0020
0000
0000
,
0033
2000
0000
0000
,
0000
0000
0000
0000
0000
0000
0000
0000
0000
0000
0000
0000
0000
0000
0000
0000
0000
0000
0000
0000
0000
0000
0000
0000
0000
0000
0000
0000
0000
0000
0000
0000
0000
0000
0000
0000
0000
0000
0000
0000
0000
0000
0000
0000
0000
0000
0000
0000
0000
0000
0000
0000
0000
0000
0000
0000
0000
0000
0000
0000
0000
0000
0000
0000
0000
0000
0000
0000
0000
0000
0000
0000
0000
0000
0000
0000
0000
0000
0000
0000
0000
0000
0000
0000
0000
0000
0000
0000
0000
0000
0000
0000
0000
0000
0000
0000
0000
0000
0000
0000
0000
0000
0000
0000
0000
0000
0000
0000
0000
0000
0000
0000
0000
0000
0000
0000
0000
0000
0000
0000
0000
0000
0000
0000
0000
0000
0000
0000
0000
0000
0000
0000
0000
0001
0000
0000
0000
0000
0000
0000
0000
0000
0000
0000
0000
0000
0000
0000
0000
0000
0000
0000
0000
0000
0000
0000
0000
0000
0000
0000
0000
0000
0000
0000
0000
0000
0000
0000
0000
0000
0000
0000
0000
0000
0000
0000
0000
0000
0000
0000
0000
0000
0000
0000
0000
0000
0000
0000
0000
0000
0000
0000
,
0000
3000
0000
0000
0000
0000
0000
0000
0000
0000
0000
0000
0000
0000
0000
0000
0000
0000
0000
0000
0000
0000
0000
0000
0000
0000
0000
0000
0000
0000
0000
0000
0000
0000
0000
0000
0000
0000
0000
0000
0000
0000
0000
0000
0000
0000
0000
0000
0000
0000
0000
0000
0000
0000
0000
0000
0000
0000
0000
0000
0000
0000
0000
0000
0000
0000
0000
0000
0000
0000
0000
0000
0000
0000
0000
0000
0000
0000
0000
0000
0000
0000
0000
0000
0000
0000
0000
0000
0000
0000
0000
0000
0000
0000
0000
0000
;

//--------------- dance-single - Extraordiberry ----------------
#NOTES:
     dance-single:
     Extraordiberry:
     Medium:
     12:
     0,0,0,0,0:
0000
0000
0000
0000
,
0000
0000
0000
0000
,
0000
0000
0000
0000
,
0000
0000
0000
0000
,
0000
0000
0000
0000
,
0000
1000
0000
1000
0000
1000
0000
1000
,
0000
0100
0000
0100
0000
0100
0000
0100
,
0000
0010
0000
0010
0000
0001
0000
0001
,
1000
0000
0000
0100
0000
0000
0001
0000
0000
0100
0000
0000
1000
0000
1000
0000
,
0001
0000
0000
0001
0000
0000
0100
0000
0000
0100
0000
0000
0001
0000
0001
0000
,
1000
0000
0000
1000
0000
0000
0100
0000
0000
0100
0000
0000
1000
0000
1000
0000
,
0010
0000
0000
0010
0000
0000
1000
0000
0000
1000
0000
0010
0000
0000
0010
0000
,
0000
1000
0000
0000
1000
0000
1000
0000
0000
0100
0000
0000
0010
0000
0010
0000
,
0001
0000
0000
0100
0001
0000
0100
0000
0000
0100
0001
0000
1000
0000
0100
0000
,
1000
0000
0000
0100
1000
0000
0100
0000
0000
0100
1000
0000
0010
0000
0010
0000
,
1000
0000
0000
0001
0100
0000
0001
0000
0000
0000
1000
0100
0000
0000
0110
0000
,
0000
1000
0200
0000
0010
0000
0310
0000
0000
0001
0200
0000
0010
0000
0310
0000
,
2000
0010
0000
0001
0000
0010
0000
0001
,
3002
1000
0000
0100
0000
1000
0000
0100
,
0203
0001
0000
0010
0000
1000
0000
0010
,
0320
0000
0000
2030
0000
0000
3200
0000
0000
0302
0000
0000
0203
0000
2300
0000
,
3020
0000
0000
0000
0000
0000
0000
0000
0000
1000
0000
0000
0000
0000
0000
0100
,
0000
0000
0000
0000
0000
1000
0000
0000
0000
0000
0000
0001
0000
0000
0030
0000
,
0020
0000
0000
0000
0000
0000
0000
0000
0000
0100
0000
0000
0000
0000
0000
0001
,
0000
0000
0000
0000
0000
1000
0000
0000
0000
0000
0000
0001
0000
0000
0030
0000
,
0020
0000
0000
0000
,
1030
0000
0001
0100
0001
1000
0001
0010
,
0100
0000
0100
0000
0000
1000
0000
1000
0000
1000
0100
1000
,
0200
0000
0310
0001
1000
0001
0100
0001
,
0000
0000
2000
0000
0000
3020
0000
0000
0230
0000
0000
0302
0000
0000
0023
0000
,
0230
0000
0000
0000
0300
0000
1000
0000
0001
0000
0000
0001
0000
0000
0001
0000
,
0000
0200
0000
0000
0000
0000
0300
0000
,
1001
0000
0000
0000
0000
0000
1000
0010
1000
0010
0100
0001
,
0000
0000
0002
0000
1003
0000
0000
0100
0000
0000
0001
0000
0000
0100
0000
0000
,
1000
0000
1000
0000
0001
0000
0000
0100
0000
0000
1000
0000
0000
0100
0000
0000
,
0001
0000
0001
0000
1000
0000
0000
0010
0000
0000
0001
0000
0000
0010
0000
0000
,
1000
0000
1000
0000
0001
0000
0000
0010
0000
0000
1000
0000
0010
0000
0000
0001
,
0000
0001
0000
0000
1001
0000
0000
1000
0000
0000
1000
0000
0001
0000
0000
0010
,
0000
0100
0000
0000
0110
0000
0000
1000
0000
0001
0000
0000
1001
0000
0000
1000
,
0001
0000
1000
0000
1001
0000
0001
0000
0000
1000
0000
0010
0000
1000
0010
0000
,
0100
0001
0010
0200
0000
0000
0000
0000
0000
0010
0000
0000
,
1000
0000
0000
0000
2300
0000
0000
3200
0000
0000
0302
0000
0000
0203
0000
0000
,
2300
0000
3001
0000
0002
0000
0000
0203
0000
0000
2300
0000
0000
3200
0000
0000
,
0302
0000
1003
0000
2000
0000
0000
3020
0000
0000
0032
0000
0000
0023
0000
0000
,
2030
0000
3001
0000
0020
0000
0000
0230
0000
0000
0302
0000
0203
0000
0000
0320
,
0000
0000
0031
0000
0200
0000
0000
0001
0000
0000
0010
0000
0000
1000
0000
0000
,
0301
0000
1000
0000
0200
0000
0000
0010
0000
0000
0001
0000
0001
0000
0000
1300
,
0000
2000
0000
0000
3020
0000
0000
0001
0000
0001
0000
0000
0100
0000
0000
0000
,
1030
0000
0001
0000
0020
0000
0000
0100
0000
0000
1000
0000
1000
0000
0000
0100
,
0000
0031
0012
0000
0013
0001
0010
0100
,
1000
0000
0000
0001
0000
0000
0100
0000
0000
0000
0100
0000
0000
0000
0000
0000
0001
0000
0000
0000
0001
0000
0000
0000
,
0001
0000
0100
0000
0001
0000
0200
0000
0000
0000
0000
0000
0310
0000
0000
1000
0000
0000
0010
0000
0000
0100
0000
0000
,
0001
0000
0010
0000
0000
0000
0001
0000
0000
0010
0000
0000
1000
0000
0000
0010
,
0000
0001
0020
0000
0031
0100
0001
0100
,
0010
0000
0000
0000
0000
0000
1000
0000
0000
0000
0000
0000
0010
0000
0000
0000
0000
0000
0000
0010
0000
0000
0000
0000
0000
0000
0000
0000
0000
0000
0000
0000
1000
0000
0000
0000
0000
0000
0000
0000
1000
0000
0000
0000
0000
0000
0000
0000
,
1000
0000
0100
0000
1000
0000
0200
0000
0000
0000
0000
0000
0310
0000
0000
0001
0000
0000
1000
0000
0000
0001
0000
0000
,
0100
0000
0001
0000
0000
0000
0010
0000
0000
0100
0000
0000
1100
0000
0000
0100
,
0000
0010
0002
0000
0000
0203
0000
0000
,
0000
0000
0000
2300
0000
0000
0000
0000
,
0000
0000
0000
3100
0000
0000
0001
0000
0000
0000
0000
0000
0000
0000
0000
0000
0000
0000
0000
0001
0000
0000
0000
0000
,
0000
0000
0000
0000
0000
0000
0000
0000
0000
0000
0000
0000
0000
0000
0000
0000
0000
0000
0000
0000
0000
0000
0000
0000
0000
0000
0000
0000
0000
0000
0000
0000
0000
0000
0000
0000
0000
0000
0000
0000
0000
0000
0000
0000
0000
0000
0000
0000
0000
0000
0000
0000
0000
0000
0000
0000
0000
0000
0000
0000
0000
0000
0000
0000
0000
0000
0000
0000
0000
0000
0000
0000
0000
0000
0000
0000
0000
0000
0000
0000
0000
0000
0000
0000
0000
0000
0000
0000
0000
0000
0000
0000
0000
0000
0000
0000
0000
0000
0000
0000
0000
0000
0000
0000
0000
0000
0000
0000
0000
0000
0000
0000
0000
0000
0000
0000
0000
0000
0000
0000
0000
0000
0000
0000
0000
0000
0000
0000
0000
0000
0000
0000
0000
2000
0000
0000
0000
0000
0000
0000
0000
0000
0000
0000
0000
0000
0000
0000
0000
0000
0000
0000
0000
0000
0000
0000
0000
0000
0000
0000
0000
0000
0000
0000
0000
0000
0000
0000
0000
0000
0000
0000
0000
0000
0000
0000
0000
0000
0000
0000
0000
0000
0000
0000
0000
0000
0000
0000
0000
0000
0000
0000
,
0000
3000
0000
0000
0000
0000
0000
0000
0000
0000
0000
0000
0000
0000
0000
0000
0000
0000
0000
0000
0000
0000
0000
0000
0000
0000
0000
0000
0000
0000
0000
0000
0000
0000
0000
0000
0000
0000
0000
0000
0000
0000
0000
0000
0000
0000
0000
0000
0000
0000
0000
0000
0000
0000
0000
0000
0000
0000
0000
0000
0000
0000
0000
0000
0000
0000
0000
0000
0000
0000
0000
0000
0000
0000
0000
0000
0000
0000
0000
0000
0000
0000
0000
0000
0000
0000
0000
0000
0000
0000
0000
0000
0000
0000
0000
0000
;

//--------------- dance-single - Extraordiberry ----------------
#NOTES:
     dance-single:
     Extraordiberry:
     Hard:
     15:
     0,0,0,0,0:
0000
0000
0000
0000
,
0000
0000
0000
0000
,
0000
0000
0000
0000
,
0000
0000
0000
0000
,
0000
0000
0000
0000
,
0000
1000
1000
0100
0100
0010
0010
0001
,
0001
1000
0010
0100
0100
0001
0010
0100
,
0100
2000
0001
3001
0200
0010
0320
1000
,
2030
0000
0000
3200
0000
0000
0302
0000
0000
0203
0000
0000
2300
0000
3002
0000
,
1003
0000
0100
1000
0000
0000
0100
0000
0000
1000
0100
0000
0100
0000
0010
0000
,
0001
0000
0100
0001
0000
0000
0100
0000
0000
0001
0100
0000
0001
0000
1000
0001
,
1000
0000
0010
1000
0000
0000
0010
0000
0000
0010
0000
1010
0000
0000
1000
0100
,
0000
0100
0010
0000
0001
0000
0100
0010
0000
0010
1000
0000
1000
0000
0001
1000
,
0001
0000
0010
0100
0000
0000
0001
0000
0000
0100
0010
0000
0010
0000
0001
0000
,
1000
0000
0010
0100
0000
0000
1000
0000
0000
0100
0010
0000
1000
0000
1000
0100
,
0010
0000
0001
0010
0000
0000
0011
0000
0000
0010
0001
1000
0000
0000
1001
0000
,
0000
1000
0010
0000
0100
0000
0101
0000
0000
0001
0010
0000
0100
0000
1100
0000
,
2000
0001
0001
0001
0001
0001
0001
3010
,
0020
0100
0100
0100
0100
0100
0100
1030
,
2000
0100
0100
0001
0001
0010
0010
3001
,
1001
0000
0000
1010
0000
0000
1100
0000
0000
0011
0000
0000
0110
0000
1001
0000
,
0002
0000
0000
0000
0000
0000
0000
0000
0000
0200
0003
0000
0000
0000
0000
2300
,
0000
0000
0000
0000
0000
3020
0000
0000
0000
0000
0000
0032
0000
0000
0000
0000
,
0023
0000
0000
0000
0000
0000
0000
0000
0000
2030
0000
0000
0000
0000
0000
3200
,
0000
0000
0000
0000
0000
0302
0000
0000
0000
0000
0000
0023
0000
0000
0000
0000
,
0032
0000
0000
0000
,
1003
0000
0100
0001
0100
0010
1000
0010
,
0001
0000
0001
0000
0000
0100
0000
0100
0000
0001
0010
0100
,
2000
0000
3001
0100
1000
0100
0010
0001
,
2000
0000
3200
0000
0000
0320
0000
0000
2030
0000
0000
3200
0000
0000
0310
0000
,
0012
0000
0000
0000
0103
0000
0201
0000
0310
0000
0000
1000
0000
0000
0100
0000
,
0000
0002
0000
0000
0000
0003
0002
0003
,
0110
0000
0000
0000
0000
0000
1000
0001
1000
0010
0100
0010
,
0000
0000
0020
0000
2030
0000
0000
3200
0000
0000
0302
0000
0000
2003
0000
0000
,
3020
0000
0032
0000
2003
0000
0000
3020
0000
0000
0032
0000
0000
2003
0000
0000
,
3200
0000
0302
0000
0023
0000
0000
0001
0000
0000
0100
0000
0000
1000
0000
0000
,
0100
0000
0100
0000
0230
0000
0000
1000
0000
0000
0010
0000
0010
0000
0000
0001
,
0000
0001
0000
0000
1300
0000
0000
1010
0000
0000
0010
0000
1000
0000
0000
1010
,
0000
1010
0000
0000
0001
0000
0000
0011
0000
0010
0001
0000
0011
0000
0000
0001
,
0020
0000
1030
0000
0010
0000
0011
0000
0000
0001
0000
0101
0000
0100
0010
0000
,
1000
0000
0100
0000
0010
0000
0002
0000
0000
0000
0000
0000
0000
0000
0000
0000
0000
0000
0010
0000
0000
1000
0000
0000
,
0100
0000
0103
0000
0201
0000
0000
2300
0000
0000
3002
0000
0000
0013
0000
0000
,
1000
0000
0010
0000
1020
0000
0000
0032
0000
0000
2003
0000
0000
3100
0000
0000
,
0001
0000
0010
0000
0210
0000
0000
0302
0000
0000
2003
0000
0000
3010
0000
0000
,
0001
0000
0010
0000
0021
0000
0000
2030
0000
0000
3002
0000
0103
0000
0000
0101
,
0000
0000
1100
0000
1002
0000
0000
0203
0000
0000
2300
0000
0000
3002
0000
0000
,
0013
0000
1000
0000
2001
0000
0000
3200
0000
0000
0302
0000
2003
0000
0000
3010
,
0000
0011
0000
0000
0201
0000
0000
2300
0000
3002
0000
0000
0013
0000
0000
1000
,
1010
0000
1020
0000
1000
0000
0000
0100
0000
0000
0032
0000
2003
0000
0000
0100
,
0000
3001
0020
0000
1030
0100
0001
0100
,
1000
0000
0000
0100
0000
0000
0010
0000
0000
0000
0011
0000
0000
0000
0000
0000
0001
0000
0000
0000
0001
0000
0000
0000
,
0001
0000
0100
0000
0010
0000
2010
0000
0000
0000
0000
0000
3001
0000
0000
0100
0000
0000
0010
0000
0000
0001
0000
0000
,
1000
0000
0100
0000
0000
0000
2000
0000
0000
3200
0000
0000
0302
0000
0000
0023
,
0000
2030
3002
0000
0103
0010
0001
0100
,
0010
0000
0000
0000
0000
0000
1000
0000
0000
0000
0000
0000
0001
0000
0000
0000
0000
0000
0000
0100
0000
0000
0000
0000
0000
0000
0000
0000
0000
0000
0000
0000
0010
0000
0000
0000
0000
0000
0000
0000
0010
0000
0000
0000
0000
0000
0000
0000
,
1000
0000
0100
0000
0010
0000
0002
0000
0000
0000
0000
0000
1003
0000
0000
0010
0000
0000
1000
0000
0000
0001
0000
0000
,
1000
0000
0100
0000
0000
0000
0110
0000
0000
0010
0000
0000
0001
0000
0000
0100
,
0000
0000
0010
0000
2000
0000
0000
0000
0000
0000
3020
0000
1000
0000
0000
1000
,
0000
0100
0000
0032
0000
0000
0000
0000
,
0000
0000
0000
2003
0000
0000
3100
0000
0000
0000
0000
0000
0000
0000
0000
0000
0000
0000
0000
0001
0000
0000
0010
0000
,
0000
0000
0000
0000
0000
0000
0000
0010
0000
0000
0000
0000
0000
0000
0000
0000
0000
0000
0000
0000
0000
0000
0000
0000
0000
0000
0000
0000
0000
0100
0000
0000
0000
0000
0000
0000
0000
0000
0000
0000
0000
0000
0000
0000
0000
0000
0000
0000
1000
0000
0000
0000
0000
0000
0000
0000
0000
0000
0000
0000
0000
0000
0000
0000
0000
0000
0000
0000
0000
0000
0000
0000
0000
0000
0000
1000
0000
0000
0000
0000
0000
0000
0000
0000
0000
0000
0000
0000
0000
0000
0000
0000
0000
0000
0000
0000
0000
0000
0000
0000
0000
0000
0000
0000
0000
0000
0000
0000
0000
0000
0000
0000
0000
0000
0000
0000
0000
0000
0000
0000
0000
0000
0000
0000
0000
0000
0000
0000
0000
0000
0000
0000
0000
2000
0000
0000
0000
0000
0000
0000
0000
0000
0000
0000
0000
0000
0000
0000
0000
0000
0000
0000
0000
0000
0000
0000
0000
0000
0000
0000
0000
0000
0000
0000
0000
0000
0000
0000
0000
0000
0000
0000
0000
0000
0000
0000
0000
0000
0000
0000
0000
0000
0000
0000
0000
0000
0000
0000
0000
0000
0000
0000
,
0000
3000
0000
0000
0000
0000
0000
0000
0000
0000
0000
0000
0000
0000
0000
0000
0000
0000
0000
0000
0000
0000
0000
0000
0000
0000
0000
0000
0000
0000
0000
0000
0000
0000
0000
0000
0000
0000
0000
0000
0000
0000
0000
0000
0000
0000
0000
0000
0000
0000
0000
0000
0000
0000
0000
0000
0000
0000
0000
0000
0000
0000
0000
0000
0000
0000
0000
0000
0000
0000
0000
0000
0000
0000
0000
0000
0000
0000
0000
0000
0000
0000
0000
0000
0000
0000
0000
0000
0000
0000
0000
0000
0000
0000
0000
0000
;
