#VERSION:0.83;
#TITLE:Visterhv;
#SUBTITLE:;
#ARTIST:Feryquitous;
#TITLETRANSLIT:;
#SUBTITLETRANSLIT:;
#ARTISTTRANSLIT:;
#GENRE:Artcore;
#ORIGIN:;
#CREDIT:;
#BANNER:Visterhv.png;
#BACKGROUND:Visterhv-bg.png;
#PREVIEWVID:;
#JACKET:Visterhv-jacket.png;
#CDIMAGE:;
#DISCIMAGE:;
#LYRICSPATH:;
#CDTITLE:cdtitle.png;
#MUSIC:Visterhv.ogg;
#OFFSET:-0.997895;
#SAMPLESTART:86.445175;
#SAMPLELENGTH:20.104713;
#SELECTABLE:YES;
#BPMS:0.000=191.000;
#STOPS:;
#DELAYS:;
#WARPS:;
#TIMESIGNATURES:0.000=4=4;
#TICKCOUNTS:0.000=4;
#COMBOS:0.000=1;
#SPEEDS:0.000=1.000=0.000=0;
#SCROLLS:0.000=1.000;
#FAKES:;
#LABELS:0.000=Song Start;
#BGCHANGES:-4.500=Visterhv.mp4=1.000=1=0=1===CrossFade==,
99999=-nosongbg-=1.000=0=0=0 // don't automatically add -songbackground-
;
#KEYSOUNDS:;
#ATTACKS:
;

//---------------dance-single - ----------------
#NOTEDATA:;
#CHARTNAME:;
#STEPSTYPE:dance-single;
#DESCRIPTION:;
#CHARTSTYLE:;
#DIFFICULTY:Challenge;
#METER:18;
#RADARVALUES:0.982760,1.006100,0.442807,0.956779,0.853984,870.000000,814.000000,56.000000,121.000000,11.000000,0.000000,0.000000,0.000000,0.000000,0.982760,1.006100,0.442807,0.956779,0.853984,870.000000,814.000000,56.000000,121.000000,11.000000,0.000000,0.000000,0.000000,0.000000;
#CREDIT:;
#OFFSET:-0.997895;
#BPMS:0.000000=191.000000
;
#STOPS:;
#DELAYS:;
#WARPS:;
#TIMESIGNATURES:0.000000=4=4
;
#TICKCOUNTS:0.000000=4
;
#COMBOS:0.000000=1
;
#SPEEDS:0.000000=1.000000=0.000000=0
;
#SCROLLS:0.000000=0.500000
,12.500000=0.625000
,13.000000=0.750000
,13.500000=0.875000
,14.000000=1.000000
,15.500000=0.000000
,16.250000=2.000000
,16.500000=1.000000
,47.500000=0.000000
,48.250000=2.000000
,48.500000=1.000000
,76.500000=0.900000
,77.000000=0.800000
,77.500000=0.700000
,78.000000=0.600000
,78.500000=0.500000
,79.000000=4.000000
,79.250000=0.000000
,79.750000=1.000000
,112.500000=0.000000
,112.750000=2.000000
,113.000000=1.000000
,142.000000=0.000000
,143.250000=2.000000
,143.500000=1.000000
,176.000000=2.000000
,176.250000=1.000000
,176.500000=0.500000
,177.000000=1.000000
,203.500000=0.000000
,206.000000=0.100000
,206.500000=0.200000
,207.000000=0.300000
,207.500000=0.400000
,208.000000=0.500000
,222.000000=0.550000
,222.500000=0.600000
,223.000000=0.650000
,223.500000=0.700000
,224.000000=0.750000
,237.500000=0.833000
,238.000000=0.916000
,238.500000=1.000000
,240.000000=0.000000
,241.250000=2.000000
,241.500000=0.000000
,242.750000=2.000000
,243.000000=0.000000
,244.250000=2.000000
,244.500000=0.000000
,245.750000=2.000000
,246.250000=1.000000
,246.500000=0.500000
,248.000000=0.000000
,249.250000=2.000000
,249.500000=0.000000
,250.750000=2.000000
,251.000000=0.000000
,252.250000=2.000000
,252.500000=0.000000
,253.750000=2.000000
,254.000000=0.000000
,254.750000=2.000000
,255.000000=0.000000
,255.750000=2.000000
,256.000000=0.000000
,257.250000=2.000000
,257.500000=0.000000
,258.750000=2.000000
,259.000000=0.000000
,260.250000=2.000000
,260.500000=0.000000
,261.750000=2.000000
,262.250000=1.000000
,262.500000=0.500000
,264.000000=0.000000
,265.250000=2.000000
,265.500000=0.000000
,266.750000=2.000000
,267.000000=0.000000
,268.250000=2.000000
,268.500000=1.000000
,270.000000=0.500000
,270.500000=1.000000
,270.750000=2.000000
,271.250000=1.000000
,271.500000=0.500000
,277.000000=0.625000
,277.500000=0.750000
,278.000000=0.875000
,278.500000=0.000000
,279.750000=2.000000
,280.000000=1.000000
,310.500000=0.000000
,311.250000=2.000000
,311.750000=1.000000
,312.000000=0.000000
,312.750000=2.000000
,313.000000=1.000000
,339.500000=0.500000
,340.500000=0.625000
,341.000000=0.750000
,341.500000=0.875000
,342.000000=1.000000
,343.500000=0.000000
,344.250000=2.000000
,344.500000=1.000000
,374.000000=0.500000
,374.500000=1.000000
,374.750000=2.000000
,375.000000=0.000000
,375.250000=2.000000
,375.750000=1.000000
,376.000000=0.500000
;
#FAKES:;
#LABELS:0.000000=Song Start
;
#NOTES:
// measure 0
0000
0000
0000
0000
,  // measure 1
0000
0000
0000
0000
,  // measure 2
0000
0000
0000
0000
,  // measure 3
0000
0000
0001
0000
0010
0000
0100
0000
1000
0010
1000
0010
0100
0000
0210
0000
,  // measure 4
0000
0000
0310
0000
1001
0000
0000
0000
1000
0100
1000
0100
0010
0000
0200
0000
,  // measure 5
0000
0000
0301
0000
0100
0000
0010
0000
0100
1000
0001
1000
0001
1000
0020
0000
,  // measure 6
0M30
0000
0010
0000
0001
0100
0001
0100
0010
0000
0100
0000
0010
0000
1020
0000
,  // measure 7
0000
0000
0130
0010
1000
0000
0001
1000
0100
0010
0100
0000
0010
0000
0022
0000
,  // measure 8
0033
0000
0011
0000
1000
0010
1000
0010
0100
0000
0001
0000
1000
0100
0020
0000
,  // measure 9
0000
0000
0130
2000
0001
0000
0000
0000
3010
1000
0001
1000
0001
1000
0200
0000
,  // measure 10
03M0
0000
0100
0000
0001
0010
0100
1000
0001
0000
0100
0000
0010
0000
0120
0000
,  // measure 11
0000
0000
0130
0001
1000
0000
0001
1000
0100
0000
0010
0100
0010
0000
0210
0000
,  // measure 12
0000
0000
0310
0000
1001
0000
0000
0000
0001
0100
0001
0100
0010
0000
0200
0000
,  // measure 13
0000
0000
1300
0000
0100
0000
0010
0000
0100
0001
1000
0001
1000
0001
0020
0000
,  // measure 14
0M30
0000
0010
0000
1000
0100
1000
0100
0010
0000
0100
0000
0010
0000
0021
0000
,  // measure 15
0000
0000
0130
0010
0001
0000
1000
0001
0100
0010
0100
0000
0010
0000
2020
0000
,  // measure 16
3030
0000
1010
0000
0001
0010
0001
0010
0100
0000
1000
0000
0001
0100
0020
0000
,  // measure 17
0000
0000
0130
0002
1000
0000
0000
0000
0013
0001
1000
0001
1000
0001
0200
0000
,  // measure 18
03M0
0000
0100
0000
1000
0010
0100
0001
1000
0000
0100
0000
0010
0000
0001
0000
,  // measure 19
0002
0000
1000
0000
0000
0000
0000
0000
0103
0000
0000
0000
0220
0330
0000
0000
,  // measure 20
1000
0010
1000
0000
0010
1000
0010
0000
0100
0010
0100
0010
2000
0000
3002
0000
,  // measure 21
1003
0100
1000
0000
0100
1000
0100
0000
0010
0001
1000
0001
0200
0000
0010
0000
,  // measure 22
0301
0010
0001
0000
0010
0001
0010
0000
0100
0010
0100
0010
0002
0000
2003
0000
,  // measure 23
3001
0100
0001
0000
0100
0001
0100
0000
0010
1000
0001
1000
0100
0000
0110
0000
,  // measure 24
0001
0010
0100
0000
0010
0100
1000
0000
0001
0100
0001
0100
0020
0000
0230
0000
,  // measure 25
0301
1000
0100
0000
1000
0100
0010
0000
0100
1000
0001
0100
0020
0000
0100
0000
,  // measure 26
1030
0010
0100
0000
0010
0100
0001
0000
1000
0100
1000
0100
0020
0000
0230
0000
,  // measure 27
1300
0000
0001
0100
0010
0000
1000
0010
0100
0001
0010
0100
1000
0000
0001
0100
,  // measure 28
0010
1000
1010
0000
0001
2000
0010
3002
,  // measure 29
0100
0000
1003
0001
1000
0000
0001
1000
0001
0000
2000
0000
0100
0000
3002
0000
,  // measure 30
0010
0000
1003
0010
1000
0000
0001
0010
0001
0000
2000
0000
0010
0000
3002
0000
,  // measure 31
0100
0000
1003
0100
0010
0000
0001
0100
0010
0000
1000
0000
0001
0010
0001
0010
,  // measure 32
0200
0000
0310
0001
0010
0001
0200
0000
0310
1000
0010
1000
0001
1000
0200
0000
,  // measure 33
1300
0001
0200
0300
0200
0000
0310
1000
0010
0000
0010
1000
0001
1000
0010
0000
,  // measure 34
0200
0000
0310
1000
0010
1000
0200
0000
0310
0001
0010
0001
1000
0001
0200
0000
,  // measure 35
0310
0000
0100
0010
1000
0100
0010
0000
1100
0000
0000
0000
0000
0000
2002
0000
,  // measure 36
3000
0000
0103
0010
1000
0000
0010
1000
0010
0000
1000
0100
0010
0000
0200
0000
,  // measure 37
0000
0310
0100
1000
0001
0000
1000
0010
0200
0000
2300
0000
3200
0000
0320
0000
,  // measure 38
1030
0000
0001
1000
0100
0000
0010
0100
0010
0001
0000
0001
1000
0000
0020
0000
,  // measure 39
0000
0130
0010
0100
0001
0000
0100
0001
0020
0000
2030
0000
3002
0000
0203
0000
,  // measure 40
0310
0000
0100
0010
0001
0000
0010
0001
0010
0000
0001
0100
0010
0000
0200
0000
,  // measure 41
0000
0310
0100
0001
1000
0000
0001
0010
0200
0000
0302
0000
0203
0000
0320
0000
,  // measure 42
0031
0000
1000
0001
0100
0000
0010
0100
0010
1000
0000
1000
0100
0000
0020
0000
,  // measure 43
0000
0031
0100
0010
0100
0000
1000
0100
0010
0000
1000
0100
0010
0000
0100
0010
,  // measure 44
0001
0000
0000
0000
1002
0000
0103
0000
0010
0000
0100
0010
0100
0000
2000
3000
,  // measure 45
0100
0010
1000
0010
0100
0000
0001
1000
0200
0300
0010
0100
0010
0000
0002
1003
,  // measure 46
0010
0000
0100
0000
0001
0000
0001
0000
1000
0100
0010
0100
0010
0000
2000
3000
,  // measure 47
0010
0100
0010
0001
1000
0000
0001
0100
0020
0030
1000
0001
0010
0000
0002
1003
,  // measure 48
0010
0000
0100
0000
0001
1000
0001
0000
0010
0000
0100
0010
0100
0000
0002
0003
,  // measure 49
0100
0010
0001
0010
0100
0000
1000
0001
0200
0300
0010
0100
0010
0000
2000
3001
,  // measure 50
0010
0000
0100
0000
1000
0000
1000
0000
0001
0100
0010
1000
0001
0000
2002
0000
,  // measure 51
0000
0000
0000
3003
,  // measure 52
2000
0000
0010
0010
,  // measure 53
3002
0000
0010
0010
,  // measure 54
2003
0100
3002
0100
,  // measure 55
2003
0000
0000
0000
3001
1000
0100
0010
,  // measure 56
1000
0010
0011
0000
1000
0001
0100
0010
,  // measure 57
0001
0010
1010
0000
0001
0010
1000
0010
,  // measure 58
0001
0100
1000
0100
0001
1000
0010
0100
,  // measure 59
0001
0000
1000
0000
0100
0000
0020
0000
0000
0000
0130
0010
0100
0010
0001
0100
,  // measure 60
0010
0000
0000
1010
0000
0000
1001
0000
,  // measure 61
0000
1100
0000
0000
0220
0000
0330
0000
,  // measure 62
0011
0000
0000
1100
0000
0000
1010
0000
,  // measure 63
0000
0101
0000
0000
2010
0000
3100
0000
,  // measure 64
0110
0000
0000
0011
0000
0000
1001
0000
,  // measure 65
0000
0101
0000
0000
0220
0000
0330
0000
,  // measure 66
1010
0000
0000
0101
0000
0000
0011
0000
,  // measure 67
0000
0000
2100
3000
0002
0003
0200
0300
0120
0000
0000
0000
1030
0000
0000
0000
,  // measure 68
2001
3100
0010
0100
0010
0001
1000
0200
,  // measure 69
0000
0000
2300
0000
0000
3010
0000
0000
,  // measure 70
0011
0000
0000
0000
1000
0000
0001
0100
0010
0100
0001
0000
0100
0000
2000
0000
,  // measure 71
300M
0000
2010
0000
3001
0000
1000
0010
0100
0001
1000
0000
0100
0000
0020
0000
,  // measure 72
0001
0000
0230
0000
1000
0000
0310
0001
1000
0010
0100
0000
0010
0000
0001
0000
,  // measure 73
0010
0000
1000
0000
0001
0000
1000
0010
0100
0001
0010
0000
0001
0000
0020
0000
,  // measure 74
0M30
0000
2010
0000
3001
0000
1000
0100
0010
0100
1000
0000
0100
0000
0002
0000
,  // measure 75
M003
0000
0012
0000
1003
0000
0001
0010
0100
1000
0001
0000
0100
0000
0010
0000
,  // measure 76
1000
0000
0001
0000
0010
0000
0100
1000
0001
1000
0010
0000
0100
0000
0001
0000
,  // measure 77
1000
0000
1000
0000
0001
1000
0100
0010
0200
0000
0310
0000
0000
0000
0220
0000
,  // measure 78
0330
0000
0000
0000
1001
0000
0001
0100
0010
0000
0100
0010
0001
0000
0012
0000
,  // measure 79
M003
0000
0001
0100
0010
0000
1000
0100
0010
0000
0100
0010
1000
0000
2010
0000
,  // measure 80
300M
0000
1000
0100
0010
0000
0001
1000
0010
0000
1000
0010
0100
0010
0002
0000
,  // measure 81
0000
0000
0013
0100
0001
0000
1000
0000
0001
0000
1000
0100
0010
0000
0100
0010
,  // measure 82
1000
0000
0001
0000
0100
0000
1000
0000
0001
0000
0100
0010
0100
0010
0001
0000
,  // measure 83
1000
0100
0010
0100
0001
0000
1000
0100
0010
0000
0001
0100
0010
0000
1000
0000
,  // measure 84
1002
0000
0000
0000
1003
0010
0100
0001
1000
0100
1000
0100
0001
0000
0201
0000
,  // measure 85
0000
0000
0301
0100
0010
0000
0100
1000
0001
0000
0100
0010
0100
0000
0210
0000
,  // measure 86
0000
0000
0310
0000
1001
0000
0000
0000
1000
0010
1000
0100
0010
0000
0200
0000
,  // measure 87
0000
0000
0310
0001
1000
0000
1000
0000
0010
0100
0010
0100
0001
0100
2000
0000
,  // measure 88
300M
0000
1000
0000
0010
0100
0001
1000
0100
0000
0010
0000
0001
0000
1002
0000
,  // measure 89
0000
0000
0103
0010
1000
0000
0001
1000
0100
0010
0100
0000
0010
0000
0210
0000
,  // measure 90
0000
0000
0310
0000
0001
0010
0001
0100
0020
0000
1000
0000
0130
0001
0020
0000
,  // measure 91
0000
0000
0031
0100
0010
0000
1000
0001
0010
0100
0010
0100
1000
0100
0002
0000
,  // measure 92
M003
0000
0001
0000
0010
0100
1000
0001
0100
0000
0010
0000
1000
0000
0001
0000
,  // measure 93
0002
0000
1000
0000
0013
0000
0100
0010
1000
0000
0000
0000
0110
0000
0022
0000
,  // measure 94
0000
0033
0000
0000
;

//---------------dance-single - ----------------
#NOTEDATA:;
#CHARTNAME:;
#STEPSTYPE:dance-single;
#DESCRIPTION:;
#CHARTSTYLE:;
#DIFFICULTY:Hard;
#METER:15;
#RADARVALUES:0.743283,0.781485,0.379549,1.012130,0.264893,658.000000,610.000000,48.000000,128.000000,9.000000,0.000000,0.000000,0.000000,0.000000,0.743283,0.781485,0.379549,1.012130,0.264893,658.000000,610.000000,48.000000,128.000000,9.000000,0.000000,0.000000,0.000000,0.000000;
#CREDIT:;
#OFFSET:-0.997895;
#BPMS:0.000000=191.000000
;
#STOPS:;
#DELAYS:;
#WARPS:;
#TIMESIGNATURES:0.000000=4=4
;
#TICKCOUNTS:0.000000=4
;
#COMBOS:0.000000=1
;
#SPEEDS:0.000000=1.000000=0.000000=0
;
#SCROLLS:0.000000=0.500000
,12.500000=0.625000
,13.000000=0.750000
,13.500000=0.875000
,14.000000=1.000000
,15.500000=0.000000
,16.250000=2.000000
,16.500000=1.000000
,47.500000=0.000000
,48.250000=2.000000
,48.500000=1.000000
,76.500000=0.900000
,77.000000=0.800000
,77.500000=0.700000
,78.000000=0.600000
,78.500000=0.500000
,79.000000=4.000000
,79.250000=0.000000
,79.750000=1.000000
,112.500000=0.000000
,112.750000=2.000000
,113.000000=1.000000
,142.000000=0.000000
,143.250000=2.000000
,143.500000=1.000000
,176.000000=2.000000
,176.250000=1.000000
,176.500000=0.500000
,177.000000=1.000000
,203.500000=0.000000
,206.000000=0.100000
,206.500000=0.200000
,207.000000=0.300000
,207.500000=0.400000
,208.000000=0.500000
,222.000000=0.550000
,222.500000=0.600000
,223.000000=0.650000
,223.500000=0.700000
,224.000000=0.750000
,237.500000=0.833000
,238.000000=0.916000
,238.500000=1.000000
,240.000000=0.000000
,241.250000=2.000000
,241.500000=0.000000
,242.750000=2.000000
,243.000000=0.000000
,244.250000=2.000000
,244.500000=0.000000
,245.750000=2.000000
,246.250000=1.000000
,246.500000=0.500000
,248.000000=0.000000
,249.250000=2.000000
,249.500000=0.000000
,250.750000=2.000000
,251.000000=0.000000
,252.250000=2.000000
,252.500000=0.000000
,253.750000=2.000000
,254.000000=0.000000
,254.750000=2.000000
,255.000000=0.000000
,255.750000=2.000000
,256.000000=0.000000
,257.250000=2.000000
,257.500000=0.000000
,258.750000=2.000000
,259.000000=0.000000
,260.250000=2.000000
,260.500000=0.000000
,261.750000=2.000000
,262.250000=1.000000
,262.500000=0.500000
,264.000000=0.000000
,265.250000=2.000000
,265.500000=0.000000
,266.750000=2.000000
,267.000000=0.000000
,268.250000=2.000000
,268.500000=1.000000
,270.000000=0.500000
,270.500000=1.000000
,270.750000=2.000000
,271.250000=1.000000
,271.500000=0.500000
,277.000000=0.625000
,277.500000=0.750000
,278.000000=0.875000
,278.500000=0.000000
,279.750000=2.000000
,280.000000=1.000000
,310.500000=0.000000
,311.250000=2.000000
,311.750000=1.000000
,312.000000=0.000000
,312.750000=2.000000
,313.000000=1.000000
,339.500000=0.500000
,340.500000=0.625000
,341.000000=0.750000
,341.500000=0.875000
,342.000000=1.000000
,343.500000=0.000000
,344.250000=2.000000
,344.500000=1.000000
,374.000000=0.500000
,374.500000=1.000000
,374.750000=2.000000
,375.000000=0.000000
,375.250000=2.000000
,375.750000=1.000000
,376.000000=0.500000
;
#FAKES:;
#LABELS:0.000000=Song Start
;
#NOTES:
// measure 0
0000
0000
0000
0000
,  // measure 1
0000
0000
0000
0000
,  // measure 2
0000
0000
0000
0000
,  // measure 3
0000
0000
1000
0000
0001
0000
0000
0000
0100
0000
0010
0100
0010
0000
2001
0000
,  // measure 4
0000
0100
3100
0000
1000
0100
0010
0002
,  // measure 5
0000
0000
1000
0000
1003
0000
0000
0000
0001
0100
0001
0000
0100
0000
0010
0000
,  // measure 6
0M00
0000
0010
0000
0100
1000
0100
0000
1000
0000
0002
0000
1000
0000
0203
0000
,  // measure 7
0000
0000
0010
0000
0310
0000
0000
0000
1000
0010
0100
0000
0001
0000
1002
0000
,  // measure 8
0000
0013
0100
2000
0001
0000
3020
0100
,  // measure 9
0000
0000
1030
0001
1000
0000
0000
0000
0001
0010
0001
0000
0010
0000
0100
0000
,  // measure 10
00M0
0000
0100
0000
0010
1000
0010
0000
0100
0000
0001
0000
1000
0000
0200
0000
,  // measure 11
0000
0301
0100
0010
0100
1000
0001
1002
,  // measure 12
0000
0100
0103
0000
0001
0100
0010
2000
,  // measure 13
0000
0000
0001
0000
3001
0000
0000
0000
1000
0100
1000
0000
0100
0000
0010
0000
,  // measure 14
0M00
0000
0010
0000
0100
0001
0100
0000
0001
0000
2000
0000
0001
0000
3200
0000
,  // measure 15
0000
0000
0010
0000
0310
0000
0000
0000
0001
0010
0100
0000
1000
0000
2001
0000
,  // measure 16
0000
3010
0100
0002
1000
0000
0023
0100
,  // measure 17
0000
0000
0031
1000
0001
0000
0000
0000
1000
0010
1000
0000
0010
0000
0100
0000
,  // measure 18
00M0
0000
0100
0000
0010
0001
0010
0000
0100
0000
1000
0000
0001
0000
0100
0000
,  // measure 19
0200
0000
0010
0000
0000
0000
0000
0000
0310
0000
0000
0000
2002
3003
0000
0000
,  // measure 20
1000
0000
0000
0000
1010
0000
0000
0000
1000
0010
1000
0000
0020
0000
2030
0000
,  // measure 21
3100
0000
0000
0000
1100
0000
0000
0000
1000
0100
0010
0000
0200
0000
0320
0000
,  // measure 22
0031
0000
0000
0000
0011
0000
0000
0000
0001
0010
0001
0000
0020
0000
0032
0000
,  // measure 23
0103
0000
0000
0000
0101
0000
0000
0000
0001
0100
0010
0000
2000
0000
3002
0000
,  // measure 24
0013
0000
0000
0000
0110
0000
0000
0000
0001
0010
0001
0000
2000
0000
3020
0000
,  // measure 25
1030
0000
0000
0000
0110
0000
0000
0000
1000
0010
0100
0000
0002
0000
0023
0000
,  // measure 26
0130
0000
0000
0000
1001
0000
0000
0000
1000
0001
1000
0000
0002
0000
0203
0000
,  // measure 27
1300
0000
0000
0000
0101
0000
0000
0000
1000
0010
1000
0000
0001
0010
0001
0000
,  // measure 28
1000
0010
1001
0000
0002
0023
1030
0020
,  // measure 29
0031
1000
1000
0001
2000
3020
0031
0020
,  // measure 30
1030
0001
0001
1000
0200
0302
0103
2000
,  // measure 31
3001
1000
1000
0001
0200
2300
3001
0010
,  // measure 32
2000
0000
3010
1000
0010
0000
2000
0000
3100
1000
0100
0000
0010
0000
0002
0000
,  // measure 33
0103
0000
0002
0000
2003
0000
3001
0000
0010
0100
0010
0000
1000
0000
0010
0000
,  // measure 34
0002
0000
0013
0001
0010
0000
0002
0000
0103
0001
0100
0000
0010
0000
2000
0000
,  // measure 35
3001
0000
1000
0100
0010
0000
0000
0000
0110
0000
0000
0000
0000
0000
1002
0000
,  // measure 36
0000
0010
0010
0000
1000
1000
0000
0203
,  // measure 37
0000
0000
0310
0100
0010
0000
0000
0000
0200
0000
2300
0000
3200
0000
0320
0000
,  // measure 38
2030
0010
0010
0000
0001
0001
0000
3200
,  // measure 39
0000
0000
0310
0100
0010
0000
0000
0000
0200
0000
0302
0000
0203
0000
2300
0000
,  // measure 40
3002
0100
0100
0000
1000
1000
0000
0023
,  // measure 41
0000
0000
0031
0010
0100
0000
0000
0000
0020
0000
2030
0000
3020
0000
0032
0000
,  // measure 42
2003
0100
0100
0000
0001
0001
0000
3020
,  // measure 43
0000
0000
0031
0000
0010
0000
1000
0000
0001
0000
0100
0010
1000
0000
0001
0000
,  // measure 44
1000
0000
0000
0000
1002
0000
0013
0000
0100
0000
0010
0100
0010
0000
2000
3000
,  // measure 45
0000
0000
0010
0100
0010
0000
0100
0000
0002
0003
0100
0000
0010
0000
0002
0003
,  // measure 46
0010
0000
0001
0000
1000
0000
0010
0000
0100
0000
0010
0100
0010
0000
0002
0003
,  // measure 47
0000
0000
0010
0100
0010
0000
0100
0000
2000
3000
0100
0000
0010
0000
2000
3000
,  // measure 48
0010
0000
1000
0000
0001
0000
0010
0000
0100
0000
1000
0001
1000
0000
0020
0030
,  // measure 49
0000
0000
1000
0001
1000
0000
0100
0000
0002
0000
2003
0000
3020
0000
0032
0000
,  // measure 50
0103
0000
1000
0000
0100
0000
0001
0000
1000
0001
1000
0001
1000
0000
2002
0000
,  // measure 51
0000
0000
0000
3003
,  // measure 52
2000
0000
0010
0010
,  // measure 53
3002
0000
0010
0010
,  // measure 54
2003
0100
3002
0100
,  // measure 55
2003
0000
0000
0000
3001
1000
0100
0010
,  // measure 56
0001
0000
0011
0000
1000
0001
0100
0010
,  // measure 57
1000
0000
1010
0000
0001
0010
0100
1000
,  // measure 58
0001
0100
0010
0100
0001
1000
0100
0010
,  // measure 59
0100
0000
1000
0000
0010
0000
0200
0000
0000
0000
0310
0100
0010
0000
0100
0000
,  // measure 60
0101
0000
0000
1001
0000
0000
0011
0000
,  // measure 61
0000
1001
0000
0000
0202
0000
0303
0000
,  // measure 62
1010
0000
0000
0011
0000
0000
0101
0000
,  // measure 63
0000
1100
0000
0000
1002
0000
0013
0000
,  // measure 64
1100
0000
0000
1001
0000
0000
1010
0000
,  // measure 65
0000
1001
0000
0000
2200
0000
3300
0000
,  // measure 66
0011
0000
0000
1010
0000
0000
1100
0000
,  // measure 67
0000
0000
0002
0003
0200
0300
0002
0003
2001
0000
0000
0000
3100
0000
0000
0000
,  // measure 68
0110
0000
0000
0000
0000
0000
0000
0200
,  // measure 69
0000
0000
2300
0000
0000
3010
0000
0000
,  // measure 70
0011
0000
0000
0000
0001
0000
0100
0010
0100
0000
0010
0000
0100
0000
2000
0000
,  // measure 71
300M
0000
1000
0000
0010
0000
0100
0010
0100
0000
0001
0000
1000
0000
0200
0000
,  // measure 72
0010
0000
0320
0000
0100
0000
0130
0000
0010
0001
1000
0000
0010
0000
0100
0000
,  // measure 73
0020
0000
1000
0000
0130
0000
0001
0000
1000
0001
1000
0000
0001
0000
0020
0000
,  // measure 74
0M30
0000
0010
0000
1000
0000
0100
0010
0100
0000
0010
0000
0100
0000
0002
0000
,  // measure 75
M003
0000
0001
0000
0010
0000
0100
0010
0100
0000
1000
0000
0010
0000
0100
0000
,  // measure 76
0002
0100
0100
1003
0000
0001
2000
0100
,  // measure 77
0100
0000
3001
0000
0000
0000
0001
1000
0001
0000
0100
0000
0000
0000
0220
0000
,  // measure 78
0330
0000
0000
0000
1001
0000
0000
0001
0010
0000
1000
0000
0010
0000
0002
0000
,  // measure 79
0000
0000
0103
0010
1000
0000
0010
1000
0010
0000
0001
0000
0010
0000
2000
0000
,  // measure 80
0000
0000
3100
0010
0001
0000
0010
0001
0010
0000
0100
0000
1000
0000
0001
0000
,  // measure 81
0100
0000
0010
0100
0010
0000
0000
0000
1000
0000
0001
1000
0100
0000
0002
0000
,  // measure 82
0000
0000
0103
0010
0100
0000
0010
0000
0001
0000
1000
0001
0100
0000
2000
0000
,  // measure 83
0000
0000
3100
0010
0100
0000
0010
0000
1000
0000
0010
0100
0001
0000
1000
0000
,  // measure 84
0001
0000
0010
0000
1000
0000
0001
0000
0100
0000
1000
0001
1000
0000
2002
0000
,  // measure 85
0000
0000
0000
0000
3003
0000
0000
0000
0100
0000
0010
0100
0010
0000
1002
0000
,  // measure 86
0000
0100
0103
0000
0001
0100
0010
2000
,  // measure 87
0000
0000
0001
0000
3001
0000
0000
0000
1000
0100
1000
0000
0100
0000
0001
0000
,  // measure 88
M000
0000
0001
0000
0010
0100
0010
0000
0100
0000
2000
0000
0001
0000
3020
0000
,  // measure 89
0000
0000
0100
0000
0130
0000
0000
0000
0010
0100
0010
0000
1000
0000
2001
0000
,  // measure 90
0000
3100
0010
0002
0010
0000
2003
0010
,  // measure 91
0000
0000
3001
0010
0001
0000
1000
0000
0001
0100
0001
0000
0100
0000
1000
0000
,  // measure 92
000M
0000
1000
0000
0010
0100
0010
0000
0100
0000
0001
0000
1000
0000
0100
0000
,  // measure 93
0200
0010
0000
0001
0301
0000
0110
2200
,  // measure 94
0000
3300
0000
0000
0000
0000
0000
0000
;

//---------------dance-single - ----------------
#NOTEDATA:;
#CHARTNAME:;
#STEPSTYPE:dance-single;
#DESCRIPTION:;
#CHARTSTYLE:;
#DIFFICULTY:Medium;
#METER:13;
#RADARVALUES:0.629192,0.669844,0.276754,0.719561,0.000000,557.000000,522.000000,35.000000,91.000000,0.000000,0.000000,0.000000,0.000000,0.000000,0.629192,0.669844,0.276754,0.719561,0.000000,557.000000,522.000000,35.000000,91.000000,0.000000,0.000000,0.000000,0.000000,0.000000;
#CREDIT:;
#OFFSET:-0.997895;
#BPMS:0.000000=191.000000
;
#STOPS:;
#DELAYS:;
#WARPS:;
#TIMESIGNATURES:0.000000=4=4
;
#TICKCOUNTS:0.000000=4
;
#COMBOS:0.000000=1
;
#SPEEDS:0.000000=1.000000=0.000000=0
;
#SCROLLS:0.000000=1.000000
,15.500000=0.500000
,16.500000=1.000000
,47.500000=0.500000
,48.500000=1.000000
,76.000000=0.500000
,79.000000=1.000000
,142.000000=0.000000
,143.000000=1.000000
,176.000000=0.000000
,176.500000=1.000000
,203.500000=0.000000
,207.000000=0.500000
,224.000000=0.750000
,240.000000=1.000000
,246.000000=0.000000
,247.000000=1.000000
,262.000000=0.000000
,263.000000=1.000000
,272.000000=0.500000
,280.000000=1.000000
,311.500000=0.000000
,312.500000=1.000000
,343.500000=0.500000
,344.500000=1.000000
;
#FAKES:;
#LABELS:0.000000=Song Start
;
#NOTES:
0000
0000
0000
0000
,
0000
0000
0000
0000
,
0000
0000
0000
0000
,
0000
0000
1001
0000
0001
0100
0010
2000
,
0000
3010
1000
0000
0001
0001
1000
0100
,
0000
1000
0100
0000
0010
0100
0001
0200
,
0000
0310
0100
1000
0001
0100
0020
1000
,
0000
0130
0001
0000
0001
0010
0100
2000
,
0000
3100
1000
0000
1002
0000
0103
0201
,
0000
0310
0110
0000
0100
0010
0001
0020
,
0000
0130
0001
1000
0100
0010
0001
1000
,
0000
0001
0100
0010
1000
0100
0010
0002
,
0000
0013
0001
0000
1000
1000
0001
0100
,
0000
0001
0100
0000
0010
0100
1000
0200
,
0000
0310
0100
0001
1000
0100
0020
0001
,
0000
0130
1000
0000
1000
0010
0100
0002
,
0000
0103
0001
0000
2001
0000
3100
1200
,
0000
0310
0110
0000
0100
0010
1000
0020
,
0000
0130
1000
0001
0100
0010
1000
0001
,
0020
0100
0000
0000
0130
0000
1001
0000
,
2000
0000
3020
0000
1030
0010
0100
0001
,
2000
0000
3200
0000
0310
0100
1000
1000
,
0002
0000
0203
0000
0301
0100
0010
1000
,
0002
0000
0023
0000
0130
1000
0001
0001
,
0200
0000
0320
0000
0130
0010
1000
0100
,
0020
0000
0230
0000
0310
0001
0100
0100
,
0020
0000
0230
0000
0310
1000
0100
0010
,
0001
0000
0011
0000
1000
0010
0100
0001
,
1000
0100
0110
0000
0001
0010
1000
0010
,
0001
1000
0001
0000
1000
0010
0001
0010
,
1000
0001
1000
0000
0001
0100
1000
0100
,
0001
1000
0001
0000
1000
0100
0010
0100
,
0002
0000
0103
0020
0000
0130
1000
0002
,
0000
1000
1003
0000
0001
0100
0010
0100
,
2000
0000
3100
0020
0000
0130
0001
1000
,
0001
0010
0010
0000
0110
0000
0000
2001
,
0000
0000
0010
0000
0010
0000
0001
3001
,
0000
1000
0100
0010
0002
2003
3020
0230
,
0302
0000
0010
0000
0010
0000
1000
1003
,
0000
0001
0100
0010
2000
3200
0320
0032
,
2003
0000
0100
0000
0100
0000
0001
3001
,
0000
1000
0010
0100
2000
3200
0320
2030
,
3002
0000
0100
0000
0100
0000
1000
1003
,
0000
0001
1000
0100
0001
0100
0001
0100
,
2000
0000
3001
0100
0001
0100
0010
0001
,
0010
0100
0001
0100
0001
0010
0100
1000
,
1100
0000
1000
0100
1000
0100
0010
1000
,
0010
0100
1000
0100
1000
0010
0100
0001
,
0101
0000
1000
0010
1000
0001
0010
0001
,
0100
0010
0100
0010
1000
0010
0001
0010
,
0110
0000
1000
0001
0010
1000
0010
0110
,
0000
0000
0000
0000
,
0002
0000
0010
0010
,
2003
0000
0010
0010
,
3002
0100
2003
0100
,
3002
0000
0000
0000
1003
0010
1000
0010
,
0100
0000
1010
0000
0001
0010
0001
0010
,
0100
0000
0011
0000
1000
0010
0100
0001
,
1000
0000
0100
0010
0001
0000
0100
0010
,
2000
0000
0001
0002
0000
0000
3003
0000
,
1001
0000
0000
1100
0000
0000
1001
0000
,
0000
0101
0000
0000
1001
0000
0000
0000
,
0002
0000
0000
0023
0000
0000
2030
0000
,
0000
3200
0000
0000
0302
0000
1003
0000
,
1001
0000
0000
0011
0000
0000
1001
0000
,
0000
1010
0000
0000
1001
0000
0000
0000
,
2000
0000
0000
3200
0000
0000
0302
0000
,
0000
0103
0010
0100
2000
0000
0001
0000
,
3010
0000
0000
0000
0000
0000
0000
0200
,
0000
0000
0320
0000
0000
1030
0000
0000
,
1001
0000
0001
0010
0001
0010
1000
0002
,
0000
1003
0010
1000
0010
0001
1000
0002
,
0000
1003
0001
0100
0010
0100
1000
0100
,
0010
0100
0001
1000
0100
0010
0001
2000
,
0000
3001
1000
0010
1000
0010
0001
2000
,
0000
3001
0010
0001
0010
1000
0001
1000
,
0200
0000
0010
0320
0000
0001
0032
0000
,
1003
0001
0100
0010
0100
0100
0000
1001
,
0000
0000
1000
0100
0001
1000
0010
2000
,
0000
3010
0001
0100
1000
0001
0010
0002
,
0000
0013
1000
0100
0010
0100
0001
0100
,
0010
0100
1000
0000
0001
0100
0010
1000
,
0001
0010
0001
0010
1000
0010
1000
0010
,
0001
0100
1000
0100
0001
0010
1000
0010
,
0002
0000
0103
0010
0100
0010
1000
2002
,
0000
0000
3003
0000
1000
0100
0010
0002
,
0000
0013
0001
0000
1000
1000
0001
0100
,
0000
0001
0100
0000
0010
0100
0010
0002
,
0000
1003
0100
0010
0100
0001
2000
0001
,
0000
3100
0010
0000
0001
0100
0010
2000
,
0000
3010
1000
0000
1002
0000
0013
2001
,
0000
3010
1000
0100
0010
0100
0010
2000
,
0000
3001
0100
0010
0100
1000
0001
0100
,
0020
0000
0100
0000
1030
0000
1001
2002
,
0000
3003
0000
0000
0000
0000
0000
0000
;

//---------------dance-single - ----------------
#NOTEDATA:;
#CHARTNAME:;
#STEPSTYPE:dance-single;
#DESCRIPTION:;
#CHARTSTYLE:;
#DIFFICULTY:Easy;
#METER:9;
#RADARVALUES:0.428122,0.446563,0.300476,0.616767,0.000000,379.000000,341.000000,38.000000,78.000000,0.000000,0.000000,0.000000,0.000000,0.000000,0.428122,0.446563,0.300476,0.616767,0.000000,379.000000,341.000000,38.000000,78.000000,0.000000,0.000000,0.000000,0.000000,0.000000;
#CREDIT:;
#OFFSET:-0.997895;
#BPMS:0.000000=191.000000
;
#STOPS:;
#DELAYS:;
#WARPS:;
#TIMESIGNATURES:0.000000=4=4
;
#TICKCOUNTS:0.000000=4
;
#COMBOS:0.000000=1
;
#SPEEDS:0.000000=1.000000=0.000000=0
;
#SCROLLS:0.000000=1.000000
,15.500000=0.500000
,17.000000=1.000000
,47.500000=0.500000
,49.000000=1.000000
,76.000000=0.500000
,79.000000=1.000000
,142.000000=0.000000
,143.000000=1.000000
,176.000000=0.000000
,176.500000=1.000000
,203.500000=0.000000
,207.000000=0.500000
,224.000000=0.750000
,240.000000=1.000000
,246.000000=0.000000
,247.000000=1.000000
,262.000000=0.000000
,263.000000=1.000000
,272.000000=0.500000
,280.000000=1.000000
,311.500000=0.000000
,312.500000=1.000000
,343.500000=0.500000
,345.000000=1.000000
;
#FAKES:;
#LABELS:0.000000=Song Start
;
#NOTES:
0000
0000
0000
0000
,
0000
0000
0000
0000
,
0000
0000
0000
0000
,
0000
0000
0000
0000
0000
0000
0000
2001
,
0000
0000
3100
0000
0100
0000
0000
0210
,
0000
0000
1300
0000
0100
0000
1000
0020
,
0000
0000
0130
0000
0010
0000
2000
0001
,
0000
0000
3100
0000
0010
0001
0000
2001
,
0000
0000
0010
0000
3002
0003
0000
2000
,
3000
0000
2001
0000
3010
0000
1000
0200
,
0000
0000
0310
0000
0100
0000
1000
0001
,
1000
0000
0010
0000
0010
0000
0000
1002
,
0000
0000
0103
0000
0100
0000
0000
0210
,
0000
0000
0301
0000
0100
0000
0001
0020
,
0000
0000
0130
0000
0010
0000
0002
1000
,
0000
0000
0103
0000
0010
1000
0000
1002
,
0000
0000
0010
0000
2003
3000
0000
0002
,
0003
0000
1002
0000
0013
0000
0001
0200
,
0000
0000
0310
0000
1000
0000
0100
0010
,
0002
0000
0003
1001
,
1000
0010
2000
0010
,
3001
0010
0002
0010
,
1003
0100
2000
0100
,
3001
0100
0002
0100
,
1003
0010
0200
0010
,
0301
0010
0200
0010
,
1300
0001
0200
0010
,
1300
0000
0000
0000
0100
0010
0100
0000
,
0001
0000
1010
0000
0001
0010
0001
0000
,
0010
0000
0100
0000
1000
0100
1000
0000
,
0010
0000
0100
0000
0001
0100
0001
0000
,
0100
0000
0010
0000
1000
0010
1000
0000
,
0002
0000
0013
0200
0000
1300
0001
2000
,
0000
3010
0200
0000
0301
0000
1000
0000
,
0200
0000
0310
0002
0000
1003
0010
0200
,
0000
0000
0010
0000
0301
0000
0000
1002
,
0000
0000
0100
0000
0100
0000
0000
2000
,
0000
3003
0001
0010
,
2001
0000
0100
0000
0100
0000
0000
0002
,
0000
3003
1000
0010
,
1002
0000
0100
0000
1000
0000
0000
0020
,
0000
0033
0010
0100
,
2001
0000
0100
0000
0001
0000
0000
3010
,
0000
0000
1000
0010
0100
0000
0001
0000
,
2000
0000
3001
0000
0010
0000
0100
1000
,
0000
0100
1000
0000
0001
0000
0001
0100
,
0010
0000
1000
0000
0010
0000
0100
0001
,
0000
0100
0001
0000
1000
0000
1000
0100
,
0010
0000
0001
0000
1000
0000
0010
0100
,
0000
0010
0100
0000
0001
1000
0001
0000
,
0010
0000
0100
0000
0100
0000
0000
1001
,
0000
0000
0000
0000
,
0002
0000
0100
0100
,
2003
0000
0100
0100
,
3002
0010
2003
0010
,
3002
0000
1003
0100
,
0010
0010
0001
0100
,
0010
0010
1000
0001
,
0010
0100
1000
0001
,
0100
0000
0010
2000
0000
0000
3010
0000
,
1010
0000
0000
1010
0000
0000
0011
0000
,
0000
0011
0000
0000
0110
0000
0000
0000
,
2000
0000
0000
3020
0000
0000
0230
0000
,
0000
0302
0000
0000
1003
0000
0100
0000
,
0011
0000
0000
0011
0000
0000
1010
0000
,
0000
1010
0000
0000
0110
0000
0000
0000
,
0002
0000
0000
0023
0000
0000
0230
0000
,
0000
1300
1000
0000
0002
0000
0103
0000
,
0110
0000
0000
0000
,
0000
0000
0000
0000
,
1001
0000
1000
0000
0100
0000
0001
0100
,
0000
0001
0100
0000
1000
0000
0001
0000
,
0100
0000
0010
0000
1000
0010
1000
0000
,
0220
0000
0330
0000
1001
0000
1000
0100
,
0000
0010
0001
0000
0100
0000
1000
0100
,
0000
1000
0100
0000
0001
0000
1000
0000
,
0200
0000
0000
0320
0000
0000
0032
0000
,
0000
1003
0001
0000
0100
0010
0000
0110
,
0000
0000
2001
0000
0010
0000
3001
0100
,
0000
0100
0002
0000
0010
0000
1003
0100
,
0000
0100
1000
0000
0001
0010
0001
0000
,
0220
0000
0330
0000
1000
0000
0010
0001
,
0000
0010
1000
0000
0001
0000
0010
1000
,
0000
0010
0001
0000
1000
0000
0010
0100
,
0020
0000
0000
0000
0130
0001
0010
0000
,
0220
0000
0000
0000
0000
0330
0000
1002
,
0000
0000
0103
0000
0100
0000
0000
0210
,
0000
0000
0301
0000
0100
0000
0001
0020
,
0000
0000
1030
0000
0010
0000
0002
1000
,
0000
0000
0103
0000
0010
1000
0000
2001
,
0000
0000
3100
0000
0020
0030
0000
0200
,
0300
0000
2001
0000
3100
0000
1000
0020
,
0000
0000
0031
0000
0010
0000
1000
0010
,
1000
0000
0100
0000
0010
0000
0000
0220
,
0000
0330
0000
0000
0000
0000
0000
0000
;

//---------------dance-single - ----------------
#NOTEDATA:;
#CHARTNAME:;
#STEPSTYPE:dance-single;
#DESCRIPTION:;
#CHARTSTYLE:;
#DIFFICULTY:Beginner;
#METER:6;
#RADARVALUES:0.215755,0.296918,0.094887,0.316291,0.000000,191.000000,179.000000,12.000000,40.000000,0.000000,0.000000,0.000000,0.000000,0.000000,0.215755,0.296918,0.094887,0.316291,0.000000,191.000000,179.000000,12.000000,40.000000,0.000000,0.000000,0.000000,0.000000,0.000000;
#CREDIT:;
#NOTES:
0000
0000
0000
0000
,
0000
0000
0000
0000
,
0000
0000
0000
0000
,
0000
0000
0000
0000
0000
0000
0000
0010
,
0000
1001
0000
0000
,
0000
0000
0000
0000
0001
0000
0000
0020
,
0000
0031
0000
0000
,
0000
0000
0000
0000
0001
0000
0000
0200
,
0000
0301
0000
0000
,
0000
0000
0000
0000
0001
0000
0000
0020
,
0000
0031
0000
0000
,
0000
0000
0010
0000
0010
0000
0000
0010
,
0000
1001
0000
0000
,
0000
0000
0000
0000
1000
0000
0000
0020
,
0000
1030
0000
0000
,
0000
0000
0000
0000
1000
0000
0000
0200
,
0000
1300
0000
0000
,
0000
0000
0000
0000
1000
0000
0000
0020
,
0000
1030
0000
0000
,
0001
0000
0000
0000
,
2000
3000
0100
0000
,
0200
0300
0010
0000
,
0020
0030
0001
0000
,
0002
0003
0100
0000
,
0200
0300
0010
0000
,
0020
0030
1000
0000
,
2000
3000
0001
0000
,
1000
0001
1000
0000
,
1001
0000
0001
0010
,
0001
0000
1000
0010
,
1000
0000
0001
0010
,
0001
0000
1000
0010
,
0200
0300
0020
0030
,
0100
0001
0001
0000
,
0020
0030
0200
0300
,
1000
0000
0001
0000
1001
0000
0000
2000
,
0000
0000
0000
0000
0000
0000
0000
3010
,
0000
0000
0010
0100
,
0002
0000
0000
0000
0000
0000
0000
0013
,
0000
0000
0010
0100
,
2000
0000
0000
0000
0000
0000
0000
3001
,
0000
0000
0100
0010
,
0200
0000
0000
0000
0000
0000
0000
0310
,
0000
1000
0001
1000
,
0000
0001
0001
0000
,
0010
0000
0100
0000
,
1000
1000
1000
0000
,
0010
0000
0100
0000
,
0001
1000
0100
0000
,
0010
0000
0001
0000
,
0100
0000
0010
0000
1000
0000
0000
1001
,
0000
0000
0000
0000
,
0002
0000
0003
0000
,
2000
0000
3000
0000
,
0001
0000
1000
0000
,
0200
0000
0300
0000
,
0010
0100
0010
0000
,
0100
0010
0100
0000
,
1000
0000
1000
0000
,
0010
0100
0001
0000
,
2002
0000
0000
0000
,
0000
0000
3003
0000
,
0002
0000
0000
0003
0000
0000
0020
0000
,
0000
0030
0000
0000
0100
0000
0000
0000
,
2002
0000
0000
0000
,
0000
0000
3003
0000
,
2000
0000
0000
3000
0000
0000
0020
0000
,
0000
0030
0100
0000
0001
0000
0000
0000
,
1001
0000
0000
0000
,
0000
0000
0000
0000
,
0001
0001
0010
0000
,
0001
0010
0100
0000
,
0010
0000
0010
0001
,
0100
0000
0010
0000
,
1000
1000
0010
0000
,
1000
0010
0100
0000
,
0010
0000
0010
1000
,
0100
0000
0000
0000
0010
0000
0000
0001
,
0000
0000
2002
0000
3003
0000
0000
1000
,
0000
2002
3003
0000
,
0001
0010
0100
0000
,
0010
0000
0001
0000
,
0100
0010
1000
0000
,
0100
0010
0001
0000
,
0200
0000
0300
0100
,
0000
0000
0000
0000
0000
0000
0000
0010
,
0000
1001
0000
0000
,
0000
0000
0000
0000
0001
0000
0000
0020
,
0000
0031
0000
0000
,
0000
0000
0000
0000
1000
0000
0000
0002
,
0000
1003
0000
0000
,
0000
0000
0000
0000
1000
0000
0000
0020
,
0000
1030
0000
0000
,
0100
0000
0010
0000
0100
0000
0000
1001
;
