#TITLE:VOODOO KINGDOM;
#SUBTITLE:;
#ARTIST:SOUL'd OUT;
#TITLETRANSLIT:;
#SUBTITLETRANSLIT:;
#ARTISTTRANSLIT:;
#GENRE:;
#CREDIT:KAYSTAR;
#MUSIC:voodoo kingdom.ogg;
#BANNER:bn.png;
#BACKGROUND:;
#CDTITLE:;
#SAMPLESTART:52.174;
#SAMPLELENGTH:10.000;
#SELECTABLE:YES;
#OFFSET:0.000;
#BPMS:0.000=115.000
,212.000=14.375
,212.125=28.750
,212.375=57.500
,212.625=115.000
;
#STOPS:212.000=1.043;
#DISPLAYBPM:115.000;
#BGCHANGES:;
#FGCHANGES:;

//--------------- dance-single - KAYSTAR ----------------
#NOTES:
     dance-single:
     KAYSTAR:
     Beginner:
     2:
     0,0,0,0,0:
0000
0000
0000
0000
,
0000
0000
0000
0000
,
0000
0000
0000
0000
,
0000
0000
0000
0000
,
0000
0000
0000
0000
,
0000
1000
0000
1000
,
0000
0001
0000
0001
,
0000
1000
0000
1000
,
0000
0000
0000
1001
,
0000
1000
0000
0100
,
0000
1000
0000
0010
,
0000
0100
0000
0001
,
0000
0010
0000
0001
,
0000
1000
0000
0010
,
0000
0100
0100
0000
,
0000
0001
0000
1000
,
0000
0010
0010
0010
,
0000
0100
0000
0100
,
0000
0010
0000
0010
,
0000
1000
0000
0001
,
0001
0000
1000
1000
,
0000
0100
0000
0100
,
0000
0010
0000
0010
,
0000
0001
0000
1000
,
1000
1000
0000
1001
,
0000
0001
0001
0000
,
0100
0100
0000
0010
,
0010
0000
1000
1000
,
0000
0001
0001
0000
,
1000
1000
1000
0000
,
0100
0100
0100
0000
,
0010
0010
0000
0001
,
0001
0001
0001
0000
,
1001
0000
0000
0000
,
0000
0000
0000
0000
,
0000
1000
0000
1000
,
0000
0001
0000
0001
,
0000
1000
0000
1000
,
0000
0001
0000
0001
,
0000
0100
0000
0100
,
0000
0010
0000
0010
,
0000
0100
0000
0100
,
0100
0000
0000
0000
,
0000
0001
0000
1000
,
0000
0100
0000
0010
,
0000
0001
0000
0010
,
0000
0100
0000
1000
,
0000
0010
0000
0100
,
0000
0001
0000
0100
,
0000
0010
0000
1000
,
0000
0001
0000
1000
,
1000
0000
0000
0000
,
0000
0000
0000
0000
,
2002
0000
0000
3003
0000
0000
0000
0000
0000
0000
0000
0000
0000
0000
0000
0000
;

//--------------- dance-single - KAYSTAR ----------------
#NOTES:
     dance-single:
     KAYSTAR:
     Easy:
     6:
     0,0,0,0,0:
0000
0000
0000
0000
,
0000
0000
0000
0000
,
0000
0000
0000
0000
,
0000
0000
0000
0000
,
0000
0000
0000
0000
,
0002
0100
0000
0100
,
2003
0100
0000
0100
,
3001
0200
0000
1000
,
0300
0000
0000
0110
,
0010
0010
0010
0000
,
1000
0001
1000
0000
0001
1000
0001
0000
,
0100
0100
0100
0000
,
0001
0010
0100
1000
0100
0010
0001
0000
,
1000
1000
1000
0000
,
0010
0100
0010
0000
0100
0010
0100
0000
,
0001
0001
0001
0000
,
1000
0100
0010
0001
,
0200
0001
0010
0301
,
2000
0100
0001
3100
,
0020
1000
0100
0031
,
0200
1000
0010
0301
,
0020
0001
0100
0031
,
2000
0010
0001
3010
,
0200
1000
0010
0301
,
1000
0001
1000
0001
1000
0000
1001
0000
,
0001
0010
0100
1000
,
0001
0001
1000
1000
,
0001
0100
0010
1000
,
0010
0001
0010
1000
,
0001
0010
0100
1000
,
0001
1000
0001
1000
0002
0000
1003
0000
,
0010
1000
0010
0001
,
0010
1000
0001
0010
,
0200
0000
0000
0000
,
0300
0000
0000
0000
,
2000
0010
0000
0001
,
3020
0100
0000
1000
,
0230
0001
0000
0010
,
0302
0010
1000
0103
,
0020
1000
0000
0100
,
2030
0100
0000
0001
,
3200
0010
0000
1000
,
0310
0000
0000
0000
0001
1000
0001
0000
,
1000
0000
0010
0000
0100
0001
0100
0000
,
0001
0000
0010
0000
0100
1000
0100
0000
,
1000
0000
0010
0000
0100
0001
0100
0000
,
0001
1000
0000
0001
1000
0000
0001
1000
,
0001
0000
0010
0000
0100
1000
0100
0000
,
1000
0000
0010
0000
0100
0001
0100
0000
,
0001
0000
0010
0000
0100
1000
0100
0000
,
1000
0001
0000
0100
0001
0100
1000
0100
,
0002
0000
0000
0000
,
0000
0000
0003
0000
,
2002
0000
0000
3003
0000
0000
0000
0000
0000
0000
0000
0000
0000
0000
0000
0000
;

//--------------- dance-single - KAYSTAR ----------------
#NOTES:
     dance-single:
     KAYSTAR:
     Medium:
     11:
     0,0,0,0,0:
0000
0000
0000
0000
,
0000
0000
0000
0000
,
0000
0000
0000
0000
,
0000
0000
0000
0000
,
0000
0000
0000
0000
,
2000
0000
0000
0001
0000
0000
3100
0000
0010
0000
0001
0000
0100
0000
0010
0000
,
2000
3010
0200
0301
,
0010
0000
0210
0000
1300
0002
0000
1000
,
1003
0010
0100
0001
0000
1000
1000
0000
,
0001
0000
0010
0000
0001
0000
1000
0010
0000
0010
1000
0000
0001
0000
0000
0000
,
1000
0000
0100
0000
1000
0000
0000
0001
0100
0000
0100
0001
0000
0000
1000
0000
,
0010
0000
1000
0000
0001
0000
0000
0010
0001
0000
0001
1000
0000
1000
0001
0000
,
0010
0000
0100
0000
1000
0000
0100
0010
0000
0010
0001
0000
0000
0000
1000
0000
,
0010
0000
0100
0000
0010
0000
0000
1000
0001
0000
0001
1000
0000
0100
0000
0010
,
0000
0001
1000
0000
0010
1000
0000
1000
0001
0000
0000
0000
1001
0000
0000
0000
,
1000
0000
0100
0000
0010
0000
0001
0000
0000
0100
0000
0100
0010
0000
0000
0000
,
1010
0101
0011
1100
,
1000
0000
0010
0000
0100
0000
0001
1000
0000
1000
0100
0000
0010
0000
0001
0000
,
0000
0000
0001
0000
0010
0000
0100
1000
0000
1000
0001
0000
0100
0000
0010
0000
,
0000
0000
0010
0000
1000
0000
0001
1000
0000
0000
0001
0000
0010
0000
1000
0000
,
0010
0001
0010
1000
0010
0010
0100
0100
,
0000
0000
1000
0000
0010
0000
0100
0001
0000
0001
0010
0000
0100
0000
1000
0000
,
0000
0000
1000
0000
0100
0000
0010
0001
0000
0001
0100
0000
0010
0000
0100
0000
,
0000
0000
0100
0000
0001
0000
1000
0001
0000
0000
1000
0000
0100
0000
0001
0000
,
0100
1000
0100
0010
0001
0000
1001
0000
,
1000
0000
0010
0000
0100
0000
0001
0010
0000
0010
0100
0000
1000
0000
0010
0000
,
0100
0000
0100
0001
0000
0000
1000
0000
0100
0000
0100
0010
0000
0001
0000
1000
,
0001
0000
0100
0000
0010
0000
1000
0000
0010
0000
0010
0100
0000
0001
0000
0000
,
0000
0010
0100
0000
1000
0000
0100
0010
0000
0010
0001
0000
1000
0000
0000
0000
,
0001
0000
0100
0000
0010
0000
1000
0100
0000
0100
0010
0000
0001
0000
0000
0000
,
1000
0001
1000
0001
1000
0001
1000
0002
2000
0000
0000
0000
3003
0000
0000
0000
,
0001
0000
0010
0000
0100
0000
1000
0000
0000
0010
0000
0100
0000
0001
0000
0100
,
0010
0000
0010
0000
1000
0000
0001
0010
0000
0010
0100
0000
1000
0000
0000
0000
,
2002
0000
0000
0000
,
3003
0000
0000
0000
0001
0001
1000
1000
,
0010
0100
0000
0100
0010
0000
0000
0000
1000
0000
0001
0000
1000
0000
0000
0000
,
0100
0001
0010
1000
,
0100
0010
0000
0010
0100
0000
0000
0000
1000
0000
0001
0000
1000
0000
0000
0000
,
0010
0001
0100
1000
,
0100
0010
0000
0010
0001
0000
0100
0000
1000
0000
0100
0000
0001
0000
0000
0000
,
0010
1000
0100
0001
,
0010
0100
0000
0100
1000
0000
0000
0000
0010
0000
0100
0000
0001
0000
0100
0000
,
0010
1000
0010
0001
0010
1000
0100
0000
,
0020
0000
1000
0000
0031
1000
1000
0010
,
0020
0000
0001
0000
1030
0001
0001
0010
,
0020
0000
1000
0000
0031
1000
1000
0010
,
0010
1000
0100
0001
0100
1000
0001
0100
,
0020
0000
0001
0000
1030
0100
0100
0010
,
0020
0000
1000
0000
0031
0100
0100
0010
,
0020
0000
0001
0000
1030
0100
0100
0010
,
0010
0001
0100
1000
0100
0001
0010
0100
,
2000
0000
0000
0000
,
0000
0000
3000
0000
,
2002
0000
0000
3003
0000
0000
0000
0000
0000
0000
0000
0000
0000
0000
0000
0000
;

//--------------- dance-single - KAYSTAR ----------------
#NOTES:
     dance-single:
     KAYSTAR:
     Hard:
     14:
     0,0,0,0,0:
0000
0000
0000
0000
,
0000
0000
0000
0000
,
0000
0000
0000
0000
,
0000
0000
0000
0000
,
0000
0000
0000
0000
,
0001
0000
0000
0000
0000
0000
0000
0000
0000
0001
0000
0000
1000
0000
0000
0000
0000
0000
0200
0300
0000
0000
0000
0000
0200
0300
0000
0000
0000
0000
0001
0000
0000
0010
0000
0000
0100
0000
0000
0000
0000
0000
0010
0000
0000
0100
0000
0000
,
2000
0000
0010
0000
0000
3001
0000
0100
0000
0010
0000
1000
0001
0000
0010
0100
,
1000
0000
0100
0010
0002
0000
1000
0000
0000
0103
0000
0010
1000
0000
0001
0000
,
1000
0100
0010
0002
0000
1000
1003
0000
,
1010
0000
0000
0000
0000
0000
0101
0000
0000
0000
0000
0000
0001
0000
0000
0010
0000
0000
0000
0000
0000
0100
0000
0000
1000
0000
0000
0000
0000
0000
0001
0000
0000
0200
0300
0000
0000
0000
0000
0200
0300
0000
1000
0000
0000
0000
0000
0000
,
0011
0000
0000
0000
0000
0000
1100
0000
0000
0000
0000
0000
1000
0000
0000
0100
0000
0000
0000
0000
0000
0010
0000
0000
0001
0000
0000
0000
0000
0000
1000
0000
0000
0020
0030
0000
0000
0000
0000
0020
0030
0000
0001
0000
0000
0000
0000
0000
,
1010
0000
0101
0000
0001
0010
0000
0100
1000
0000
0010
0100
0000
0001
1000
0000
,
1100
0000
1001
0000
0001
0010
0001
0010
0100
1000
0100
1000
0010
0100
0001
0000
,
1000
0001
1000
0100
0000
0010
0000
0001
1000
0001
0100
0001
0000
0010
0000
0100
,
1000
0000
0000
0001
0000
0000
0100
0000
0000
0000
0000
0000
0001
0000
0000
0020
0030
0000
0000
0000
0000
0020
0030
0000
1000
0000
0000
0000
0000
0000
0000
0000
0000
0001
0000
0000
1000
0000
0000
0000
0000
0000
1100
0000
0000
0000
0000
0000
,
1001
0000
0000
0000
0000
0000
0101
0000
0000
0000
0000
0000
0001
0000
0000
0010
0000
0000
0000
0000
0000
0100
0000
0000
1000
0000
0000
0000
0000
0000
0001
0000
0000
0200
0300
0000
0000
0000
0000
0200
0300
0000
1000
0000
0000
0000
0000
0000
,
2200
3300
2002
3003
0201
0310
1001
0110
,
2001
0000
3100
0000
0001
0000
0100
0010
0000
0001
1000
0000
0010
0100
0001
0000
,
1002
0000
0103
0000
1000
0000
0100
0010
0000
1000
0001
0000
0010
0100
1000
0000
,
1002
0000
0103
0000
0010
0000
0001
0010
0000
1000
0001
0000
1000
0100
0010
0000
,
0001
0010
0100
0000
1000
0100
0010
0000
0001
1000
0001
0000
1001
0000
0110
0000
,
1002
0000
0013
0000
1000
0000
0010
0100
0000
1000
0001
0000
0100
0010
1000
0000
,
2001
0000
3010
0000
0001
0000
0010
0100
0000
0001
1000
0000
0100
0010
0001
0000
,
2001
0000
3010
0000
0100
0000
1000
0100
0000
0010
1000
0100
0010
0001
0100
0001
,
0010
0100
1000
0010
0100
0001
1000
0000
0001
0000
0000
0000
0110
0000
0000
0000
,
2001
0000
0010
0000
3001
0000
0010
0100
0000
2000
0001
0000
3010
0000
0100
0000
,
0001
0000
0000
0010
0000
0000
0100
0000
0000
1000
0000
0000
0000
0000
0000
0010
0000
0000
0100
0000
0000
0000
0000
0000
0001
0000
0000
0000
0000
0000
1000
0000
0000
0200
0300
0000
0000
0000
0000
0200
0300
0000
0000
0000
0000
0001
0000
0000
,
1000
0001
0010
0000
0200
0000
0001
0000
1300
0100
0010
0002
0000
0100
0000
0000
,
1003
0000
0000
0001
0000
0000
0010
0000
0000
0100
0000
0000
1000
0000
0000
0000
0000
0000
0001
0000
0000
0020
0030
0000
0000
0000
0000
0020
0030
0000
0000
0000
0000
1000
0000
0000
0001
0000
0000
0000
0000
0000
0010
0000
0000
0000
0000
0000
,
0001
0100
0010
1000
0001
0000
1000
0100
0000
0020
1000
0000
0130
0000
0010
0000
,
0001
0100
0001
0100
0010
1000
0010
1000
0002
0000
0000
0000
0013
0000
0100
0000
,
1000
0001
0100
0000
0020
0000
0001
0000
1030
0010
0100
0001
0000
0100
0001
1000
,
0100
0000
0000
0010
0000
0000
0001
0000
0000
0000
0000
0000
1000
0000
0000
0000
0000
0000
0001
0000
0000
0020
0030
0000
0000
0000
0000
0020
0030
0000
0000
0000
0000
1000
0000
0000
0010
0000
0000
0100
0000
0000
0001
0000
0000
0000
0000
0000
,
2002
0000
0000
0000
,
3003
0000
0000
0000
0000
0000
0000
0000
0000
0000
0000
0000
0000
0000
0000
0001
0010
0001
0010
0000
0000
0100
1000
0100
,
1000
0001
0100
0000
0010
1000
0000
0001
0010
0000
0100
1000
0000
0000
0010
0000
,
0200
0000
0000
0000
0000
0000
1000
0000
0000
0000
0000
0000
0301
0000
0000
0000
0000
0000
1000
0001
1000
0001
0000
0000
,
1000
0100
0010
0000
0001
0100
0000
0010
1000
0000
0001
0010
0000
0000
0100
1000
,
0001
0000
1000
0100
0010
0001
0100
0010
1000
0100
0010
0001
0010
0100
1000
0001
,
0100
0010
1000
0000
0100
0010
0000
0001
0100
0000
0010
1000
0000
0001
0010
0100
,
1000
0000
0000
0000
0000
0000
1000
0000
0000
0000
0000
0000
0010
0000
0000
0100
0000
0000
0001
0000
0000
0000
0000
0000
1000
0000
0100
0000
1000
0000
0100
0000
0000
0000
0000
0000
0010
0000
0001
0000
0010
0000
0001
0000
0000
0000
0000
0000
,
1000
0000
0000
0010
0000
0000
0100
0000
0000
0000
0000
0000
0001
0000
0000
1000
0000
0000
0000
0000
0000
0001
0000
0000
0020
0030
0000
0000
0000
0000
0020
0030
0000
1000
0000
0000
0000
0000
0000
0001
0000
0000
1000
0000
0000
1000
0000
0000
,
0001
0100
0010
0000
1000
0100
0010
0001
1000
0000
0010
0100
0000
0000
0000
0000
,
0001
0000
0000
0001
0100
0000
0010
0000
2010
0000
3100
0010
0001
0000
1000
0100
,
0010
0000
0000
0010
1000
0000
0010
0000
0012
0000
0103
0010
1000
0000
0001
0100
,
0010
0000
0000
0010
0001
0000
0010
0000
2010
0000
3100
0010
0001
0000
1000
0100
,
0010
0100
1000
0000
0010
0000
0100
0001
1000
0100
0010
0001
0010
0100
1000
0000
,
0001
0000
0000
0000
0000
0000
0000
0000
0000
0001
0000
0000
0020
0030
0000
0000
0000
0000
0020
0030
0000
0000
0000
0000
2010
0000
0000
0000
0000
0000
3100
0000
0000
1000
0000
0000
0010
0000
0000
0000
0000
0000
0100
0000
0000
0001
0000
0000
,
1000
0000
0000
0000
0000
0000
0000
0000
0000
1000
0000
0000
0200
0300
0000
0000
0000
0000
0200
0300
0000
0000
0000
0000
0102
0000
0000
0000
0000
0000
0013
0000
0000
0001
0000
0000
0100
0000
0000
0000
0000
0000
0010
0000
0000
1000
0000
0000
,
0001
0000
0000
0000
0000
0000
0000
0000
0000
0001
0000
0000
0020
0030
0000
0000
0000
0000
0020
0030
0000
0000
0000
0000
2010
0000
0000
0000
0000
0000
3100
0000
0000
0010
0000
0000
0001
0000
0000
0000
0000
0000
1000
0000
0000
0010
0000
0000
,
0100
0010
1000
0000
0100
0000
1000
0001
0010
0100
1000
0100
0010
0001
0100
0010
,
2000
0000
0000
0000
,
0000
0000
3000
0000
,
2002
0000
0000
3003
0000
0000
0000
0000
0000
0000
0000
0000
0000
0000
0000
0000
;
