#TITLE:V (for extreme);
#SUBTITLE:;
#ARTIST:TAKA;
#TITLETRANSLIT:;
#SUBTITLETRANSLIT:;
#ARTISTTRANSLIT:;
#GENRE:;
#CREDIT:;
#MUSIC:V(for EXTREME).ogg;
#BANNER:V(for EXTREME).png;
#BACKGROUND:V(for EXTREME)-bg.png;
#CDTITLE:cdtitle.png;
#SAMPLESTART:45.135;
#SAMPLELENGTH:12.800;
#SELECTABLE:YES;
#OFFSET:-0.335;
#BPMS:0.000=150.000;
#STOPS:;
#BGCHANGES:0.000=V(for EXTREME)-bg.png=1.000=0=0=1,
19.750=cube2.avi=1.000=1=1=1=StretchRewind==CrossFade==,
68.000=snow5.avi=1.000=0=0=1,
87.750=snow5.avi=1.500=0=0=1,
91.750=cube2.avi=1.000=0=1=1=StretchRewind====,
115.750=mesh1.avi=0.850=0=1=1=StretchRewind====,
123.750=snow3.avi=0.800=0=1=1=StretchRewind====,
131.750=mesh1.avi=0.850=0=1=1=StretchRewind====,
139.750=snow3.avi=0.800=0=1=1=StretchRewind====,
143.750=snow4.avi=1.000=0=1=1=StretchRewind====,
207.750=mesh1.avi=0.850=0=1=1=StretchRewind====,
215.750=snow3.avi=0.800=0=1=1=StretchRewind====,
223.750=mesh1.avi=0.850=0=1=1=StretchRewind====,
231.750=snow4.avi=1.000=0=1=1=StretchRewind====,
247.750=V(for EXTREME)-bg.png=1.000=0=0=1,
99999.000=-nosongbg-=1.000=0=0=0=StretchNoLoop====
;
#FGCHANGES:;

//--------------- dance-single - Pilgrimsito ----------------
#NOTES:
     dance-single:
     Pilgrimsito:
     Hard:
     13:
     0,0,0,0,0:
0000
0000
0000
0000
,
0000
0000
0000
0000
,
0000
0000
0000
0000
,
0000
0000
0000
0000
,
0000
0000
0000
0000
,
1020
0100
0001
0130
,
1002
0000
0010
0000
1000
0000
0103
0001
,
0021
0100
1000
0100
,
0001
0000
0100
0000
1000
0000
0130
0010
,
1001
0001
0100
0010
1000
0100
0001
0100
,
1000
0010
0100
0001
1000
0010
0001
0010
,
1001
1000
0100
0010
0001
0100
1000
0100
,
0001
0010
0100
1000
0001
0010
1000
0010
,
0022
0000
0000
0033
0001
0100
1000
0100
,
0202
0000
0000
0303
0001
0010
1000
0010
,
0210
1300
1020
0130
,
0101
0001
0010
0100
1000
0010
0100
0001
,
2002
0000
0000
0000
,
0000
0000
0000
0000
,
0000
0000
0000
0000
0000
0000
0000
3003
,
0002
0003
0002
0003
2000
3000
2000
3000
,
0020
0030
0020
0030
0200
0300
0200
0300
,
0001
0010
0001
0010
0100
1000
0100
1000
,
0001
0000
1000
0000
0010
0000
0100
0000
0001
0010
0000
0010
0001
0000
1000
0000
,
0001
0000
0100
0000
0010
0000
1000
0000
0100
0010
0000
0010
0100
0000
1000
0000
,
0001
0000
1000
0000
0100
0000
0010
0000
0001
0100
0000
0100
0001
0000
1000
0000
,
0001
0000
0010
0000
0100
0000
1000
0000
0010
0100
0000
0100
0010
0000
1000
0000
,
0001
0000
0010
0000
0100
0000
0010
0000
0001
1000
0001
1000
0001
1000
0001
1000
,
0001
1000
0010
0100
0001
0001
1000
1000
,
0001
0100
0001
0000
1000
0100
1000
0000
0001
0100
0001
0000
1000
0100
1000
0000
,
1001
0001
0010
0100
1000
1000
0001
0001
,
1000
0010
1000
0000
0001
0010
0001
0000
1000
0010
1000
0000
0001
0010
0001
0000
,
1001
1000
0010
1000
0100
0100
0010
0010
,
0001
1000
0001
0000
0100
0010
0100
0000
0001
1000
0001
0000
0100
0010
0100
0000
,
0101
0001
0010
0001
0100
0100
0010
0010
,
1000
0001
1000
0000
0100
0010
0100
0000
1000
0001
1000
0000
0100
0010
0100
0000
,
1000
0010
0100
0001
1000
0100
0010
0001
,
1000
0010
0100
0001
1000
0100
0010
0001
,
1000
0010
1000
0100
0001
0100
1000
0100
,
0010
0100
1000
0100
0001
0100
1000
0001
,
1000
0100
0010
0001
1000
0100
0010
0001
,
1000
0000
0001
0100
1000
0100
0001
0100
,
0010
0100
0001
0100
1000
0100
0001
1000
,
0001
0100
0010
1000
0001
0100
0010
1000
,
0001
0000
1000
0010
1000
0001
0010
0001
,
1000
0001
0100
0001
1000
0001
0010
0001
,
1000
0010
0100
0010
0001
0010
0100
0010
,
2020
0000
0000
3030
1000
0100
0010
0100
,
2200
0000
0000
3300
1000
0010
0100
0010
,
1000
1000
0001
0001
0010
0010
0100
0100
,
1000
1000
1000
1000
0001
0001
0001
0001
,
0102
0000
0000
0000
1000
1000
1000
1003
,
0001
1000
0100
0000
1000
0001
0100
0000
0001
1000
0100
0000
1000
0001
0100
0000
,
0101
0001
0010
0100
1000
1000
0001
0001
,
1000
0001
0010
0000
0001
1000
0010
0000
1000
0001
0010
0000
0001
1000
0010
0000
,
1010
1000
0100
0010
0001
0001
1000
1000
,
0001
1000
0100
0000
1000
0001
0100
0000
0001
1000
0100
0000
1000
0001
0100
0000
,
0101
0001
0010
0100
1000
1000
0001
0001
,
1000
0010
0001
0010
1000
0100
0001
0100
,
1000
0100
0010
0001
1000
0010
0100
0001
,
1000
0100
0010
0001
1000
0010
0100
0001
,
1000
0000
1000
0000
0001
0000
0001
0000
0010
0100
0010
0100
0010
0100
0010
0100
,
0020
0000
0000
0000
,
0000
0000
0000
0000
0000
0000
0000
0030
,
MMMM
0000
0000
0000
;

//--------------- dance-single - Pilgrimsito ----------------
#NOTES:
     dance-single:
     Pilgrimsito:
     Challenge:
     16:
     0.345412,0.773723,0.102295,0.232489,0.269687,260,249,11,25,4,0,0.345412,0.773723,0.102295,0.232489,0.269687,260,249,11,25,4,0:
0000
0000
0000
0000
,
0000
0000
0000
0000
,
0000
0000
0000
0000
,
0000
0000
0000
0000
,
0000
0000
0000
0000
,
0001
0100
0001
0100
0010
0100
0010
0100
,
0001
0010
0001
0010
0100
0010
0100
0010
,
0001
1000
0001
1000
0010
0100
0010
0100
,
0001
1000
0001
1000
0100
0010
0100
0010
,
0001
1000
0001
0000
1000
0100
1000
0000
0001
0100
0001
0000
0010
0100
0010
0000
,
0001
0100
0001
0000
1000
0100
1000
0000
0001
0010
0001
0000
1000
0010
1000
0000
,
0001
1000
0001
0000
1000
0010
1000
0000
0001
0010
0001
0000
0100
0010
0100
0000
,
0001
0010
0001
0000
1000
0010
1000
0000
0001
0100
0001
0000
1000
0100
1000
0000
,
2002
0000
0000
0000
0000
0000
3003
0000
0010
0100
0010
0000
0100
0010
0100
0000
,
2002
0000
0000
0000
0000
0000
3003
0000
0100
0010
0100
0000
0010
0100
0010
0000
,
1001
1000
1100
0000
1001
0001
0101
0000
,
0011
0001
0101
0100
0110
0010
1010
1000
,
2002
0000
0000
0000
,
0000
0000
0000
0000
,
0000
0000
0000
0000
0000
0000
0000
3003
,
2000
3000
2000
3000
0002
0003
0002
0003
,
0200
0300
0200
0300
0020
0030
0020
0030
,
1000
0000
0001
0000
1000
0000
0001
0000
0010
0100
0010
0100
0010
0100
0010
0100
,
0010
0000
0001
0000
0100
0000
0010
0000
1000
0100
1000
0100
1000
0000
0001
0000
,
1000
0000
0010
0000
0100
0000
0001
0000
1000
0010
1000
0010
1000
0000
0100
0000
,
1000
0000
0001
0000
0010
0000
0100
0000
1000
0001
1000
0001
1000
0000
0010
0000
,
0100
0000
0001
0000
0010
0000
0001
0000
0100
0010
0100
0010
0100
0000
0001
0000
,
1000
0000
0100
0000
0010
0000
0100
0000
1000
0001
1000
0001
1000
0001
1000
0001
,
1000
0000
0001
0010
0100
0010
0001
0010
0100
0000
0100
0000
0010
0000
0010
0000
,
0001
0100
0020
0000
1030
0100
0020
0000
0031
0100
0020
0000
1030
0100
0020
0000
,
0031
0000
1000
0010
0100
0010
1000
0010
0100
0000
0100
0000
0010
0000
0010
0000
,
1000
0010
0200
0000
0301
0010
0200
0000
1300
0010
0200
0000
0301
0010
0200
0000
,
1300
0000
0001
0010
0001
1000
0001
0100
0001
0000
0001
0000
1000
0000
1000
0000
,
0001
0010
0200
0000
0310
0001
0200
0000
0301
0010
0200
0000
0310
0001
0200
0000
,
0310
0000
1000
0100
1000
0001
1000
0010
1000
0000
1000
0000
0001
0000
0001
0000
,
1000
0100
0020
0000
0130
1000
0020
0000
1030
0100
0020
0000
0130
1000
0001
1000
,
0001
0010
0100
0010
0001
0100
0010
1000
0001
0010
0001
1000
0001
0100
0001
0010
,
0001
0100
0010
0100
0001
0010
0100
1000
0001
0100
0001
1000
0001
0010
0001
0100
,
0001
0000
1000
0001
1000
0100
0010
0001
1000
0010
1000
0010
0100
0001
0100
0001
,
0010
0100
0010
0100
1000
0010
1000
0010
0100
0001
0100
0001
1000
0100
1000
0100
,
1000
0010
0100
0001
1000
0100
0010
0001
1000
0010
0100
0001
1000
0100
0010
0001
,
0100
0000
0000
0100
0001
1000
0001
0010
0001
0100
0001
0100
0010
1000
0010
1000
,
0100
0010
0100
0010
0001
0100
0001
0100
0010
1000
0010
1000
0001
0010
0001
0010
,
0001
0100
0010
1000
0001
0010
0100
1000
0001
0100
0010
1000
0001
0010
0100
1000
,
0010
0000
0000
0010
1000
0001
1000
0100
1000
0001
1000
0001
0010
0100
0010
0100
,
1000
0001
1000
0001
0100
0010
0100
0010
1000
0100
1000
0100
0010
0001
0010
0001
,
1000
0010
1000
0010
0100
0001
0100
0001
1000
0100
0010
0100
0001
0100
0010
0100
,
2000
0000
0000
0000
0000
0000
3000
0000
0001
0100
0010
0100
1000
0100
0010
0100
,
0002
0000
0000
0000
0000
0000
0003
0000
1000
0100
0010
0100
0001
0100
0010
0100
,
1000
0001
1000
0000
0001
0100
0001
0000
1000
0100
1000
0000
0001
0010
0001
0000
,
1000
0000
1000
0000
0001
0000
0001
0000
1000
0010
1000
0010
1000
0010
1000
0010
,
1000
0000
0001
1000
0100
1000
0001
1000
0010
0000
0010
0000
0100
0000
0100
0000
,
0001
1000
0200
0000
1000
0001
0000
0000
0001
1000
0000
0000
1000
0001
0300
0000
,
0101
0000
0001
0010
0100
1000
0001
0010
0100
0000
0100
0000
0010
0000
0010
0000
,
0001
1000
0020
0000
1000
0001
0000
0000
0001
1000
0000
0000
1000
0001
0030
0000
,
0011
0000
0001
0100
0010
1000
0001
0100
0010
0000
0010
0000
0100
0000
0100
0000
,
0001
1000
0200
0000
1000
0001
0000
0000
0001
1000
0000
0000
1000
0001
0300
0000
,
0101
0000
0001
0010
0100
1000
0001
0010
0100
0000
0100
0000
0010
0000
0010
0000
,
0001
1000
0100
1000
0001
1000
0010
1000
0001
1000
0100
1000
0001
1000
0010
1000
,
0001
0001
0010
0010
0100
0100
1000
1000
,
0010
0010
0100
0100
0001
0001
1000
1000
,
0001
0000
0001
0000
0001
0000
0001
0000
0001
0010
0100
0010
1000
0010
0100
0010
,
0002
0000
0000
0000
,
0000
0000
0000
0000
0000
0000
0000
0003
,
MMMM
0000
0000
0000
;
