#VERSION:0.83;
#TITLE:Unchained;
#SUBTITLE:;
#ARTIST:BVG with Lunarveil;
#TITLETRANSLIT:;
#SUBTITLETRANSLIT:;
#ARTISTTRANSLIT:;
#GENRE:POWER EUROBEAT;
#ORIGIN:;
#CREDIT:;
#BANNER:Unchained.png;
#BACKGROUND:Unchained-bg.png;
#PREVIEWVID:;
#JACKET:Unchained-jacket.png;
#CDIMAGE:;
#DISCIMAGE:;
#LYRICSPATH:;
#CDTITLE:;
#MUSIC:Unchained.ogg;
#OFFSET:-0.015787;
#SAMPLESTART:59.283115;
#SAMPLELENGTH:15.620000;
#SELECTABLE:YES;
#BPMS:0.000=170.000;
#STOPS:;
#DELAYS:;
#WARPS:164.500=4.000,
240.500=4.000,
316.500=4.000;
#TIMESIGNATURES:0.000=4=4;
#TICKCOUNTS:0.000=4;
#COMBOS:0.000=1;
#SPEEDS:0.000=1.000=0.000=0;
#SCROLLS:0.000=1.000;
#FAKES:;
#LABELS:0.000=Song Start;
#BGCHANGES:0.000=Unchained.mp4=1.000=1=0=1===CrossFade==,
99999=-nosongbg-=1.000=0=0=0 // don't automatically add -songbackground-
;
#KEYSOUNDS:;
#ATTACKS:
;

//---------------dance-single - ----------------
#NOTEDATA:;
#CHARTNAME:;
#STEPSTYPE:dance-single;
#DESCRIPTION:;
#CHARTSTYLE:;
#DIFFICULTY:Hard;
#METER:14;
#RADARVALUES:0.763718,0.903420,0.213485,0.507027,0.418075,601.000000,577.000000,24.000000,57.000000,22.000000,0.000000,0.000000,0.000000,0.000000,0.763718,0.903420,0.213485,0.507027,0.418075,601.000000,577.000000,24.000000,57.000000,22.000000,0.000000,0.000000,0.000000,0.000000;
#CREDIT:BlindedVanguard573;
#NOTES:
0000
0000
0000
0000
,
0000
0000
0000
0000
,
0000
0000
0000
0000
,
0000
0000
0000
0000
,
1002
0000
1003
0100
1000
0001
1000
0010
,
0100
0001
1000
0001
0010
0001
1000
0001
,
1000
0010
1000
0000
0001
0010
0001
0000
1000
0100
1000
0000
0001
0100
0001
0000
,
0000
0101
0000
1010
0000
1001
MMMM
0000
,
0001
0000
0100
0000
0010
0000
1000
0010
0000
1000
0001
0000
1000
0000
0100
0000
,
1000
0000
0100
0000
0010
0000
0001
0010
0000
0001
1000
0000
0001
0000
0100
0000
,
0001
0000
0010
0000
0100
0000
1000
0100
0000
1000
0001
0000
1000
0000
0001
0000
,
1000
0010
0100
0010
0001
0010
1000
0002
,
1003
0000
0010
0000
0100
0000
0001
0100
0000
0010
0100
0000
0001
0000
1000
0000
,
0001
0000
0010
0000
0100
0000
1000
0010
0000
0100
0010
0000
1000
0000
0001
0000
,
1000
0000
0100
0000
0010
0000
0001
0100
0000
0010
0100
0000
0001
0000
1000
0000
,
0001
0100
0010
0100
1000
0200
0302
2003
,
3001
0000
1000
0010
0100
0010
1000
0001
,
1000
0100
0010
0001
1000
0010
0100
0001
,
2000
0000
0100
0000
3001
1000
0100
0001
,
0000
0001
0100
1000
0000
0001
0100
0020
,
0100
0000
1030
0100
0010
0100
0001
0100
,
1000
0010
0100
0010
0001
0010
0100
0010
,
2000
0000
0010
0000
3001
1000
0010
0001
,
0010
0110
0101
1001
,
2100
0000
3001
0100
0010
0100
0001
0010
,
0100
1000
0001
1000
0010
0100
1000
0100
,
0020
0000
1000
0000
0031
0010
1000
0100
,
000M
0100
0001
0010
M000
0010
1000
0002
,
0010
0000
1003
0010
0100
1000
0100
0010
,
1000
0100
0010
1000
0010
0100
1000
0001
,
2000
0000
0010
0000
3001
1000
0010
0100
,
0001
0100
0001
0000
1000
0010
1000
0000
0001
0010
0001
0000
1000
0100
1000
0000
,
0010
0M10
0001
0100
1000
0100
0002
0000
,
0103
0000
01M0
0000
1000
0000
0010
0000
0001
0000
0010
1000
0010
1000
0010
1000
,
0020
0000
0130
0020
0001
0000
0130
0000
,
2010
3020
0230
0302
,
0103
01M0
1000
0010
0001
0010
2000
0000
,
3010
0000
0M10
0000
0001
0000
0100
0000
1000
0000
0100
0001
0100
0001
0100
0001
,
0200
0000
0310
0200
1000
0000
0310
0000
,
0201
0320
2030
3002
,
1003
0100
0000
0011
0000
1100
0000
2002
,
0000
3003
0000
0000
0000
0000
0000
0000
,
0000
0000
0000
0000
0010
0100
2002
3003
,
0001
0010
1000
0020
0000
0100
0130
0000
,
1000
0010
0001
0020
0000
0100
0130
0000
,
0102
0000
0000
0000
1003
0100
1000
0000
0001
1000
0001
0000
0020
0000
0000
0000
,
0032
0000
0000
0000
1003
0010
1000
0000
0001
1000
0001
0000
0100
0000
0001
0000
,
1000
0100
0001
0200
0000
0010
0310
0000
,
0001
0100
1000
0200
0000
0010
0310
0000
,
2000
0000
0000
0000
3001
0010
0001
0000
1000
0001
1000
0000
0200
0000
0000
0000
,
1300
0010
1000
0000
0001
0100
0001
0000
1000
0100
1000
0000
0001
0010
0001
0000
,
1000
0000
0100
0010
0001
0000
2000
0000
0000
0000
0100
0000
3001
0000
0000
0000
,
1000
0000
0010
0100
0001
0000
2000
0000
0000
0000
0010
0000
3001
0000
0000
0000
,
2000
0000
0000
0000
3001
0100
0010
0000
0100
0010
1000
0000
0002
0000
0000
0000
,
2003
0000
0000
0000
3001
0010
0100
0000
0010
0100
1000
0000
0010
0000
0100
0000
,
0001
0000
0100
1000
0100
0000
0002
0000
0000
0000
1000
0000
0013
0000
0000
0000
,
0001
0000
0010
1000
0010
0000
0002
0000
0000
0000
1000
0000
0103
0000
0000
0000
,
0002
0000
0000
0000
0013
0100
1000
0000
0100
1000
0001
0000
0200
0000
0000
0000
,
0301
0100
0010
0000
0100
0010
1000
0000
0010
1000
0001
0000
1000
0001
0100
0000
,
0010
0100
0000
0101
0000
1010
0000
2002
,
0000
3003
0000
0000
0000
0000
0000
0000
,
0000
0000
0000
0000
0100
0010
2002
3003
,
0001
0000
1000
0000
0010
0000
1000
0100
000M
0100
0001
0000
1000
0000
0010
0000
,
1000
0000
0001
0000
0100
0000
0001
0010
M000
0010
1000
0000
0001
0000
0100
0000
,
0001
0000
0010
0000
0100
0000
1000
0010
000M
0010
0001
0000
1000
0000
0001
0000
,
1000
0010
0001
1000
0100
0001
1000
0020
,
1030
0000
0001
0000
0010
0000
0001
0100
M000
0100
1000
0000
0001
0000
0010
0000
,
0001
0000
1000
0000
0100
0000
1000
0010
000M
0010
0001
0000
1000
0000
0100
0000
,
1000
0000
0010
0000
0100
0000
0001
0010
M000
0010
1000
0000
0001
0000
1000
0000
,
0001
0010
0100
0000
0010
0100
1000
0000
0100
1000
0001
0000
1000
0001
0100
0000
,
0001
0100
0001
0000
1000
0100
1000
0100
000M
0100
0001
0000
1000
0000
0001
0000
,
1000
0010
1000
0000
0001
0010
0001
0010
M000
0010
1000
0000
0001
0000
1000
0000
,
0001
0100
0001
0000
1000
0010
1000
0010
000M
0010
0001
0000
1000
0000
0001
0000
,
1000
0100
0001
1000
0010
0001
1000
0200
,
1300
0010
0100
0000
0001
0100
0010
0100
000M
0100
1000
0000
0001
0000
1000
0000
,
0001
0010
0100
0000
1000
0010
0100
0010
M000
0010
0001
0000
1000
0000
0001
0000
,
1000
0100
0010
0000
0001
0100
0010
0100
000M
0100
1000
0000
0001
0000
1000
0000
,
0001
0100
0010
0000
1000
0100
0010
0000
0001
0010
0100
0000
1000
0010
0100
0000
,
0101
0101
0000
1010
0000
0011
0000
2200
,
0000
3300
0000
0000
0000
0000
0000
0000
,
0000
0000
0000
0000
0100
1000
0010
0002
,
0000
0003
0000
0000
;

//---------------dance-single - ----------------
#NOTEDATA:;
#CHARTNAME:;
#STEPSTYPE:dance-single;
#DESCRIPTION:;
#CHARTSTYLE:;
#DIFFICULTY:Medium;
#METER:12;
#RADARVALUES:0.582001,0.686599,0.266856,0.684932,0.133428,458.000000,428.000000,30.000000,77.000000,0.000000,0.000000,0.000000,0.000000,0.000000,0.582001,0.686599,0.266856,0.684932,0.133428,458.000000,428.000000,30.000000,77.000000,0.000000,0.000000,0.000000,0.000000,0.000000;
#CREDIT:BlindedVanguard573;
#NOTES:
0000
0000
0000
0000
,
0000
0000
0000
0000
,
0000
0000
0000
0000
,
0000
0000
0000
0000
,
2001
0000
3001
0100
0001
0100
0010
0100
,
0010
0100
0010
1000
0010
1000
0001
1000
,
0001
0001
0010
0010
0100
0100
1000
1000
,
0000
1010
0000
0101
0000
1001
0000
0000
,
0001
0000
0010
0000
0100
0000
0000
1000
0000
0000
0100
0000
0010
0000
0000
0000
,
0001
0000
0100
0000
0010
0000
0000
1000
0000
0000
0010
0000
0100
0000
0000
0000
,
0001
0000
0010
0000
0100
0000
0000
1000
0000
0000
0100
0000
0010
0000
0000
0000
,
0001
0100
0010
1000
0001
0010
0100
1000
,
0001
0000
0100
0000
0010
0000
0000
1000
0000
0000
0010
0000
0100
0000
0000
0000
,
0001
0000
0010
0000
0100
0000
0000
1000
0000
0000
0100
0000
0010
0000
0000
0000
,
0001
0000
0100
0000
0010
0000
0000
1000
0000
0000
0010
0000
0100
0000
0000
0000
,
0001
0010
0100
1000
0001
0100
0010
1000
,
0001
2000
3020
0032
,
0023
2030
3200
0302
,
0203
0000
0010
0000
0310
0100
1000
0001
,
0000
0100
0001
1000
0000
0010
1000
0002
,
0000
0023
2030
3020
,
0032
0203
2300
3200
,
0302
0000
0010
0000
0103
0001
0010
0100
,
1000
1010
0101
0011
,
1100
2000
3020
0032
,
2003
3200
0302
2003
,
3002
0000
0010
0000
0103
0001
0010
0100
,
0000
0100
1000
0010
0000
0010
0100
0002
,
0000
0023
2030
3002
,
0203
2300
3002
2003
,
3002
0000
0010
0000
0103
0001
0010
0100
,
1000
1100
0101
1001
,
0001
0002
0100
0000
1003
0000
1001
0000
,
1000
2000
0100
0000
3001
0000
1001
0000
,
1010
0000
0010
2000
0001
0000
3100
0000
,
1200
0320
0032
2003
,
3001
0002
0010
0000
1003
0000
1001
0000
,
1000
2000
0010
0000
3001
0000
1001
0000
,
0101
0000
0100
0002
1000
0000
0013
0000
,
0021
0230
2300
3002
,
1003
0010
0000
0101
0000
1010
0000
2002
,
0000
3003
0000
0000
0000
0000
0000
0000
,
0000
0000
0000
1001
,
0002
0000
0103
0010
0000
0010
0100
0000
,
0002
0000
0013
0100
0000
0100
0010
0000
,
0002
0000
0103
1000
0100
0000
0002
0000
,
2003
0000
3100
0001
0100
0000
2000
0000
,
3020
0000
0130
1000
0000
1000
0100
0000
,
0020
0000
1030
0100
0000
0100
0010
0000
,
2000
3020
0032
2003
,
3001
0100
0010
1000
0001
1000
0010
0100
,
0001
0010
0100
2000
0000
0010
3010
0000
,
1000
0010
0100
0002
0000
0010
0013
0000
,
0200
0000
1300
0001
0100
0001
2000
0000
,
3200
0000
1300
0001
0010
0001
1000
0010
,
1000
0100
0010
0002
0000
0100
1003
0000
,
0001
0100
0010
2000
0000
0100
3001
0000
,
2000
0000
3001
0100
1000
0100
0002
0000
,
1003
0100
0010
0100
0001
0100
0010
0100
,
1000
0001
0000
0101
0000
1010
0000
2002
,
0000
3003
0000
0000
0000
0000
0000
0000
,
0000
0000
0000
1001
,
1000
0000
0010
0000
0100
0000
0000
0001
0000
0001
1000
0000
0001
0000
0000
0000
,
1000
0000
0100
0000
0010
0000
0000
0001
0000
0001
1000
0000
0001
0000
0000
0000
,
1000
0000
0010
0000
0100
0000
0000
0001
0000
0001
1000
0000
0001
0000
0000
0000
,
1000
0100
0010
0100
0001
0100
0010
0100
,
1000
0000
0010
0000
0100
0000
0000
0001
0000
0001
1000
0000
0010
0000
0000
0000
,
1000
0000
0100
0000
0010
0000
0000
0001
0000
0001
1000
0000
0010
0000
0000
0000
,
1000
0000
0010
0000
0100
0000
0000
0001
0000
0001
1000
0000
0100
0000
0000
0000
,
1000
0010
0100
0010
0001
0010
0100
0010
,
1000
0000
0100
0000
0010
0000
0001
1000
0000
1000
0001
0000
0100
0000
0000
0000
,
0001
0000
0010
0000
0100
0000
1000
0001
0000
0001
1000
0000
0010
0000
0000
0000
,
1000
0000
0100
0000
0010
0000
0001
1000
0000
1000
0001
0000
0100
0000
0000
0000
,
0001
0010
1000
0001
0100
1000
0001
1000
,
0001
0000
0100
0000
0010
0000
1000
0001
0000
0001
1000
0000
0010
0000
0100
0000
,
0001
0000
0010
0000
0100
0000
1000
0001
0000
0001
1000
0000
0100
0000
0010
0000
,
0001
0000
0100
0000
0010
0000
1000
0001
0000
0001
1000
0000
0100
0000
0010
0000
,
0001
0100
1000
0001
0010
1000
0001
1000
,
0001
0010
0000
1100
0000
0011
0000
2002
,
0000
3003
0000
0000
0000
0000
0000
0000
,
0000
0000
0000
0000
0000
1000
0010
0002
,
0000
0003
0000
0000
;

//---------------dance-single - ----------------
#NOTEDATA:;
#CHARTNAME:;
#STEPSTYPE:dance-single;
#DESCRIPTION:;
#CHARTSTYLE:;
#DIFFICULTY:Easy;
#METER:7;
#RADARVALUES:0.368516,0.361368,0.044476,0.177904,0.000000,290.000000,285.000000,5.000000,20.000000,0.000000,0.000000,0.000000,0.000000,0.000000,0.368516,0.361368,0.044476,0.177904,0.000000,290.000000,285.000000,5.000000,20.000000,0.000000,0.000000,0.000000,0.000000,0.000000;
#CREDIT:BlindedVanguard573;
#NOTES:
0000
0000
0000
0000
,
0000
0000
0000
0000
,
0000
0000
0000
0000
,
0000
0000
0000
0000
,
2000
0001
0001
3001
,
1000
0010
0100
0001
,
0020
0000
0100
0000
0100
0000
0130
0100
,
0000
1000
0000
0001
0000
1000
0000
0000
,
0001
0100
0010
0100
,
0001
0010
0100
0010
,
0001
0100
1000
0100
,
0010
0010
0100
1001
,
1000
0010
0100
0010
,
1000
0100
0010
0100
,
1000
0010
0001
0010
,
0100
0100
0010
1001
,
1000
0010
1000
0010
,
0100
0001
0100
0001
,
2000
0001
3001
1000
,
0001
0010
0100
1000
,
0002
0100
0103
0001
,
2000
0100
3100
1000
,
0002
1000
1003
0001
,
1000
0100
0001
1001
,
0001
0100
0001
0100
,
0010
1000
0010
1000
,
0002
1000
1003
0001
,
1000
0100
0010
0001
,
2000
0010
3010
1000
,
0002
0010
0013
0001
,
2000
0001
3001
1000
,
0001
0010
1000
0010
,
0001
0001
0000
0000
0010
0000
0100
0000
,
1000
1000
0000
0000
0010
0000
0100
0000
,
0002
0000
0000
0100
0000
0000
1003
0000
,
0001
0010
0100
1000
,
0001
0001
0000
0000
0100
0000
0010
0000
,
1000
1000
0000
0000
0100
0000
0010
0000
,
0002
0000
0000
0010
0000
0000
1003
0000
,
0001
0100
0010
1000
,
0001
0001
0000
1000
0000
0001
0000
0200
,
0000
0300
0000
0000
0000
0000
0000
0000
,
0000
0000
0000
0000
,
0001
0010
1000
0010
,
0100
1000
0001
0100
,
0001
0100
1000
0100
,
0020
0100
0130
0001
,
1000
1000
0100
0100
,
0010
0010
0001
1000
,
0001
0100
1000
0100
,
0020
0000
0100
0130
,
0001
0010
1000
0010
,
0100
1000
0001
0100
,
0001
0100
1000
0100
,
0020
0100
0130
0001
,
1000
1000
0100
0100
,
0010
0010
0001
1000
,
0001
0100
1000
0100
,
0020
0000
0100
0130
,
0001
0001
0000
0010
0000
0100
0000
2000
,
0000
3000
0000
0000
0000
0000
0000
0000
,
0000
0000
0000
0000
,
1000
0010
0100
1000
,
0100
0010
1000
0100
,
0010
1000
0010
0100
,
1000
0010
0100
1001
,
0001
0010
0100
0001
,
0100
0010
0001
0100
,
0010
0001
0010
0100
,
0001
0010
0100
1001
,
1000
0010
0001
0010
,
1000
0100
0001
0100
,
1000
0010
0001
0100
,
0001
0010
1000
0001
,
1000
0100
0001
0100
,
1000
0010
0001
0010
,
1000
0100
0001
0010
,
0001
0100
1000
0001
,
1000
1000
0000
0010
0000
0100
0000
0002
,
0000
0003
0000
0000
0000
0000
0000
0000
,
0000
0000
0000
0000
0000
0000
1000
0002
,
0000
0003
0000
0000
;

//---------------dance-single - ----------------
#NOTEDATA:;
#CHARTNAME:;
#STEPSTYPE:dance-single;
#DESCRIPTION:;
#CHARTSTYLE:;
#DIFFICULTY:Beginner;
#METER:4;
#RADARVALUES:0.259232,0.288205,0.017790,0.035581,0.000000,204.000000,202.000000,2.000000,4.000000,0.000000,0.000000,0.000000,0.000000,0.000000,0.259232,0.288205,0.017790,0.035581,0.000000,204.000000,202.000000,2.000000,4.000000,0.000000,0.000000,0.000000,0.000000,0.000000;
#CREDIT:BlindedVanguard573;
#NOTES:
0000
0000
0000
0000
,
0000
0000
0000
0000
,
0000
0000
0000
0000
,
0000
0000
0000
0000
,
1000
1000
1000
0000
,
0001
0001
0001
0000
,
0100
0100
0100
0000
,
0010
0010
0010
0010
,
0010
0000
1000
0000
,
0001
0000
0010
0000
,
0100
0000
1000
0000
,
0001
0001
0001
0001
,
0001
0000
0100
0000
,
0010
0000
1000
0000
,
0100
0000
0010
0000
,
0001
0001
0001
0001
,
0001
0000
0100
0000
,
0010
0000
1000
1000
,
2000
0000
3000
0000
,
0001
0000
0010
0000
,
0100
0100
0100
0000
,
0010
0010
0010
0000
,
0002
0000
0003
0000
,
1000
1000
1000
1000
,
1000
0000
0010
0000
,
0100
0100
0100
0000
,
0002
0000
0003
0000
,
1000
1000
1000
0000
,
0100
0000
0010
0000
,
0100
0100
0100
0100
,
0200
0000
0300
0000
,
1000
1000
1000
1000
,
1000
1000
0000
0000
,
0010
0010
0000
0000
,
0100
0000
0001
0000
,
0010
0010
0010
0010
,
0010
0010
0000
0000
,
0100
0100
0000
1000
,
0000
0001
0000
0100
,
0100
0100
0100
0100
,
0100
0000
1001
0000
,
0000
0000
0000
0000
,
0000
0000
0000
0000
,
1000
1000
1000
0000
,
0010
0000
0100
0000
,
0001
0001
0001
0000
,
0010
0000
0100
0000
,
1000
1000
1000
0000
,
0001
0001
0001
0000
,
0100
0100
0100
0100
,
0100
0000
0010
0000
,
1000
1000
1000
0000
,
0100
0100
0100
0000
,
0010
0010
0010
0010
,
0010
0000
0001
0000
,
1000
1000
1000
0000
,
0010
0010
0010
0000
,
0100
0100
0100
0100
,
0100
0000
0001
0000
,
1000
0000
0010
0010
,
0010
0000
0000
0000
,
0000
0000
0000
0000
,
1000
1000
1000
0000
,
0010
0010
0010
0000
,
0100
0100
0100
0000
,
0001
0001
0001
0001
,
0001
0001
0001
0000
,
0010
0010
0010
0000
,
0100
0100
0100
0000
,
1000
1000
1000
1000
,
1000
1000
1000
0000
,
0010
0010
0010
0000
,
0100
0100
0100
0000
,
0001
0001
0001
0001
,
0001
0001
0001
0000
,
1000
1000
1000
0000
,
0100
0100
0100
0000
,
0010
0010
0010
0010
,
0010
0000
0100
0100
,
0100
0000
0000
0000
,
0000
0000
0000
0000
,
1001
0000
0000
0000
;
