#TITLE:Ultramarine;
#SUBTITLE:;
#ARTIST:Ryu;
#TITLETRANSLIT:;
#SUBTITLETRANSLIT:;
#ARTISTTRANSLIT:;
#GENRE:;
#CREDIT:;
#MUSIC:Ultramarine.ogg;
#BANNER:Ultramarine.png;
#BACKGROUND:Ultramarine-bg.png;
#CDTITLE:;
#SAMPLESTART:12.556;
#SAMPLELENGTH:10.681;
#SELECTABLE:YES;
#OFFSET:-0.933;
#BPMS:0.000=191.000;
#STOPS:;
#BGCHANGES:;
#FGCHANGES:;

//--------------- dance-single - AlienSix ----------------
#NOTES:
     dance-single:
     AlienSix:
     Beginner:
     4:
     0,0,0,0,0:
0000
0000
0000
0000
,
0000
0000
0000
0000
,
0000
0000
0000
0000
,
0000
0000
0000
0000
,
1000
0000
0000
0000
,
1000
0000
0000
0000
,
0001
0000
0000
0000
,
1000
0000
0000
0000
,
0000
0000
0000
0000
,
0000
0000
0000
0000
,
1000
0000
1000
0000
,
0001
0000
0000
0000
,
0001
0000
0001
0000
,
1000
0000
0000
0000
,
0010
0000
0010
0000
,
0100
0000
0000
0000
,
0100
0000
0100
0000
,
0010
0000
0000
0000
,
1000
0001
0000
0000
0000
0000
0000
0000
0000
0000
0000
0000
0000
0000
0000
0000
,
1000
0000
0000
0000
,
0001
1000
0000
0000
0000
0000
0000
0000
0000
0000
0000
0000
0000
0000
0000
0000
,
0001
0000
0000
0000
,
1000
0000
0100
0000
,
1000
0000
1000
0100
,
1000
0000
0000
0000
,
0001
0000
0000
0000
,
1000
0000
0000
0000
,
1000
0000
0000
0000
,
0001
0100
0001
0000
,
0001
0010
0001
0000
,
1000
0000
0001
0000
,
1000
0000
0001
0000
,
0010
0100
0010
0000
,
0010
0100
0010
0000
,
0010
0000
0100
0000
,
1000
0100
1000
0000
,
1000
0100
1000
0000
,
0010
0000
0100
0000
,
0001
0000
0100
0000
,
0010
0000
0001
0000
,
1001
0000
0000
0000
,
2000
0010
0001
0100
,
3020
0001
0100
0001
,
0230
0001
0010
1000
,
0302
0010
0100
1000
,
1003
0000
0001
0000
,
0000
0000
0001
0000
,
1000
0000
0000
0000
,
1000
0000
0000
0000
,
0001
0000
0001
0000
,
1000
0000
1000
0000
,
0001
0000
1000
0000
,
1000
0000
0001
0000
,
1000
0000
1000
0000
,
0001
0000
0001
0000
,
1000
0000
1000
0000
,
0001
0000
0001
0000
,
0010
0000
0010
0000
,
0100
0000
0100
0000
,
0010
0000
0010
0000
,
0100
0000
0100
0000
,
1000
0000
1000
0000
,
0001
0000
0002
0000
,
1003
0000
0100
0000
,
0010
0000
0000
0000
0000
0000
0000
0000
0001
1000
0000
0000
0000
0000
0000
0000
,
0001
0000
0010
0000
,
0100
0000
0000
0000
0000
0000
0000
0000
1000
0001
0000
0000
0000
0000
0000
0000
,
1000
0000
0100
0000
,
0010
0000
0000
0000
0000
0000
0000
0000
0001
1000
0000
0000
0000
0000
0000
0000
,
0001
0000
0010
0000
,
0100
0000
0000
0000
0000
0000
0000
0000
1000
0001
0000
0000
0000
0000
0000
0000
,
0001
0000
0010
0000
,
0100
0000
0000
0000
0000
0000
0000
0000
1000
0001
0000
0000
0000
0000
0000
0000
,
1000
0000
0100
0000
,
0010
0000
0000
0000
0000
0000
0000
0000
0001
1000
0000
0000
0000
0000
0000
0000
,
1000
0000
1000
0000
,
0001
0000
0001
0000
,
1000
0000
0001
0000
,
1000
0000
0001
0000
,
2002
0000
0000
0000
,
0000
0000
0000
0000
,
3003
0000
0000
0000
;

//--------------- dance-single - AlienSix ----------------
#NOTES:
     dance-single:
     AlienSix:
     Easy:
     9:
     0,0,0,0,0:
0000
0000
0000
0000
,
0000
0000
0000
0000
,
0000
0000
0000
0000
,
0000
0000
0000
0000
,
1000
0000
0001
0000
,
0010
0001
1000
0100
,
1000
0000
0001
0000
,
2002
0000
0000
0000
,
0000
0000
0000
0000
,
3003
0000
0000
0000
,
0001
0100
0010
0000
,
0001
0010
0100
0000
,
0001
1000
0010
0000
,
0011
0000
1100
0000
,
1000
0010
0100
0000
,
1000
0100
0010
0000
,
0001
0010
0100
0000
,
1000
1001
0001
1001
,
0100
0001
0100
0010
,
0000
0001
0010
0100
,
0001
0001
0100
0100
,
0010
0010
1000
1000
,
0002
0100
0000
1000
,
0000
0100
0000
1000
,
1003
0100
0010
0100
,
1000
0001
0000
0000
0000
0000
0000
0000
0000
0000
0000
0000
0001
0000
0000
0000
,
0010
0100
1000
0100
,
1000
0001
0000
0000
0000
0000
0000
0000
0001
1000
0000
0000
0000
0000
0000
0000
,
0010
0100
1000
0001
,
1000
0100
0000
0000
0000
0000
0000
0000
0100
1000
0000
0000
0000
0000
0000
0000
,
0100
0010
0001
1000
,
0001
0100
0000
0000
0000
0000
0000
0000
0100
0001
0000
0000
0000
0000
0000
0000
,
1000
0000
0001
0000
0100
0010
0100
0000
,
1000
0100
0010
0001
,
1000
0000
0001
0000
0010
0100
0010
0000
,
0001
0001
1000
1000
,
0001
0000
0100
0000
0010
0000
1000
0001
,
0010
0000
0100
0000
1000
0000
0010
0100
,
0001
0001
1000
1000
,
0100
0100
0010
0010
,
2002
0000
0000
0000
0000
0000
0000
0003
,
3001
1000
0010
0000
,
1000
0100
0010
0000
,
0001
0100
0101
0000
,
0010
1000
1010
0000
,
1000
0001
0100
0000
,
0001
0010
0100
0000
,
1000
0001
0000
0000
0000
0000
0000
0000
1001
0000
0000
0000
0000
0000
0000
0000
,
0001
1000
0000
0000
0000
0000
0000
0000
1001
0000
0000
0000
0000
0000
0000
0000
,
1000
0100
1000
0000
,
0100
0010
0100
0000
,
0010
0001
0010
0000
,
0100
1000
0100
0000
,
0001
0100
0010
0000
,
0001
0010
0100
0000
,
0010
1000
0100
0000
,
0010
0001
0100
0000
,
0001
0100
1000
0000
,
1000
0100
0001
0000
,
1000
0000
0100
0000
1000
0100
1000
0000
,
0001
0000
0100
0000
0001
0100
0001
0000
,
1001
0000
0110
0000
,
1001
0000
0110
0000
,
2000
0100
0001
0100
,
3002
0010
0100
1000
,
0203
0001
0010
1000
,
0320
0100
0001
1000
,
1030
0100
1000
0000
1000
0000
1000
0000
,
0001
0100
0001
0000
0001
0000
0001
0000
,
0010
0100
0010
0000
0100
0000
0100
0000
,
1000
0100
0010
0000
0100
0000
0100
0000
,
0001
1000
0010
1001
,
1000
0001
0010
1001
,
1000
0100
0001
0100
,
1000
0100
0001
0100
,
1000
0100
1000
0000
0001
0000
0100
0000
,
0001
0100
0001
0000
1000
0000
0100
0000
,
0110
0000
1001
0000
,
0110
0000
1001
0000
,
0220
0000
0000
0000
,
0000
0000
0000
0000
,
0330
0000
0000
0000
;

//--------------- dance-single - AlienSix ----------------
#NOTES:
     dance-single:
     AlienSix:
     Medium:
     12:
     0,0,0,0,0:
0000
0000
0000
0000
,
0000
0000
0000
0000
,
0000
0000
0000
0000
,
0000
0000
0000
0000
,
2000
0001
0000
3100
,
0010
0001
1000
0100
,
1000
0100
0010
0002
,
2000
0000
0000
0000
,
0000
0000
0000
0000
,
3003
0000
0000
0000
,
0010
1000
0100
0000
0010
0001
0100
0000
,
1000
0100
0001
0000
0001
0010
1000
0000
,
0001
0100
0001
0000
1000
0100
1000
0000
,
1000
0002
0000
0000
1000
0000
0000
0000
0000
0000
0000
0000
1003
0000
0100
0000
,
0010
0001
0010
0000
1000
0100
1000
0000
,
0010
1000
0100
0000
0010
0001
0100
0000
,
1000
0100
0002
0000
1000
0000
0010
0000
,
1003
0100
0020
0000
0001
0000
0100
0000
,
0031
0100
0001
1000
0000
0100
0000
0010
,
0100
1000
0100
0010
0000
0001
0000
1000
,
0001
0000
0000
1000
0001
0000
0000
0000
1000
0000
0000
0001
1000
0000
0000
0000
,
0100
0010
0001
0000
1000
0100
1000
0000
,
1000
0100
0010
0001
,
1000
0100
0010
0001
0000
0001
0010
0100
,
1000
0010
0100
0001
1000
0100
0010
0100
,
2000
0001
3002
0100
,
1003
0100
1000
0100
0010
0001
0010
0001
,
0200
0000
0000
0000
0001
0000
0000
0000
0010
0000
0000
0000
0001
0000
0000
0300
,
1000
0001
0000
0000
0100
0000
0000
0000
0010
0000
0000
0000
0001
0000
0000
0000
,
1000
0010
0100
0000
0001
1000
0100
0000
,
0010
0001
0000
0000
1001
0000
0000
0000
1000
0100
0000
0000
1001
0000
0000
0000
,
0001
0100
0010
0000
1000
0001
0010
0000
,
0100
1000
0010
0100
0001
0000
1000
0000
,
0001
0100
0010
0000
0001
0010
0100
0000
,
0100
1000
0010
0100
0001
0010
0100
1000
,
1000
0010
0100
0000
1000
0100
0010
0000
,
0001
0100
0001
0010
0000
0100
1000
0000
,
0010
1000
0100
0010
0000
0001
1000
0000
,
0001
0100
0010
0000
1000
0100
0010
0000
,
0001
0100
0010
0000
0001
0010
0100
0000
,
0200
0000
0000
0000
,
0320
0000
0001
0000
,
0130
1000
0010
0001
,
0010
1000
0200
0000
,
0302
0000
0000
0100
,
2003
0000
3002
0000
,
0013
0100
1000
0001
,
1000
0100
0010
0002
,
0000
1000
0100
1003
,
0010
0000
0000
0000
1000
0000
0000
0000
0100
0000
0000
0000
0010
0000
0000
0001
,
1000
0000
0000
0000
0100
0000
0000
0000
0010
0000
0000
0000
0100
0000
0000
1000
,
0001
0000
0000
0000
0100
0000
0000
0000
0010
0000
0000
0000
1000
0000
0000
0001
,
0010
0000
0000
0000
0100
0000
0000
0000
1000
0000
0000
0000
0001
0000
0000
0010
,
0100
0100
2000
0000
,
3001
0001
0020
0000
,
0130
1000
1100
0100
,
0110
0010
0011
0010
,
0100
1000
0010
0000
0100
0001
0010
0000
,
0100
1000
0010
0000
0100
0001
0010
0000
,
0100
1000
0010
1000
0100
1000
0010
1000
,
0100
0010
0001
0100
0001
0010
0001
0100
,
0101
0101
1010
1010
,
1001
0000
0110
0000
1000
0100
0001
0100
,
2000
0000
0000
0000
3010
0000
1000
0001
1000
0000
0010
0000
0100
0000
0000
0000
,
1001
0000
0000
0000
0100
0000
0001
1000
0001
0000
0100
0000
0010
0000
0000
0000
,
1001
0000
0000
0000
0010
0000
1000
0001
1000
0000
0010
0000
0100
0000
0000
0000
,
1001
0000
0000
0000
0100
0000
0001
1000
0001
0000
0100
0000
0010
0000
0000
0000
,
1000
0010
0100
0000
0001
0000
1000
0000
0100
0000
0010
0000
0100
0000
1000
0000
,
0001
0100
0010
0000
1000
0000
0001
0000
0010
0000
0100
0000
0010
0000
0001
0000
,
1000
0010
0100
0000
0001
0000
1000
0000
0100
0000
0010
0000
0100
0000
1000
0000
,
0001
0100
0010
0000
1000
0000
0001
0000
0010
0000
0100
0000
0010
0000
0001
0000
,
1000
0100
1000
0100
0010
0001
0010
0000
,
0001
0010
0001
0010
0100
1000
0100
0000
,
1000
0010
1000
0010
0100
0001
0100
0000
,
0001
0100
0001
0100
0010
1000
0010
0000
,
0001
0100
0010
1000
0001
0010
0100
0010
,
0001
0100
0010
1000
0001
0010
0100
0010
,
0001
0010
0100
1000
0001
0010
0100
1000
,
0001
0010
0100
1000
0001
0010
0100
2000
,
0002
0000
0000
0000
,
0000
0000
0000
0000
,
3003
0000
0000
0000
;

//--------------- dance-single - AlienSix ----------------
#NOTES:
     dance-single:
     AlienSix:
     Hard:
     14:
     0,0,0,0,0:
0000
0000
0000
0000
,
0000
0000
0000
0000
,
0000
0000
0000
0000
,
1000
1000
0001
0001
,
0020
0001
1000
0031
,
1000
1100
0010
0011
,
0002
0023
0230
2300
,
0002
0000
0000
0000
,
0000
0000
0000
0000
,
3003
0000
0000
0000
0000
1000
0001
1000
,
0100
0010
0001
0100
0010
1000
0001
0100
,
0001
1000
0000
0000
1001
0000
0000
0000
1000
0001
0000
0000
1001
0000
0000
0000
,
0010
0100
1000
0010
0100
0001
1000
0010
,
1000
0001
0000
0000
2001
0000
0100
0000
0000
0000
3010
0000
0001
0000
0100
0000
,
0001
1000
0010
0100
0001
1000
0010
1000
,
0100
0010
0000
0000
0001
0000
0000
0000
1000
0100
0000
0000
0010
0000
0100
0000
,
1000
0000
0100
0000
0010
0001
0010
0000
0100
0000
1000
0000
0010
1000
0010
0000
,
0100
0001
0010
0100
0000
0100
0001
0100
,
1000
0000
1000
0000
0010
0000
0010
0000
0100
0000
0100
0000
0001
0000
0001
1000
,
0100
0000
0100
0000
0010
0000
0010
0000
0001
0000
0001
0000
1000
0000
1000
0001
,
1000
0100
1000
0100
1000
0000
0000
0000
0001
0100
0001
0100
0001
0000
0000
0000
,
1000
0100
0010
0001
1000
0100
0010
0001
1000
0100
0010
0001
1000
0100
0010
0001
,
0100
1000
0010
0000
0100
0001
0010
0000
,
0001
0100
0010
0000
0001
0010
0100
0000
,
1000
0100
0010
0001
1000
0100
1000
0010
,
0100
0001
1000
0100
0001
0100
1000
0100
,
1000
0100
0010
0001
1000
0100
1000
0010
,
0100
0001
1000
0100
0001
0100
1000
0100
,
1000
0010
0100
0001
1000
0010
1000
0100
,
0010
0001
1000
0010
0001
0010
1000
0010
,
1000
0100
0010
0001
1000
0100
1000
0010
,
0100
0001
1000
0100
0001
0100
1000
0100
,
0001
0100
1000
0010
0100
0001
1000
0000
,
0001
0100
0010
0000
0001
0010
0100
0000
,
0001
0100
0010
1000
0001
0010
0100
1000
,
0001
1000
0010
0100
0000
1000
0100
0010
,
0001
0000
0001
0000
0100
0000
0100
0000
0010
0000
0010
0000
1000
0000
1000
0001
,
0010
0000
0010
0000
0100
0000
0100
0000
1000
0000
1000
0000
0001
0000
0001
1000
,
0001
0010
0001
0010
0001
0000
0000
0000
1000
0010
1000
0010
1000
0000
0000
0000
,
0001
0010
0100
1000
0001
0010
0100
1000
0001
0010
0100
1000
0001
0010
0100
2000
,
0000
0100
0010
0001
,
3200
0000
1000
0000
0010
0000
1300
0100
,
0001
0101
1000
1100
,
0001
0010
2000
0000
,
3010
0001
0100
1000
,
0200
0000
0010
0000
0001
0000
1300
0100
,
0001
0101
1000
1100
,
0010
1000
0001
0200
,
1000
0300
0100
0000
0001
0000
1000
0000
,
0010
0000
0000
0000
0100
0000
0000
0000
1000
0000
0000
0000
0001
0000
0000
0010
,
0100
0000
0000
0000
0001
0000
0000
0000
1000
0000
0000
0000
0100
0000
0000
0001
,
1000
0000
0000
0000
0010
0000
0000
0000
0001
0000
0000
0000
0100
0000
0000
1000
,
0001
0000
0000
0000
0010
0000
0000
0000
0100
0000
0000
0000
0001
0000
0000
1000
,
0001
0000
0100
0000
0001
0000
0100
0000
0001
0000
0100
0000
0001
0000
0000
1000
,
0100
0000
1000
0000
0100
0000
1000
0000
0100
0000
1000
0000
0100
0000
0000
0010
,
0001
0000
0010
0000
0001
0000
0010
0000
0001
0000
0010
0000
0001
0000
0000
1000
,
0010
1000
0010
1000
0010
1000
0010
1000
,
0001
0100
0010
0000
0001
0010
0100
0000
,
1000
0010
0100
0000
1000
0100
0010
0000
,
1000
0100
1000
0100
1000
0000
0000
0000
0010
0001
0010
0001
0010
0000
0000
0000
,
1000
0100
1000
0100
1000
0100
1000
0100
0010
0001
0010
0001
0010
0001
0010
0001
,
0011
0011
1100
1100
,
1010
0000
0101
0000
1000
0100
0001
0010
,
1000
0010
0000
0000
0010
0001
0000
0000
0100
0000
1000
0000
0100
0000
1000
0000
,
0100
0001
0000
0000
0001
1000
0000
0000
1000
0000
0100
0000
0001
0000
0100
0000
,
1000
0010
0000
0000
0010
0001
0000
0000
0010
0000
1000
0000
0001
0000
0100
0000
,
1000
0100
0000
0000
0100
0001
0000
0000
0010
0000
1000
0000
0010
0000
1000
0000
,
1000
0010
0000
0000
0010
0001
0000
0000
0100
0000
1000
0000
0100
0000
1000
0000
,
0100
0001
0000
0000
0001
1000
0000
0000
1000
0000
0100
0000
0001
0000
0100
0000
,
1000
0010
0000
0000
0010
0001
0000
0000
0010
0000
1000
0000
0001
0000
0100
0000
,
1000
0100
0000
0000
0100
0001
0000
0000
0010
0000
1000
0000
0010
0000
1000
0000
,
0100
0001
1000
0010
1000
0010
0100
0001
,
1000
0100
0010
0100
1000
0010
0100
0001
,
1000
0100
0010
0100
1000
0010
0100
0001
,
0010
0100
1000
0100
0010
0100
1000
0001
,
1000
0000
1000
0000
0010
0000
0010
0000
0100
0000
0100
0000
0001
0000
0001
1000
,
0100
0000
0100
0000
0010
0000
0010
0000
0001
0000
0001
0000
1000
0000
1000
0001
,
1000
0100
1000
0100
1000
0000
0000
0000
0001
0100
0001
0100
0001
0000
0000
0000
,
1000
0100
0010
0001
1000
0100
0010
0001
1000
0100
0010
0001
1000
0100
0010
0002
,
2000
0000
0000
0000
,
0000
0000
0000
0000
,
3003
0000
0000
0000
;
