#TITLE:Übertreffen;
#SUBTITLE:;
#ARTIST:TAKA respect for J.S.B.;
#TITLETRANSLIT:Ubertreffen;
#SUBTITLETRANSLIT:;
#ARTISTTRANSLIT:;
#GENRE:;
#CREDIT:;
#MUSIC:Ubertreffen.ogg;
#BANNER:Ubertreffen.png;
#BACKGROUND:Ubertreffen-bg.png;
#CDTITLE:;
#SAMPLESTART:28.960;
#SAMPLELENGTH:15.000;
#SELECTABLE:YES;
#OFFSET:0.000;
#BPMS:0.000=174.757
,4.000=173.996
;
#STOPS:;
#DISPLAYBPM:174.000;
#BGCHANGES:;
#FGCHANGES:;

//--------------- dance-single - ----------------
#NOTES:
     dance-single:
     :
     Beginner:
     7:
     0,0,0,0,0:
0000
0000
0000
0000
,
0000
0000
0000
0000
,
0000
0000
0000
0000
,
0000
0000
0000
0000
,
0000
0000
0000
0000
,
1000
0000
0000
0000
,
0001
0000
0000
0000
,
0100
0000
0000
0000
,
0010
0000
0000
0000
,
1000
0100
0010
0100
,
1000
0100
0010
0001
,
1000
0010
0100
0010
,
1000
0001
0010
0100
,
1000
0001
0100
0010
,
0100
0001
0100
0010
,
1000
0010
0100
0001
,
1000
0100
0010
0001
,
1000
1000
1000
1000
,
0001
0100
0010
0100
,
0001
0001
0001
0001
,
1000
0100
0010
0001
,
0000
1000
0000
0000
0100
0000
0000
0010
,
0000
1000
0000
0000
0100
0000
0000
0010
,
0000
1000
0000
0000
0100
0000
0000
0010
,
0001
0010
0100
1000
,
0000
0001
0000
0000
0100
0000
0000
0010
,
0000
0001
0000
0000
0100
0000
0000
0010
,
0000
0001
0000
0000
0100
0000
0000
0010
,
1000
0100
0010
0001
,
1000
0010
0100
0010
,
1000
0001
0010
0100
,
1000
0100
0010
0001
,
1000
0010
0100
0001
,
0010
0001
0100
0001
,
0010
0100
0010
0001
,
0010
0100
1000
0010
,
0100
0001
0100
0010
,
0100
0001
1000
0100
,
1000
0001
0100
0010
,
1000
0001
0010
0100
,
0010
0001
1000
0000
,
0010
0100
0010
1000
,
0001
0010
0100
0010
,
0001
0010
0100
1000
,
0001
0100
0010
1000
,
0100
0010
0100
1000
,
0100
0010
0001
0010
,
0100
0010
0100
1000
,
0001
0100
0010
1000
,
0001
0010
0100
1000
,
0001
0010
0100
1000
,
0001
0000
1000
0000
0001
1000
0010
0100
,
0001
0010
0100
0010
,
0001
0010
0100
1000
,
0001
0100
0010
0100
,
0001
0100
0010
1000
,
0100
1000
0010
1000
,
0001
1000
0010
1000
,
0100
1000
0010
0100
,
0001
0010
0001
0100
,
0010
0100
0001
0010
,
0100
1000
0001
0100
,
0010
1000
0010
0100
,
0010
1000
0100
0010
,
0001
1000
0010
0010
,
0100
0100
0001
0010
,
0100
1000
0010
0100
,
0001
0000
2002
0000
,
0000
0000
0000
0000
,
0000
0000
0000
0000
,
0000
3003
0000
0000
;

//--------------- dance-single - ----------------
#NOTES:
     dance-single:
     :
     Easy:
     11:
     0,0,0,0,0:
0000
0000
0000
0000
,
0000
0000
0000
0000
,
0000
0000
0000
0000
,
0000
0000
0000
0000
,
0000
0000
0000
0000
,
1001
0000
0000
0110
,
1001
0000
0000
0110
,
1001
0000
0000
0000
,
1010
0011
0101
1100
,
1000
0000
0100
0000
0010
0100
1000
0100
,
0010
0000
0001
0000
0100
0010
0100
0001
,
1000
0000
0001
0100
0010
1000
0010
0000
,
0100
0000
0001
1000
0100
0010
0001
0000
,
1000
0010
0100
0010
,
1000
0010
0100
0001
,
1000
0000
0100
0000
0010
0100
1000
0000
,
0100
0010
0001
0000
0010
0000
0100
0000
,
1000
1000
0001
0001
1000
0000
0001
0000
,
0100
0000
0010
0000
1000
0000
0001
0010
,
0100
0100
0010
0010
0100
0000
0010
0000
,
0001
0100
0010
0000
1000
0000
0001
0000
,
0000
1000
0100
0000
0010
0001
0000
0001
,
0000
1000
0100
0000
0010
0001
0000
0001
,
0000
1000
0100
0000
0010
0001
0000
0001
,
0010
0100
1000
0001
0010
0000
0100
1000
,
0000
0001
0100
0000
0010
1000
0000
1000
,
0000
0001
0100
0000
0010
1000
0000
1000
,
0000
0001
0100
0000
0010
1000
0000
1000
,
0001
0100
0010
1000
0001
0010
0100
0000
,
1000
0100
0010
0100
,
1000
0000
0100
0000
0010
0001
0010
0100
,
1000
0000
0010
0000
0100
0010
1000
0010
,
0100
0001
0100
0000
0010
1000
0010
1000
,
0001
0010
0001
0000
0010
0000
0100
0000
,
0010
0001
1000
0010
0100
0000
0001
0000
,
0010
0100
1000
0001
0100
0000
0010
0000
,
1000
0100
0010
0100
1000
0000
0001
0000
,
0100
0010
1000
0001
,
0010
0000
0100
0000
1000
0001
0100
0010
,
1000
0100
0010
0000
0100
1000
0100
0000
,
0010
0001
0010
0100
1000
0000
0001
0000
,
0100
0000
0010
0000
0000
1000
0000
1000
,
0000
0001
0000
0001
0000
0010
0000
0010
,
0000
0100
1000
0000
0001
0000
0100
0000
,
0010
0000
0100
0000
0010
0000
1000
0001
,
1000
0100
0010
0100
1000
0000
0010
0000
,
0100
0001
0100
0000
0010
0000
1000
0000
,
0001
0010
0100
1000
0010
0000
0100
0000
,
0001
0010
0100
1000
,
0001
0100
0010
1000
,
0001
0010
0100
1000
,
0001
0010
0100
1000
0001
1000
0010
0100
,
0001
0010
0100
0010
0001
0010
0100
0010
,
0001
1000
0010
1000
0001
1000
0010
1000
,
0001
0010
0100
1000
,
0010
0100
0010
1000
0010
0100
0010
1000
,
0001
0010
0001
0000
1000
0000
0010
0000
,
0100
0001
0100
0010
,
1000
0100
1000
0100
,
0010
0100
1000
0001
,
0100
0010
0100
0000
0001
0000
0010
0001
,
1000
0000
0010
0100
0010
0000
1000
0001
,
1000
0000
0001
0010
0100
1000
0010
0100
,
0010
0000
1000
0001
0010
0100
1000
0001
,
1000
0100
0011
0101
,
1001
0000
1000
0100
0010
0001
0100
0010
,
0100
0001
0010
0100
1000
0010
0100
0001
,
1000
0000
2002
0000
,
0000
0000
0000
0000
,
0000
0000
0000
0000
,
0000
3003
0000
0000
;

//--------------- dance-single - ----------------
#NOTES:
     dance-single:
     :
     Medium:
     13:
     0,0,0,0,0:
0000
0000
0000
0000
,
0000
0000
0000
0000
,
0000
0000
0000
0000
,
0000
0000
0000
0000
,
0000
0000
0000
0000
,
1001
0000
0000
1010
,
0011
0000
0000
0101
,
1100
0000
0000
0000
,
0110
0000
1001
0000
,
1000
0100
0010
0100
1000
0001
0100
0010
,
0100
0000
0001
0000
0010
0001
0010
0100
,
0010
0001
1000
0010
0100
0001
1000
0001
,
0010
0001
0010
0100
1000
0100
0010
0000
,
0001
0100
0010
0100
0001
0000
1000
0100
,
0010
0100
1000
0001
0100
0010
1000
0010
,
1000
0001
0010
0001
0010
0100
0010
0001
,
1000
0010
0100
0010
0100
0001
1000
0100
,
0010
0010
0010
0010
0010
0000
0010
0000
,
0100
1000
0001
0100
0010
1000
0001
0010
,
0100
0100
0100
0100
0100
0000
0100
0000
,
1000
0010
0100
0010
1000
0001
0010
0001
,
0000
1000
0100
0010
0001
0001
0000
0001
,
0000
1000
0100
0010
0001
0001
0000
0001
,
0000
1000
0100
0010
0001
0001
0000
0001
,
0010
0100
1000
0001
0100
0010
1000
1000
,
0000
0001
0100
0010
1000
1000
0000
1000
,
0000
0001
0100
0010
1000
1000
0000
1000
,
0000
0001
0100
0010
1000
1000
0000
1000
,
0001
0010
0100
1000
0001
0100
0010
0000
,
1000
0100
1000
0100
0010
0100
1000
0100
,
0010
0001
0010
0100
0010
0001
1000
0010
,
0100
0010
0000
1000
0001
0010
0100
0010
,
0001
1000
0010
0100
0001
0100
0010
1000
,
0001
0010
0100
0010
0001
0010
0100
0010
,
0100
1000
0001
0100
0010
0100
0001
1000
,
0100
0010
0100
1000
0001
1000
0010
0100
,
0001
0100
0010
1000
0010
1000
0001
1000
,
0100
0000
0010
0001
0010
0100
1000
0001
,
0100
0010
0100
0010
1000
0001
0010
0100
,
1000
0100
1000
0100
1000
0001
0100
0010
,
0100
0001
1000
0100
0010
0000
0001
0000
,
1000
0010
0100
0001
0000
1000
0100
0010
,
0000
0100
0010
0001
0000
1000
0010
0100
,
0000
0001
0010
0100
1000
0001
0100
0010
,
0100
0001
0010
0100
0010
0001
0100
0010
,
1000
0100
0010
0100
1000
0100
0010
0001
,
1000
0010
0100
0000
0010
1000
0010
0100
,
0001
1000
0100
0010
0100
1000
0010
0100
,
0001
0010
0100
1000
0001
0100
0010
1000
,
0001
0010
0100
1000
0001
0100
0010
1000
,
0001
0010
0100
1000
0001
0010
0100
1000
,
0001
1000
0001
1000
0001
1000
0010
0100
,
0001
0010
0100
0010
0001
0010
0100
1000
,
0001
0100
0010
0100
0001
0100
0010
0100
,
0001
0100
0010
1000
0001
0010
0100
1000
,
0100
0010
0100
1000
0100
0010
0100
1000
,
0100
1000
1100
0000
0010
0001
0011
0000
,
0001
0100
0101
0000
0010
1000
1010
0000
,
0100
0010
0110
0000
0001
1000
1001
0000
,
0010
0100
0110
0000
1000
0001
1001
0000
,
1000
0100
0010
0010
0001
0100
0010
1000
,
0001
0010
0000
0001
0010
0100
1000
0010
,
1000
0100
0010
0100
1000
0100
0010
0001
,
0100
0010
0100
0001
0010
0100
0010
0001
,
1000
0100
0010
0001
0100
0010
0110
0000
,
0001
1000
1001
0001
1000
0100
0010
0001
,
0100
0010
1000
0100
0010
0001
0100
0010
,
1000
0000
2002
0000
,
0000
0000
0000
0000
,
0000
0000
0000
0000
,
0000
3003
0000
0000
;

//--------------- dance-single - ----------------
#NOTES:
     dance-single:
     :
     Hard:
     16:
     0,0,0,0,0:
0000
0000
0000
0000
,
0000
0000
0000
0000
,
0000
0000
0000
0000
,
0000
0000
0000
0000
,
0000
0000
0000
0000
,
1100
1000
1000
1010
,
0110
0100
0100
0101
,
0011
0010
0010
0010
,
1001
0000
0000
0000
0001
0000
0000
0000
1000
0001
1000
0000
0002
0000
0000
0000
,
1003
0100
1000
0000
0100
0000
0010
0000
0001
0010
0001
0000
1000
0010
1000
0000
,
0001
0000
0100
0000
0010
0000
0100
0000
0001
0100
0001
0000
1000
0100
1000
0000
,
0010
0100
0010
0100
0001
0000
0000
0000
0010
0000
0100
0000
1000
0000
0000
1000
,
0001
1000
0001
0000
0100
0000
0010
0000
0100
0000
0001
0000
0010
0100
0000
1000
,
0001
0000
0100
0001
0100
0000
0010
0000
0100
0001
0100
0000
0010
0000
1000
0000
,
0100
0000
0010
0000
0100
0000
0010
0000
0001
1000
0001
0010
0100
0000
1000
0000
,
0010
0000
0100
0010
0100
0000
0001
0000
1000
0100
0010
0001
1000
0000
0010
0000
,
1000
0000
0001
0000
0010
0000
0100
0000
1000
0010
1000
0000
0100
0000
1000
0000
,
1001
0001
0101
0001
1001
0000
0011
0000
,
0100
1000
0100
0000
1000
0000
0001
0000
0100
0000
0010
0000
0100
0000
0001
0000
,
1001
1000
1100
1000
1001
0000
1010
0000
,
0100
0001
0100
0001
1000
0000
0100
0000
0010
0000
0010
0000
0100
0000
0100
0000
,
0000
0000
1000
0100
0010
0000
0001
0000
0010
0000
0010
0000
0000
0000
0010
0000
,
0000
0000
1000
0100
0010
0000
0001
0000
0010
0000
0010
0000
0000
0000
0010
0000
,
0000
0000
1000
0100
0010
0000
0001
0000
0010
0000
0010
0000
0000
0000
0010
0000
,
0001
0010
0100
1000
0001
0100
0010
1000
0001
0010
0001
0000
1000
0000
1000
0000
,
0000
0000
0001
0100
0010
0000
1000
0000
0010
0000
0010
0000
0000
0000
0010
0000
,
0000
0000
0001
0100
0010
0000
1000
0000
0010
0000
0010
0000
0000
0000
0010
0000
,
0000
0000
0001
0100
0010
0000
1000
0000
0010
0000
0010
0000
0000
0000
0010
0000
,
1000
0001
0010
0100
1000
0001
0100
0010
1000
0001
1000
0000
0001
0000
0000
0000
,
1000
1000
0100
0010
0100
1000
0001
0100
,
0010
0000
0100
0000
0001
0000
0010
0000
0001
0010
0001
0010
0100
0000
1000
0000
,
0001
0100
0000
0010
0100
0001
1000
0100
,
0010
0000
0100
0000
0010
0000
0001
0000
1000
0100
0010
0100
1000
0000
0001
0000
,
0010
0000
0100
0010
0001
0000
0010
0100
0010
0000
0001
0010
0100
0000
0010
0100
,
1000
0000
0001
0000
0100
0000
0010
0000
1000
0010
0100
0010
1000
0000
0001
0000
,
0010
0001
1000
0010
0100
0010
1000
0001
,
0010
0100
1000
0100
0010
0100
1000
0100
,
1000
0001
1000
0000
0001
0000
0100
0000
0010
0000
0100
0000
0001
0000
0100
0000
,
0010
1000
0100
1000
0010
1000
0100
1000
,
0001
0100
0010
1000
0001
0010
0100
1000
,
0100
0010
0001
1000
0001
0000
1000
0001
,
1000
0000
0100
0000
0010
0000
0100
0000
0000
0000
1000
0001
0100
0000
0010
0000
,
0000
0000
1000
0001
0010
0000
0100
0000
0000
0000
1000
0001
0100
0000
0010
0000
,
0000
1000
0001
0000
0010
0001
0010
0000
0100
0010
0100
0000
0010
0001
0010
0000
,
0001
1000
0001
0000
1000
0010
1000
0000
0001
0100
0001
0000
1000
0000
0001
0000
,
1000
0100
0010
0000
0100
0010
0001
0000
0100
0000
0010
0000
1000
0000
0001
0000
,
1000
0010
0100
0001
1000
0000
0000
0000
0001
0000
0010
0000
0100
0000
1000
0000
,
0010
0100
0010
1000
0001
0010
0100
1000
,
0001
0100
0010
1000
0001
0010
0100
1000
,
0001
0100
0010
1000
0001
0010
0100
1000
,
0001
0010
0100
1000
0001
0010
0100
1000
,
0001
0000
1000
0000
0001
0000
1000
0000
0001
1000
0001
1000
0010
0100
0010
0100
,
0001
0010
0001
0000
1000
0010
1000
0000
0100
0010
0100
0000
1000
0001
1000
0000
,
0001
0010
0100
0000
0010
0100
1000
0000
0001
0100
0010
0000
0100
0010
1000
0000
,
0100
1000
0100
0000
0010
0000
0001
0000
1000
0010
1000
0000
0010
0000
0100
0000
,
0001
0010
0100
0000
0010
0100
1000
0000
0001
0010
0100
0000
0010
0100
1000
0000
,
0010
1000
0010
1000
0010
0000
0000
0000
0100
0001
0100
0000
0010
0000
1000
0000
,
0001
0010
0001
0000
0100
0000
0010
0000
1000
0100
1000
0000
0010
0000
0100
0000
,
0001
0000
0010
0100
0010
0000
0001
0000
1000
0000
0010
0000
0100
0001
0100
0010
,
1000
0001
1000
0000
0001
0000
0010
0000
0100
1000
0100
0000
0010
0001
0010
0100
,
1000
0010
0100
0001
0010
0000
0100
0000
1000
0100
0010
0000
0100
0000
1000
0000
,
0001
0100
0010
0000
0100
0000
0001
0000
1000
0100
1000
0000
0001
0100
0001
0000
,
1000
0100
1000
0000
0001
0010
0100
1000
0001
0100
0010
0000
0100
0000
0001
0000
,
1000
0000
0100
0000
0010
0001
0010
0100
1000
0001
0000
1000
0001
0100
0010
1000
,
0001
0001
0010
0100
1100
1100
1100
0000
,
0011
0000
0011
0000
0011
0000
0000
0000
1000
0000
0010
0000
0100
0001
0100
0001
,
1000
0100
0010
0001
0100
0010
1000
0100
1000
0001
1000
0001
1000
0001
1000
0001
,
1000
0000
2002
0000
,
0000
0000
0000
0000
,
0000
0000
0000
0000
,
0000
3003
0000
0000
;

//--------------- dance-single - ----------------
#NOTES:
     dance-single:
     :
     Challenge:
     18:
     0,0,0,0,0:
0000
0000
0000
0000
,
0000
0000
0000
0000
,
0000
0000
0000
0000
,
0000
0000
0000
0000
,
0000
0000
0000
0000
,
1000
0000
0001
0010
0001
0000
1000
0000
0010
0000
0100
0000
0010
0000
1000
0000
,
0001
0000
1000
0100
1000
0000
0001
0000
0100
0000
0010
0000
0100
0000
0001
0000
,
1000
0000
0001
0010
0001
0000
1000
0000
0010
0000
0100
0000
0001
0000
1000
0000
,
0001
0010
0100
1000
0001
0010
0100
1000
0001
1000
0001
0000
1000
0100
0010
0001
,
1000
0010
1000
0000
0001
0010
0100
0010
0001
0010
0100
1000
0001
0100
0010
0100
,
0001
1000
0100
0000
0010
0100
1000
0100
0010
0001
1000
0010
0100
0010
0100
0010
,
1000
0001
1000
0001
0010
0100
0010
0001
1000
0010
0100
0001
1000
0000
0100
1000
,
0100
1000
0001
0100
0010
0100
0001
1000
0100
0010
0100
1000
0001
0100
0000
0001
,
1000
0100
0010
0100
0010
0000
0001
0000
0100
0010
1000
0000
0001
0010
0100
0010
,
0001
1000
0010
0000
1000
0010
0100
0010
1000
0001
0010
0001
1000
0100
1000
0100
,
1000
0100
0010
0001
0010
0000
0001
1000
0010
0100
0001
1000
0100
0010
0100
1000
,
0001
0100
0001
1000
0001
1000
0100
0010
0001
0100
0010
0000
1000
0001
0010
0100
,
1000
0000
1000
0100
1000
0000
1100
0000
1000
0100
0010
0000
0001
0100
0010
1000
,
0001
0010
0001
0000
1000
0010
0100
0001
0100
0010
0100
0000
0001
0010
0100
1000
,
0001
0100
0001
0000
0001
0010
0001
0010
0001
0000
0011
0000
1001
0000
1000
0001
,
1000
0100
0010
0001
1000
0000
0100
1000
0001
0100
0010
1000
0001
1000
0001
1000
,
0001
0000
1000
0100
0010
0000
0001
0000
0001
1000
0001
0000
1001
0000
0001
1000
,
0001
0000
1000
0100
0010
0000
0001
0000
0001
1000
0001
0000
1001
0000
0001
1000
,
0001
0000
1000
0100
0010
0000
0001
0000
0001
1000
0001
0000
1001
0000
0001
1000
,
0001
0010
0100
1000
0001
0100
0010
1000
0100
1000
0100
0000
1000
0000
0001
0000
,
1000
0000
0001
0100
0010
0000
1000
0000
1000
0001
1000
0000
1001
0000
1000
0001
,
1000
0000
0001
0100
0010
0000
1000
0000
1000
0001
1000
0000
1001
0000
1000
0001
,
1000
0000
0001
0100
0010
0000
1000
0000
1000
0001
1000
0000
1001
0000
1000
0001
,
1000
0010
0100
0001
1000
0100
0010
0001
0100
0001
0100
0010
1000
0000
0000
0000
,
0001
0010
0100
0000
1000
0100
0010
0100
1000
0100
0010
0001
0010
0100
0010
0001
,
1000
0010
0100
0010
1000
0000
0010
0100
0001
0100
0010
0100
0001
0100
0010
1000
,
0001
0010
0100
0000
1000
0010
0100
0010
1000
0010
0100
0001
0100
0010
0100
0001
,
1000
0100
0010
0100
1000
0100
0010
0001
0100
0010
0100
0001
0010
0100
1000
0100
,
1000
0001
0010
0001
0100
0001
0010
0001
1000
0010
0100
0001
1000
0001
1000
0001
,
1000
0100
0010
0100
1000
0001
0100
0001
0100
0010
1000
0001
0010
0001
0010
0100
,
1000
0001
0100
0010
1000
0010
0000
1000
0100
0010
0001
0010
0100
1000
0001
1000
,
0010
0100
0001
1000
0100
0010
0000
0001
1000
0001
0010
0100
0010
0001
0010
0001
,
0010
0100
1000
0000
1100
0000
0100
0010
0001
0010
0100
1000
0001
0100
0010
1000
,
0001
0010
0100
0010
0001
0010
0100
1000
0001
0100
0010
1000
0010
0100
0010
1000
,
0001
0010
0100
1000
0001
1000
0100
1000
0001
1000
0010
0000
0100
0010
0100
0001
,
1000
0100
0010
0100
1000
0100
0010
0001
1000
0000
0000
0000
0010
0100
0010
0100
,
0001
0000
1000
0000
0100
0000
0010
0000
0000
0000
0001
1000
0010
0000
0100
0000
,
0000
0000
0010
1000
0100
0000
1000
0000
0000
0000
0001
1000
0100
0000
0010
0000
,
0000
0001
0010
0100
1000
0001
0010
0100
1000
0001
1000
0001
1000
0010
0100
0010
,
1000
0010
1000
0010
0100
0001
0100
0001
1000
0100
1000
0100
0010
0001
0010
0001
,
0010
0001
0010
0100
1000
0100
0010
0100
1000
0001
0100
0001
1000
0001
0100
0010
,
1000
0100
0010
0100
1000
0100
1000
0000
0010
0100
0001
1000
0100
0010
0000
0001
,
1000
0001
0010
0001
1000
0010
0100
0010
1000
0100
0010
0100
0010
0001
0000
1000
,
0001
0010
0100
1000
0001
0100
0010
1000
0001
0010
0100
1000
0001
0100
0010
1000
,
0001
0010
0100
1000
0001
0100
0010
1000
0001
0010
0100
1000
0001
0100
0010
1000
,
0001
0010
0100
1000
0001
0010
0100
1000
0001
0010
0100
1000
0001
0010
0100
1000
,
0001
0010
0001
0010
0001
0010
0001
0010
0001
1000
0001
1000
0010
0100
0010
0100
,
0001
0010
0100
0010
0001
0010
0100
1000
0100
0010
0100
1000
0001
0100
0010
1000
,
0001
0010
0100
0000
0010
0100
1000
0000
0001
0100
0010
0000
0100
0010
1000
0000
,
0001
0010
0001
0000
0100
0010
0100
0000
0001
1000
0001
0000
0010
0100
0010
0000
,
0001
0100
0010
1000
0001
0100
0010
1000
0001
0100
0010
1000
0001
0100
0010
1000
,
0100
1000
0100
1000
1100
0000
0000
0000
0010
0001
0010
0000
0100
0010
0001
1000
,
0010
0100
0010
0000
1000
0100
0010
0100
1000
0010
1000
0000
1010
0000
1000
0000
,
0001
0010
0100
0010
0001
0000
1000
0010
0100
0010
1000
0100
0010
0001
0010
0100
,
1000
0001
0100
0001
1000
0100
0010
0100
1000
0001
1000
0000
0001
0100
0010
1000
,
0001
1000
0100
0010
0001
0000
0100
0000
0010
0100
0010
0000
0100
0001
0100
0001
,
1000
0100
1000
0000
0100
0010
0100
1000
0001
0100
0010
0000
0100
0001
0010
0100
,
1000
0001
0100
0010
0100
0001
1000
0100
0010
0001
0010
0100
0010
0001
0010
0001
,
1000
0000
1000
0000
0001
0100
0010
1000
0001
0010
0100
0010
0001
0010
0100
1000
,
0010
1000
0010
0000
1000
0001
1000
0000
1001
0000
0101
0000
1010
0000
0000
0000
,
1100
0000
0011
0000
1000
0100
0010
0001
1000
0010
0100
0001
0010
0001
0010
0001
,
0100
0010
1000
0001
0010
0100
1000
0001
0100
0010
1000
0100
0010
0001
0100
0010
,
0110
0000
2002
0000
,
0000
0000
0000
0000
,
0000
0000
0000
0000
,
0000
3003
0000
0000
;
