#TITLE:ULTRA SYNERGY MATRIX;
#SUBTITLE:;
#ARTIST:Tanchiky;
#TITLETRANSLIT:;
#SUBTITLETRANSLIT:;
#ARTISTTRANSLIT:;
#GENRE:;
#CREDIT:;
#MUSIC:ULTRA SYNERGY MATRIX.ogg;
#BANNER:;
#BACKGROUND:;
#CDTITLE:;
#SAMPLESTART:73.545;
#SAMPLELENGTH:15.000;
#SELECTABLE:YES;
#OFFSET:-0.045;
#BPMS:0.000=160.000;
#STOPS:;
#BGCHANGES:-1.000=ULTRA SYNERGY MATRIX.mp4=1.000=0=0=0=StretchNoLoop====,
99999.000=-nosongbg-=1.000=0=0=0=StretchNoLoop====
;
#FGCHANGES:;

//--------------- dance-single - eataninja ----------------
#NOTES:
     dance-single:
     eataninja:
     Beginner:
     4:
     0,0,0,0,0:
0000
0000
0000
0000
,
0000
0000
0000
0000
,
0000
0000
0000
0000
,
0000
0000
0000
0000
,
0000
0000
0000
0000
,
1000
0000
0000
0000
,
0010
0000
0000
0000
,
0001
0000
0100
0000
,
1000
1000
1000
0000
,
0001
0000
0000
0000
,
0010
0000
0100
0000
,
0110
0000
0000
0000
,
0000
1000
1000
0000
,
0001
0000
0000
0000
,
0100
0000
0010
0000
,
0110
0000
0000
0000
,
0100
0100
0100
0000
,
0001
0000
1000
0000
,
0001
0000
0010
0000
,
0001
0000
1000
0000
,
0010
0000
0000
0000
,
1000
0000
0001
0000
,
1000
0000
0010
0000
,
0100
0000
0100
0000
,
0100
0100
0100
0000
,
0001
0000
0000
0000
,
0010
0000
0001
0000
,
1000
0000
0000
0000
,
0010
0010
0010
0000
,
0100
0000
0000
0000
,
0001
0000
1000
0000
,
1001
0000
0000
0000
,
0020
0000
0000
0030
,
0000
0001
0001
0000
,
0000
1000
1000
0000
,
0000
0001
0001
0000
,
1000
0000
0010
0000
,
0000
0100
0100
0000
,
0000
0010
0010
0000
,
0000
0100
0100
0000
,
1001
0000
0000
0000
,
0001
0000
0000
0000
,
0010
0000
0100
0000
,
1000
0000
0000
0000
,
0010
0000
0100
0000
,
0001
0000
0001
0000
,
0010
0000
0010
0000
,
1000
0000
0100
0000
,
0001
0001
0001
0000
,
1000
0000
0010
0000
,
1000
0000
1000
0000
,
0001
0000
0010
0000
,
0100
0000
0100
0000
,
1000
0000
0001
0000
,
1000
0000
1000
0000
,
0010
0000
0100
0000
,
1001
0000
0000
0000
,
0001
0000
0010
0000
,
0001
0000
0001
0000
,
1000
0000
0010
0000
,
0100
0000
0100
0000
,
0001
0000
1000
0000
,
0100
0000
0010
0000
,
0001
0001
0001
0000
,
1001
0000
0000
0000
,
1000
0000
0000
0000
,
0010
0000
0100
0000
,
0110
0000
0000
0000
,
0000
0010
0010
0000
,
1000
0000
0000
0000
,
0100
0000
0010
0000
,
0110
0000
0000
0000
,
0001
0001
0001
0000
,
1001
0000
1001
0000
,
0100
0100
0100
0000
,
0001
0000
0100
0000
,
1000
0000
0100
0000
,
0001
0000
0100
0000
,
0010
0000
0000
0000
,
1000
0000
0100
0000
,
0001
0000
0100
0000
,
0001
0000
0100
0000
,
1000
0000
0000
0000
;

//--------------- dance-single - eataninja ----------------
#NOTES:
     dance-single:
     eataninja:
     Easy:
     7:
     0,0,0,0,0:
0000
0000
0000
0000
,
0000
0000
0000
0000
,
0000
0000
0000
0000
,
0000
0000
0000
0000
,
0000
0000
0000
0000
,
1000
0010
0001
0000
,
0010
0001
0100
0000
,
0001
0100
1000
0000
,
0010
0100
0001
0000
,
1000
1000
0001
0001
,
0010
0010
0110
1001
,
1000
0000
0010
0010
,
0100
0000
0001
0000
,
1000
0100
0001
0100
,
0010
0001
1000
0000
,
0010
0100
1000
0001
,
0010
0100
0001
0000
,
1001
0000
1000
1000
,
1001
0000
0001
0010
,
1001
0000
0001
0001
,
1000
0010
0100
0001
,
1001
0000
0001
0001
,
1001
0000
1000
0100
,
1001
0000
0110
0000
,
1001
0110
1001
0000
,
0001
0100
0001
0100
,
1000
0100
1000
0100
,
0001
0100
0001
0100
,
0010
0010
0100
0001
,
1000
0100
1000
0100
,
0001
0100
0001
0100
,
0010
0001
1000
0010
,
0100
0100
0100
0000
,
0000
0001
0100
0000
,
0000
0100
1000
0000
,
0000
1000
0010
0000
,
0002
0000
2003
0000
,
3100
0100
0001
0000
,
0001
0001
0010
0000
,
0010
0010
1000
0000
,
1000
0001
0100
0000
,
0010
1000
0001
0001
,
0010
0100
1000
0000
,
0010
1000
0001
0010
,
1000
0010
0001
0000
,
1000
0001
1001
0000
,
0010
0100
0110
0000
,
0001
1000
1001
0000
,
0110
1001
0110
0000
,
1001
0001
0010
0010
,
0100
1000
0001
0000
,
1001
1000
0010
0010
,
0001
0010
1000
0000
,
1001
1000
0100
0100
,
0010
0001
1000
0000
,
0001
0000
0100
0000
,
0110
1001
0110
0000
,
1001
1000
0100
0010
,
0001
1000
0010
0010
,
1001
0001
0100
1000
,
0001
0010
0100
0001
,
1001
1000
0001
0001
,
0010
0100
1000
1000
,
0010
0001
0100
1000
,
1001
0000
0100
0010
,
1000
1000
0001
0001
,
0010
0100
0110
1001
,
0001
0000
0100
0100
,
0010
0000
1000
0000
,
0001
0010
1000
0010
,
0100
1000
0001
0000
,
1000
0010
0001
1000
,
0100
0010
1000
0000
,
1001
0000
1001
0000
,
1001
0110
1001
0000
,
0001
0010
0100
0010
,
0001
0010
1000
0010
,
0001
0010
0100
0010
,
0001
0000
0100
0010
,
1000
0010
0100
0010
,
1000
0010
0001
0010
,
1000
0010
0001
0010
,
1001
0000
0000
0000
;

//--------------- dance-single - eataninja ----------------
#NOTES:
     dance-single:
     eataninja:
     Medium:
     11:
     0,0,0,0,0:
0000
0000
0000
0000
,
0000
0000
0000
0000
,
0000
0000
0000
0000
,
0000
0000
0000
0000
,
0000
0000
0000
0000
,
1000
0000
0100
0010
0002
0000
0003
0000
,
1000
0000
0010
0100
0002
0000
0003
0000
,
1000
0000
0100
0010
0001
0000
0100
0010
,
1000
0001
1001
0000
,
1000
0000
0100
0000
1000
0100
0001
0000
,
0100
1000
1100
0011
,
1001
0000
0001
0000
0100
0100
0100
0000
,
0000
0000
0000
0000
0110
0000
0000
0000
0100
0001
0000
0000
1000
0000
1000
0000
,
0100
0000
0010
0001
1000
0010
0100
0000
,
0001
0100
1000
0100
0001
0000
0000
0000
,
0001
0000
1000
0100
0001
0100
1000
0000
,
1000
0001
0100
0010
1000
0000
0000
0000
,
1001
0000
0000
0000
0101
0000
0000
0100
0000
0001
0000
0000
1000
0000
0000
0000
,
1001
0000
0000
0000
1100
0000
0000
0100
0000
0010
0000
0000
0001
0000
0000
0000
,
1001
0000
0000
0000
0101
0000
0000
0100
0000
0001
0000
0000
1000
0000
0000
0000
,
1100
0000
0100
0010
0001
1000
0010
0000
,
1001
0000
0000
0000
1010
0000
0000
0010
0000
1000
0000
0000
0001
0000
0000
0000
,
1001
0000
0000
0000
0011
0000
0000
0010
0000
0100
0000
0000
1000
0000
0000
0000
,
1100
0000
0101
0000
,
0011
1010
1001
0000
,
0001
0000
0000
0100
0000
0000
0010
0000
0000
1000
0000
0000
0001
0000
0000
0000
,
1000
0000
0000
0100
0000
0000
0010
0000
0000
0001
0000
0000
1000
0000
0000
0000
,
0001
0000
0000
0100
0000
0000
0010
0000
0000
0100
0000
0000
0001
0000
0000
0000
,
1001
0000
1001
0000
0100
0100
0100
0000
,
1000
0000
0000
0001
0000
0000
0010
0000
0000
0100
0000
0000
1000
0000
0000
0000
,
0001
0000
0000
1000
0000
0000
0010
0000
0000
0100
0000
0000
0001
0000
0000
0000
,
2000
0000
0000
3200
0000
0000
0302
0000
0000
0203
0000
0000
0310
0000
0001
0000
,
1000
0000
0001
0001
0100
0000
1001
0000
,
0000
1000
0010
1000
0020
0000
0030
0000
,
0000
0100
0001
0100
0002
0000
0003
0000
,
0000
1000
0100
1000
0200
0000
0300
0000
,
0010
0001
1000
0010
0100
0001
1000
0000
,
0001
1000
0100
1000
0200
0000
0300
0000
,
1000
0001
0100
0001
0200
0000
0300
0000
,
0010
0010
0100
0100
0001
1000
0100
0000
,
0010
0001
0100
0010
1000
0000
0000
0000
,
0001
0100
1000
0100
,
0010
0100
0001
1000
0100
0000
0000
0000
,
1000
0100
0001
1000
,
0010
0100
1000
0001
0100
0000
0000
0000
,
0010
0100
0001
0000
1001
0000
0000
0000
,
0010
0100
1000
0000
1001
0000
0000
0000
,
1010
0010
0101
0100
,
1001
0110
1001
0000
,
1000
0010
1000
0001
0010
0010
0100
0000
,
0010
0000
0001
0000
1000
0010
0000
0100
0000
0000
0000
0000
0110
0000
0000
0000
,
0100
0001
1000
0100
0010
0010
0001
0000
,
0100
0000
1000
0000
0100
0010
0000
0100
0000
0000
0000
0000
1001
0000
0000
0000
,
0001
0010
0001
1000
0010
0010
0100
0000
,
0001
0000
1000
0000
0100
0010
0000
0001
0000
0000
0000
0000
1001
0000
0000
0000
,
1010
0001
0011
1000
,
1100
0101
1001
0000
,
0001
0100
1000
0100
0010
0010
1000
0000
,
0001
0000
0010
0000
0100
1000
0000
0100
0000
0000
0000
0000
0110
0000
0000
0000
,
1000
0001
1000
1000
0010
0100
0001
0000
,
1000
0000
0010
0000
0001
0010
0000
1000
0000
0000
0000
0000
1001
0000
0000
0000
,
0001
0010
0100
1000
0010
0010
0100
0000
,
0010
0000
1000
0000
0001
0010
0000
0100
0000
0000
0000
0000
0110
0000
0000
0000
,
1001
0011
1001
1010
,
0110
0000
0000
0000
0100
0001
0010
0100
,
1000
0000
0010
0000
0001
0010
1000
0000
,
0001
0010
1000
0000
1010
0000
0110
0000
,
1001
0000
0001
0000
0100
0010
0100
0100
,
0001
0000
0000
0000
1000
0000
0000
0000
0001
0010
0000
0000
0001
0000
0001
0000
,
1000
0000
0010
0100
0001
1000
0100
0000
,
1000
0100
0001
0100
1000
0000
0000
0000
,
0010
0000
1000
0010
0001
0010
1000
0000
,
0001
0010
0100
1000
0001
0000
0000
0000
,
0101
0000
1100
0000
,
1010
0011
1001
0000
,
0101
0000
0000
0000
1100
0000
0000
1000
0000
1000
0000
0000
0001
0000
0010
0000
,
0011
0000
0000
0000
1010
0000
0000
0001
0000
0001
0000
0000
0100
0000
0010
0000
,
0110
0000
0000
0000
1001
0000
0000
1000
0000
1000
0000
0000
0100
0000
0010
0000
,
0100
0000
0010
0001
1000
0010
0100
0000
,
0101
0000
0000
0000
1010
0000
0000
0001
0000
0001
0000
0000
0010
0000
0100
0000
,
1100
0000
0000
0000
0011
0000
0000
1000
0000
0010
0000
0000
1000
0000
0001
0000
,
0011
0000
0000
0000
1100
0000
0000
0001
0000
0100
0000
0000
0001
0000
1000
0000
,
1001
0000
0000
0000
;

//--------------- dance-single - eataninja ----------------
#NOTES:
     dance-single:
     eataninja:
     Hard:
     14:
     0,0,0,0,0:
0000
0000
0000
0000
,
0000
0000
0000
0000
,
0000
0000
0000
0000
,
0000
0000
0000
0000
,
0000
0000
0000
0000
,
1000
0000
0001
0100
0001
0000
0010
0000
0200
0000
0000
0000
1300
0000
0000
0000
,
0001
0000
1000
0010
1000
0000
0100
0000
0020
0000
0000
0000
0031
0000
0000
0000
,
0011
0001
1000
0000
1010
1000
0001
0000
,
1001
0000
0000
0001
0100
0010
1000
0000
0000
1200
0000
0000
,
0310
0001
1000
0001
0100
0010
1000
1000
,
0100
0001
0100
1000
0010
0000
0210
0000
,
0301
1000
0010
1000
0100
0010
0001
0001
,
0100
0000
0000
0000
1001
0000
0000
0000
1000
0010
0000
1000
0010
0000
0010
0000
,
0100
0000
0001
1000
0100
0001
0100
0010
,
0001
0000
0000
1000
0000
0000
0010
0000
0000
0100
0000
0000
0010
0000
0000
0000
1000
0000
0000
0000
0001
0000
0000
0000
,
2001
0000
3100
0010
0001
1000
0010
0100
,
0001
0000
1000
0100
1000
0000
0001
0000
0100
0000
0000
0000
0000
0000
0000
0000
,
0010
0000
0000
0000
2001
0000
0000
0100
0000
3100
0000
0000
0010
0000
0001
0000
,
0100
0000
0000
0000
1002
0000
0000
0100
0000
0103
0000
0000
1000
0000
0100
0000
,
0010
0000
0000
0000
2001
0000
0000
0100
0000
3100
0000
0000
0010
0000
0001
0000
,
1000
0000
0010
0001
1000
0100
0010
0000
,
0100
0000
0000
0000
1002
0000
0000
0010
0000
0013
0000
0100
1000
0000
0001
0000
,
0100
0000
0000
0000
2001
0000
0000
0010
0000
3010
0000
1000
0100
0000
0001
0000
,
0100
0000
0000
0000
0010
0001
0010
0001
0010
0000
0000
0000
0001
1000
0001
1000
,
0001
0101
1100
0000
,
2001
0000
0000
3100
0000
0000
0010
0000
0000
0001
0000
0000
1000
0000
1000
0000
,
0010
0000
0000
0001
0000
0000
0010
0000
0000
0100
0000
0000
0001
0000
0001
0000
,
1002
0000
0000
0013
0000
0000
0100
0000
0000
1000
0000
0000
0001
0000
0001
0000
,
1000
0000
0010
0000
1000
0010
0000
0100
0001
0000
1000
0100
1000
0000
0000
0000
,
1002
0000
0000
0013
0000
0000
0100
0000
0000
1000
0000
0000
0001
0000
0001
0000
,
0100
0000
0000
1000
0000
0000
0100
0000
0000
0010
0000
0000
1000
0000
1000
0000
,
1001
0000
0000
0011
0000
0000
0110
0000
0000
1100
0000
0000
1000
0000
0001
0000
,
0200
0000
0000
0000
0310
1000
0010
1000
0001
0000
0000
0000
0000
0000
0000
0000
,
0002
0100
1003
0000
,
2000
0100
3001
0000
,
0002
0100
1003
0000
,
1000
0100
1000
0010
0100
0001
0010
0100
,
1000
0000
0000
0000
1001
0000
0000
0000
0001
0100
0000
0000
0110
0000
0000
0000
,
0001
0000
0000
0000
1001
0000
0000
0000
1000
0100
0000
0000
0110
0000
0000
0000
,
0010
0010
0001
0001
1000
1000
0010
0100
,
0001
0000
1000
0100
1000
0000
0010
0000
0200
0000
0000
0000
0301
0000
0000
0000
,
1000
0100
1000
0000
0100
0001
0100
0000
,
0010
0000
0001
0000
1000
0010
0000
0100
0000
0000
0000
0000
0110
0000
0000
0000
,
0001
0100
0001
0000
1000
0010
1000
0000
,
0100
0000
0001
0000
0100
0010
0000
0000
0001
0000
0000
0000
1000
0000
0010
0000
,
0110
0100
0001
0000
1001
1000
0100
0000
,
0110
0100
1000
0000
1001
0001
0100
0000
,
1000
0100
1000
0100
0001
0010
0100
1000
,
1100
1010
0011
1001
,
1000
0000
0010
0000
0100
0010
0000
0100
0000
0100
0000
0001
1000
0000
0100
0000
,
0001
0000
0100
0000
0010
0001
0000
1000
0000
0000
0010
0000
0100
0000
0001
0000
,
1000
0000
0100
0000
0001
0100
0000
0010
0000
0010
0000
0001
1000
0000
0010
0000
,
0100
0000
1000
0000
0100
0010
0000
1000
0000
0000
1000
0000
0010
0000
0100
0000
,
0001
0000
1000
0000
0100
0010
0000
0100
0000
0100
0000
1000
0001
0000
0100
0000
,
1000
0000
0100
0000
0010
1000
0000
0001
0000
0000
0010
0000
0100
0000
1000
0000
,
1001
0001
0100
0000
1001
1000
0010
0000
,
0110
0000
1001
0000
0011
0000
0010
0100
,
0001
0000
0100
0000
1000
0100
0000
1000
0000
1000
0000
0001
0100
0000
0010
0000
,
0100
0000
0001
0000
1000
0010
0000
0100
0000
0000
0001
0010
0001
0000
0100
0000
,
1000
0000
0100
0000
0010
1000
0000
0001
0000
0001
0000
0010
0100
0000
1000
0000
,
0001
0000
0010
0000
1000
0010
0000
0100
0000
0000
1000
0000
0001
0000
0100
0000
,
0010
0000
1000
0000
0001
0010
0000
0100
0000
0100
0000
1000
0001
0000
0100
0000
,
0010
0000
1000
0000
0001
0010
0000
0100
0000
0000
0010
0000
0001
0000
1000
0000
,
1010
1001
0011
0110
,
1001
0000
2000
0000
3010
0001
1000
0100
,
0010
0000
1000
0000
0001
0000
1000
0000
0100
0000
0010
0001
0010
0000
0100
0000
,
1000
0001
0100
0100
1001
0000
0210
0000
,
0301
0000
1000
0000
0100
0000
0001
0000
0100
0000
0010
0001
0010
0000
0001
0000
,
1000
0000
0000
0000
1020
0000
0000
0000
0130
0001
0000
0100
0001
0000
0001
0000
,
1000
0000
0010
0100
1000
0100
0010
1000
,
0001
0000
0000
0010
0000
0000
0100
0000
0000
1000
0000
0000
0010
0000
0000
0000
1000
0000
0000
0000
0001
0000
0000
0000
,
2001
0000
3100
0001
1000
0010
0100
1000
,
0010
0000
1000
0001
1000
0000
0100
0000
0020
0000
0000
0000
0031
0000
0000
0000
,
1001
0000
0000
0000
1000
0010
1000
0010
1000
0000
0000
0000
0001
1000
0001
1000
,
0001
0011
1010
0000
,
0001
0000
0010
0000
0021
0000
0000
0100
0000
0130
0000
1000
0001
0000
0100
0000
,
0010
0000
1000
0000
1002
0000
0000
0100
0000
0103
0000
1000
0100
0000
0001
0000
,
1000
0000
0100
0000
1200
0000
0000
0010
0000
0310
0000
0001
1000
0000
0010
0000
,
0100
0000
0010
1000
0100
0010
0001
1000
,
0010
0000
0100
0000
0102
0000
0000
1000
0000
1003
0000
0100
0010
0000
0001
0000
,
1000
0000
0010
0000
2010
0000
0000
0100
0000
3100
0000
0001
0100
0000
1000
0000
,
0001
0000
0100
0000
0102
0000
0000
0010
0000
0013
0000
1000
0010
0000
0001
0000
,
1001
0000
0000
0000
;

//--------------- dance-single - eataninja ----------------
#NOTES:
     dance-single:
     eataninja:
     Challenge:
     16:
     0,0,0,0,0:
0000
0000
0000
0000
,
0000
0000
0000
0000
,
0000
0000
0000
0000
,
0000
0000
0000
0000
,
0000
0000
0000
0000
,
1000
0000
0001
0100
0001
0000
0010
0000
0100
0000
0001
0000
0100
0000
1000
0000
,
0001
0000
1000
0010
1000
0000
0100
0000
0010
0000
1000
0000
0010
0000
0100
0000
,
1000
0001
0100
0010
1000
0100
0010
0001
,
1001
0000
0000
1000
0010
1000
0001
0000
0000
0011
0000
0000
,
1100
0000
1000
0000
0010
0100
0010
0000
1000
0001
0000
0001
0010
0000
0100
0000
,
1000
0000
0001
0100
0010
0000
0100
0001
1000
0000
0000
0000
2001
0000
0000
0000
,
3001
0000
0010
0000
0001
1000
0001
0100
0000
0100
0000
0010
1000
0000
0001
0000
,
0010
0000
0000
0000
1001
0000
0000
0000
1000
0010
0000
0010
0100
0000
0100
0000
,
1001
0000
0001
0010
1000
0010
0100
1000
,
0001
0000
0000
1000
0000
0000
0010
0000
0000
0100
0000
0000
0001
0000
0000
0000
0011
0000
0000
0000
1100
0000
0000
0000
,
2001
0000
3100
0001
1000
0010
0100
1000
,
0001
0000
0000
0000
0000
0000
1000
0000
0010
0000
1000
0000
0010
0000
0000
0000
0000
0000
0100
0000
0000
0000
0000
0000
0001
0000
0000
1000
0000
0000
0000
0000
0000
0001
0000
0000
1000
0000
0000
0000
0000
0000
0100
0000
0000
0000
0000
0000
,
0110
0000
0010
0000
1001
0000
0000
0001
0000
0010
0000
0010
0100
0000
1000
0000
,
1001
0000
0010
0000
1010
0000
0000
0001
0000
0001
0000
0010
1000
0000
0010
0000
,
0110
0000
0100
0000
1001
0000
0000
1000
0000
0010
0000
0010
0100
0000
0001
0000
,
1001
0000
0001
0010
1000
0100
0001
0000
,
1001
0000
0100
0000
0110
0000
0000
0010
0000
1000
0000
1000
0001
0000
0010
0000
,
0011
0000
1000
0000
1001
0000
0000
0001
0000
0001
0000
0100
1000
0000
0100
0000
,
0110
0000
0000
0000
0010
1000
0010
1000
0001
0000
0000
0000
0010
0001
0010
0001
,
1000
0110
1001
MMMM
,
1000
0000
0100
0001
0000
0100
0010
0000
0001
1000
0000
1000
0010
0100
0010
0000
,
0100
0000
1000
0100
0000
0010
0100
0000
0001
1000
0000
0100
0010
0100
1000
0000
,
0001
0000
0010
1000
0000
0010
0100
0000
1000
0001
0000
0001
0100
0010
0100
0000
,
0001
0000
1001
0000
1000
0100
1000
0000
0100
0010
0001
1000
0010
1000
0001
0000
,
1000
0000
0010
0001
0000
0010
0100
0000
0001
1000
0000
1000
0100
0010
0001
1000
,
0100
0000
0001
0100
0000
0010
0001
0000
1000
0010
0000
0010
0100
0010
1000
0001
,
0100
0000
0000
0110
0000
0000
1001
0000
0000
0011
0000
0000
0010
0100
0010
0100
,
1000
1000
0010
MMMM
,
0001
0000
0100
0010
1000
0000
0001
0000
0020
0000
0000
0000
0130
0000
0000
0000
,
1000
0000
0100
0010
0001
0000
1000
0000
0020
0000
0000
0000
0130
0000
0000
0000
,
0001
0000
0100
0010
1000
0000
0001
0000
0020
0000
0000
0000
0130
0000
0000
0000
,
1000
0001
1000
0010
0001
1000
0100
0010
,
1000
0000
0000
0000
1001
0000
0000
0001
0000
0010
0001
0000
0100
0000
0100
0000
,
0001
0000
0000
0000
1001
0000
1000
0010
0000
1000
0100
0000
0010
0100
1000
0000
,
0001
0000
0001
0000
0100
0000
0100
0000
0010
1000
0010
1000
0001
1000
0001
1000
,
0100
0000
0000
0000
0000
0000
0010
0000
0001
0000
0010
0000
0001
0000
0000
0000
0000
0000
1000
0000
0000
0000
0000
0000
0010
0000
0000
0000
0000
0000
0000
0000
0000
0000
0000
0000
1000
0000
0000
0001
0000
0000
1000
0000
0000
0001
0000
0000
,
0100
0100
0010
0010
,
1000
0000
0000
0000
0001
0000
0000
0000
0010
0000
0000
0000
0100
0010
0001
1000
,
0010
0010
0100
0100
,
0001
0000
0000
0000
0010
0000
0000
0000
0100
0000
0000
0000
1000
0001
0100
0010
,
1000
0010
0001
0000
0001
0010
0100
0000
,
0001
0010
1000
0000
1000
0010
0100
0000
,
1000
0100
1000
0100
0010
0001
0010
0001
1000
0010
1000
0010
0100
0001
0100
0001
,
1000
1001
0110
MMMM
,
1000
0000
0100
0000
0001
0100
0000
0010
0000
0010
0000
0001
1000
0000
0010
0000
,
0100
0000
0010
0100
0010
1000
0000
0001
0000
0000
0010
0100
1000
0001
0100
0010
,
0100
0000
0001
0000
1000
0010
0000
0001
0000
0001
0000
0010
0100
0000
0001
0000
,
0010
0000
1000
0000
0010
0100
0000
1000
0000
0000
0001
0000
0100
0010
1000
0000
,
0001
0000
0100
0000
1000
0100
0000
0010
0000
0010
0000
1000
0001
0000
0010
0000
,
0100
0000
0010
0100
0010
0001
0000
1000
0000
0000
0010
0100
0001
1000
0100
0010
,
0001
0000
1000
0000
0010
0100
0000
0110
0000
0000
0010
1000
0001
0100
0000
1000
,
0100
0110
1001
MMMM
,
1000
0000
0001
0000
0100
1000
0000
0001
0000
0010
0000
0100
0010
0000
1000
0000
,
0001
0000
0010
0000
1000
0010
0000
0100
0000
0000
0010
0001
1000
0001
0100
0010
,
1000
0000
0001
0000
0010
1000
0000
0001
0000
0100
0000
0010
0001
0000
1000
0000
,
0010
0000
0001
0000
1000
0100
0000
0110
0000
0000
0100
0000
0010
1000
0100
0010
,
0001
0000
1000
0000
0100
0001
0000
1000
0000
0010
0000
0100
0010
0000
0001
0000
,
1000
0000
0010
0000
0001
0010
0000
0100
0000
0000
0010
1000
0001
0010
0100
1000
,
0001
0100
0101
0000
0001
1000
1100
0000
,
0011
0000
MMMM
0000
1000
0010
0100
0001
,
1000
0000
0010
0000
0001
0000
0010
0000
0100
0001
0000
0001
1000
0100
1000
0100
,
0010
0000
0001
1000
0010
0000
0100
0010
0100
0000
0000
0000
2001
0000
0000
0000
,
3001
0000
0100
0000
1000
0000
0100
0010
0000
0010
1000
0001
0100
0001
1000
0010
,
0100
0000
0000
0000
1001
0000
0000
0000
0001
0010
0000
0010
0100
0000
0100
0000
,
1000
0000
0000
0000
0001
0000
0100
0000
1000
0100
1000
0000
0100
0000
0010
0000
,
1000
0000
0000
0000
0000
0000
0001
0000
0000
0010
0000
0000
0100
0000
0000
0000
0000
0000
1000
0000
0000
0000
0000
0000
0010
0000
0000
0000
0000
0000
0000
0000
0110
0000
0000
0000
0000
0000
0000
0000
1001
0000
0000
0000
0000
0000
0000
0000
,
2100
0000
0000
0000
3100
0000
0001
0000
1000
0000
0010
0100
0010
0000
0001
0000
,
1000
0000
0000
0000
0000
0000
0010
0000
1000
0000
0010
0000
1000
0000
0000
0000
0000
0000
0100
0000
0000
0000
0000
0000
0010
0000
0000
0001
0000
0000
0000
0000
0000
0001
0000
0000
1000
0000
0000
0000
0000
0000
0010
0000
0000
0000
0000
0000
,
0110
0000
0000
0000
0100
0001
0100
0001
1000
0000
0000
0000
0100
1000
0100
1000
,
0001
0110
1001
MMMM
,
1000
0000
0010
1000
0001
0000
0010
0100
0000
0100
0000
1000
0001
0000
0100
0000
,
0010
0000
0100
0001
1000
0000
0100
0010
0000
0001
0000
0100
1000
0000
0100
0000
,
0010
0000
0100
0001
1000
0000
0100
0010
0000
0010
0000
0001
1000
0000
0010
0000
,
0110
0000
0100
0001
0010
1000
0010
0100
,
1000
0000
0001
0010
0100
0000
1000
0001
0000
0001
0000
0100
0010
0100
0001
0000
,
0010
0000
0100
1000
0001
0000
1000
0010
0000
0100
0000
1000
0100
0010
0100
0000
,
0001
0000
1000
0010
0100
0000
0001
1000
0000
0100
0000
0001
0100
0010
0100
0000
,
1001
0000
0000
0000
;
