#VERSION:0.83;
#TITLE:ULTRA SYNERGY MATRIX;
#SUBTITLE:;
#ARTIST:Tanchiky;
#TITLETRANSLIT:;
#SUBTITLETRANSLIT:;
#ARTISTTRANSLIT:;
#GENRE:;
#ORIGIN:;
#CREDIT:;
#BANNER:ULTRA SYNERGY MATRIX [chrononical X Gameoson].png;
#BACKGROUND:ULTRA SYNERGY MATRIX [chrononical X Gameoson]-bg.png;
#PREVIEWVID:;
#JACKET:ULTRA SYNERGY MATRIX [chrononical X Gameoson]-jacket.png;
#CDIMAGE:;
#DISCIMAGE:;
#LYRICSPATH:;
#CDTITLE:;
#MUSIC:ULTRA SYNERGY MATRIX [chrononical X Gameoson].ogg;
#OFFSET:0.000000;
#SAMPLESTART:73.500000;
#SAMPLELENGTH:12.000000;
#SELECTABLE:YES;
#BPMS:0.000=160.000;
#STOPS:;
#DELAYS:;
#WARPS:;
#TIMESIGNATURES:0.000=4=4;
#TICKCOUNTS:0.000=4;
#COMBOS:0.000=1;
#SPEEDS:0.000=1.000=0.000=0;
#SCROLLS:0.000=1.000;
#FAKES:;
#LABELS:0.000=Song Start;
#BGCHANGES:0.000=ULTRA SYNERGY MATRIX [chrononical X Gameoson].mp4=1.000=1=0=1===CrossFade==,
329.000=ULTRA SYNERGY MATRIX [chrononical X Gameoson]-bg.png=1.000=1=0=1===CrossFade==,
99999=-nosongbg-=1.000=0=0=0 // don't automatically add -songbackground-
;
#KEYSOUNDS:;
#ATTACKS:
;

//---------------dance-single - ----------------
#NOTEDATA:;
#CHARTNAME:;
#STEPSTYPE:dance-single;
#DESCRIPTION:;
#CHARTSTYLE:;
#DIFFICULTY:Medium;
#METER:12;
#RADARVALUES:0.541414,0.629495,0.404040,0.436364,0.250505,469.000000,419.000000,50.000000,54.000000,0.000000,0.000000,0.000000,0.000000,0.000000,0.541414,0.629495,0.404040,0.436364,0.250505,469.000000,419.000000,50.000000,54.000000,0.000000,0.000000,0.000000,0.000000,0.000000;
#CREDIT:chrononical;
#NOTES:
0000
0000
0000
0000
,
0000
0000
0000
0000
,
0000
0000
0000
0000
,
0000
0000
0000
0000
,
0000
0000
0000
0000
,
1001
1000
0001
0001
,
0010
0010
0100
0100
,
1000
0001
0100
0010
1000
0001
0010
0100
,
1000
0000
0000
0001
0100
0010
0100
0000
0000
1001
0000
0000
,
0101
0000
0001
0000
0100
0000
0001
1000
,
0100
0001
0101
0110
,
1100
0000
0000
0000
1000
0000
0000
0010
0000
0010
0000
0000
0100
0000
0010
0000
,
0200
0000
0000
0000
1000
0000
0000
0000
0310
0100
0000
0010
0100
0000
0001
0000
,
0010
0000
0100
0010
1000
0010
0001
1000
,
0001
0000
0000
0100
0000
0000
0020
0000
0100
0000
1030
0000
,
1010
0000
0010
0100
1000
0100
0001
1000
,
0200
0000
0000
0000
1000
0000
0000
0000
0310
0100
0000
0010
0100
0000
1000
0000
,
0001
0000
0000
0000
1100
0000
0000
1000
0000
0001
0000
0010
0001
0000
1000
0000
,
0001
0000
0000
0000
1010
0000
0000
1000
0000
0001
0000
0100
0010
0000
1000
0000
,
0001
0000
0000
0000
1100
0000
0000
1000
0000
0001
0000
0010
0001
0000
1000
0000
,
1100
0000
0110
0000
0100
1000
0010
0000
,
1000
0000
0000
0000
0101
0000
0000
0001
0000
1000
0000
0010
1000
0000
0001
0000
,
1000
0000
0000
0000
0011
0000
0000
0001
0000
1000
0000
0100
0010
0000
0001
0000
,
0201
0000
0020
0330
0120
0000
2000
3030
,
2200
3300
0220
0330
2002
0000
3003
0000
,
0001
0000
0000
0001
0000
0000
0010
0000
0000
0010
0000
0000
0100
0000
0000
0000
,
1000
0000
0000
1000
0000
0000
0010
0000
0000
0010
0000
0000
0100
0000
0000
0000
,
0001
0000
0000
0001
0000
0000
0100
0000
0000
0100
0000
0000
0010
0000
0000
0000
,
1000
0000
0001
0000
2000
0010
0000
0000
3001
0000
1000
0000
0002
0010
0000
0000
,
1003
0000
0000
1000
0000
0000
0100
0000
0000
0100
0000
0000
0010
0000
0000
0000
,
0001
0000
0000
0001
0000
0000
0100
0000
0000
0100
0000
0000
0010
0000
0000
0000
,
1000
0000
0000
0001
0000
0000
0100
0000
0000
0010
0000
0000
0200
0000
0000
0000
,
0001
1000
0310
1001
,
2000
0000
3020
0000
,
0230
0000
0302
0000
,
2003
0000
3200
0000
,
0302
0000
0203
0000
,
1300
0001
0100
0010
,
1000
0001
0010
0100
,
1000
0001
1000
0000
0010
0100
0010
0000
,
0100
0001
2000
0000
3100
0000
1000
0001
,
1000
0001
0100
0000
0010
0000
0010
0000
,
1000
0001
0010
0000
0100
0000
0010
0000
,
0001
1000
0010
0000
0100
0000
0100
0000
,
1000
0100
0010
0000
1000
0000
0001
0000
,
2000
3001
0020
0130
,
2000
3001
0200
0310
,
0200
0310
1000
0001
0020
0130
1000
0000
,
2200
3300
0220
0330
2002
0000
3003
0000
,
0001
0100
0010
0000
0100
0010
1000
0000
,
0001
0000
1000
0000
0100
0010
0001
0000
,
1000
0100
0010
0000
0100
0010
0001
0000
,
1000
0010
0100
0010
1000
0000
0001
0000
,
1000
0010
0100
0000
0010
0100
0001
0000
,
1000
0000
0001
0000
0010
0100
1000
0000
,
1100
0100
0010
0000
0110
0010
0001
0000
,
0011
0000
1001
0000
0201
0000
0310
1000
,
0001
0010
0100
1000
0001
0000
1000
0000
,
0001
0100
0010
0100
1000
0000
0100
0000
,
0001
0100
0010
1000
0001
0000
1000
0000
,
0001
0010
0100
0010
1000
0000
0010
0000
,
0001
0010
0100
0000
0010
0100
1000
0000
,
0001
0000
1000
0000
0010
0100
0001
0000
,
0102
0013
2100
3010
,
0210
0000
1300
0000
0100
0010
1000
0000
,
1010
0000
1000
0000
0010
0000
1000
0001
,
0010
1000
1010
0110
,
0011
0000
0000
0000
0001
0000
0000
0100
0000
0100
0000
0000
0010
0000
0100
0000
,
0020
0000
0000
0000
0001
0000
0000
0000
0130
0010
0000
0100
0010
0000
1000
0000
,
0100
0000
0010
0100
0001
0100
1000
0001
,
1000
0000
0000
0010
0000
0000
0200
0000
0010
0000
0301
0000
,
0101
0000
0100
0010
0001
0010
1000
0001
,
0020
0000
0000
0000
0001
0000
0000
0000
0130
0010
0000
0100
0010
0000
0001
0000
,
0021
0000
0200
0330
0210
0000
2000
3300
,
2020
3030
0220
0330
0201
0000
0320
0000
,
0031
0000
0000
0000
1010
0000
0000
1000
0000
0001
0000
0010
0100
0000
0010
0000
,
1000
0000
0000
0000
0011
0000
0000
0001
0000
1000
0000
0001
0100
0000
0010
0000
,
0001
0000
0000
0000
1010
0000
0000
1000
0000
0001
0000
0010
0100
0000
1000
0000
,
1100
0000
1001
0000
1010
0010
0100
0000
,
1000
0000
0000
0000
0101
0000
0000
0001
0000
1000
0000
0100
0010
0000
0100
0000
,
0001
0000
0000
0000
1100
0000
0000
1000
0000
0001
0000
1000
0010
0000
0100
0000
,
1000
0100
0010
1000
0001
0010
0100
0010
,
0110
0000
0000
0000
;

//---------------dance-single - ----------------
#NOTEDATA:;
#CHARTNAME:;
#STEPSTYPE:dance-single;
#DESCRIPTION:;
#CHARTSTYLE:;
#DIFFICULTY:Hard;
#METER:14;
#RADARVALUES:0.678788,0.762020,0.404040,0.509091,0.541414,588.000000,538.000000,50.000000,63.000000,0.000000,0.000000,0.000000,0.000000,0.000000,0.678788,0.762020,0.404040,0.509091,0.541414,588.000000,538.000000,50.000000,63.000000,0.000000,0.000000,0.000000,0.000000,0.000000;
#CREDIT:chrononical X Gameoson;
#NOTES:
0000
0000
0000
0000
,
0000
0000
0000
0000
,
0000
0000
0000
0000
,
0000
0000
0000
0000
,
0000
0000
0000
0000
,
1001
0001
0010
0100
,
1001
1000
0010
0100
,
1002
0000
0013
0001
2001
0000
3010
1000
,
0100
0000
0000
0000
0000
0000
0100
0000
0010
0000
0001
0000
1000
0000
0000
0010
0000
0000
0001
0000
0000
0000
0000
0000
,
1010
0000
1000
0001
0010
0000
0100
0100
,
1000
0100
0001
0000
0101
0000
0110
0000
,
1100
0000
0000
0000
1000
0000
0000
0010
0000
0010
0000
0100
0010
0000
0020
0000
,
0100
0000
0000
0000
0031
0000
0000
0000
0010
0100
0000
0010
1000
0000
0001
0000
,
1001
0000
1000
0100
0001
0100
0010
0001
,
0100
0000
0000
1000
0000
0000
0100
0000
0000
0010
0000
0000
2000
0000
0000
0000
0010
0000
0000
0000
3001
0000
0000
0000
,
1001
0000
0001
0010
1000
0010
0100
1000
,
0001
0000
0100
0010
0100
0000
0010
0000
1000
0001
0000
1000
0100
0000
0100
0000
,
0110
0000
0000
0000
0012
0000
0000
1003
0000
1000
0000
0001
0100
0000
0010
0000
,
0110
0000
0000
0000
2010
0000
0000
3001
0000
0001
0000
0010
0100
0000
1000
0000
,
1100
0000
0000
0000
0012
0000
0000
1003
0000
1000
0000
0010
0100
0000
0001
0000
,
0020
0000
1030
0010
0001
0100
1000
0000
,
0110
0000
0000
0000
2010
0000
0000
3001
0000
0001
0000
0010
1000
0000
0010
0000
,
0110
0000
0000
0000
0012
0000
0000
1003
0000
1000
0000
0010
0001
0000
0010
0000
,
0120
0000
1030
0010
0201
0000
0301
0010
,
1100
0110
2002
3003
,
1000
0000
0000
0010
0000
0000
0100
0000
0000
0001
0000
0000
1000
0010
1000
0000
,
0100
0000
0000
0010
0000
0000
0100
0000
0000
0100
0000
0000
1000
0001
1000
0000
,
0001
0000
0000
0100
0000
0000
0010
0000
0000
1000
0000
0000
0001
0010
0001
0000
,
1000
0000
1000
0000
0010
0100
0000
0001
1000
0000
0100
0000
0010
0000
0000
0000
,
0001
0000
0000
0010
0000
0000
0100
0000
0000
1000
0000
0000
0001
0100
0001
0000
,
1000
0000
0000
0010
0000
0000
0100
0000
0000
0100
0000
0000
0001
1000
0100
0000
,
0002
0000
0000
0203
0000
0000
2300
0000
0000
3020
0000
0000
0032
0000
0023
0000
,
1000
0001
1030
1001
,
2000
0000
3200
0000
,
0320
0000
0032
0000
,
2003
0000
3020
0000
,
0032
0000
0023
0000
,
1030
0000
0000
0000
0001
0000
0000
1000
0000
0000
1000
0000
0100
0000
1000
0000
,
0001
0000
0000
0000
1000
0000
0000
0010
0000
0000
0010
0000
0100
0000
0001
0000
,
0010
0100
0010
0100
1000
0010
0100
0001
,
1000
0000
0100
0010
0100
0000
0010
0000
0002
0000
0000
0000
1003
0000
0001
0000
,
1000
0000
0010
0000
0100
0000
0000
0001
0000
1000
0000
0000
0100
0000
0000
0000
,
1000
0100
0010
0000
0001
0000
1000
0000
,
0001
0000
0100
0000
0010
0000
0000
1000
0000
0001
0000
0000
0010
0000
0000
0000
,
1000
0010
0100
0000
1000
0001
0100
0000
,
0002
0103
0010
0000
2000
3100
0010
0000
,
0002
0013
0100
0000
2000
3010
0100
0000
,
0020
1030
0001
0010
0200
1300
0001
1000
,
2020
3030
0220
0330
2002
0000
3003
0000
,
1000
0000
0100
0000
0010
0001
0000
1000
0000
1000
0000
0001
0100
0000
0010
0000
,
0100
0000
0001
0000
1000
0100
0000
0020
0000
0000
0031
0010
0001
0000
1000
0010
,
1000
0000
0010
0000
1000
0100
0000
0010
0000
0010
0000
0100
1000
0000
0010
0000
,
0001
0000
0010
0000
1000
0100
0000
0010
0001
0000
1000
0000
0001
0100
0001
0100
,
0001
0000
0100
0000
0010
1000
0000
0001
0000
0001
0000
1000
0100
0000
0010
0000
,
0100
0000
1000
0000
0001
0100
0000
0020
0000
0000
1030
0010
1000
0000
0001
0010
,
0001
0000
0100
0000
0010
0100
0000
2000
0000
0000
3100
0000
0010
0100
0000
0001
,
1000
0000
0010
0000
0100
0001
0000
0002
0000
0000
0013
0000
0100
0000
0010
0000
,
1000
0000
0010
0000
0001
1000
0000
0010
0000
0010
0000
0100
1000
0000
0100
0000
,
0001
0000
1000
0000
0001
0010
0000
0010
0100
0000
1000
0001
1000
0000
0100
0000
,
0001
0000
0100
0000
0010
0100
0000
1000
0000
0010
0000
0100
0010
0000
1000
0000
,
0001
0000
0100
0000
0001
0010
0000
0100
1000
0000
0001
0000
1000
0010
0100
0000
,
1000
0000
0100
0000
0001
0010
0000
0100
0000
0100
0000
0010
1000
0000
0010
0000
,
0001
0000
1000
0000
0100
1000
0000
0010
0100
0000
0010
0100
0001
0000
0100
0010
,
0100
1000
0100
0001
0010
1000
0010
0100
,
0210
0000
0000
0000
0001
0000
0000
0310
0100
0000
1000
0000
0001
0000
0100
0000
,
0101
0000
0000
0000
0001
0000
1000
0100
0010
0000
0100
0000
0010
0000
0010
0000
,
0001
0010
1000
0000
1010
0000
0110
0000
,
0012
0000
0000
0000
1003
0000
0001
0100
0000
0100
0000
0010
0100
0000
0200
0000
,
0010
0000
0000
0000
1300
0000
0000
0000
0100
0010
0000
0100
0001
0000
1000
0000
,
1001
0000
0001
0010
1000
0010
0100
1000
,
0010
0000
0000
0001
0000
0000
0010
0000
0000
0100
0000
0000
0002
0000
0000
0000
0100
0000
0000
0000
1003
0000
0000
0000
,
1001
0000
1000
0100
0001
0100
0010
0001
,
1000
0000
0010
0100
0010
0000
0100
0000
0001
1000
0000
0001
0010
0000
0010
0000
,
0210
0000
1300
0001
0210
0000
0301
1000
,
0220
0330
2002
3003
0201
0000
0320
0000
,
1030
0000
0100
0000
0120
0000
0000
0031
0000
0001
0000
0010
1000
0000
0010
0000
,
0001
0000
0100
0000
0120
0000
0000
1030
0000
1000
0000
0010
0001
0000
0010
0000
,
1000
0000
0100
0000
0120
0000
0000
0031
0000
0100
0000
1000
0100
0000
0001
0000
,
0021
0000
1030
0010
0001
0100
1000
0000
,
0201
0000
0310
0000
0110
0000
0100
0001
0000
1000
0000
0100
0010
0000
0100
0000
,
1200
0000
0310
0000
0110
0000
0100
1000
0000
0001
0000
0100
1000
0000
0100
0000
,
0010
0000
0100
0000
0001
0000
1000
0000
0001
1000
0001
1000
0100
0000
0010
0000
,
0110
0000
0000
0000
;

//---------------dance-single - ----------------
#NOTEDATA:;
#CHARTNAME:;
#STEPSTYPE:dance-single;
#DESCRIPTION:;
#CHARTSTYLE:;
#DIFFICULTY:Challenge;
#METER:17;
#RADARVALUES:0.879654,0.960808,0.501010,0.678788,1.002020,762.000000,700.000000,62.000000,84.000000,20.000000,0.000000,0.000000,0.000000,0.000000,0.879654,0.960808,0.501010,0.678788,1.002020,762.000000,700.000000,62.000000,84.000000,20.000000,0.000000,0.000000,0.000000,0.000000;
#CREDIT:chrononical X Gameoson;
#NOTES:
0000
0000
0000
0000
,
0000
0000
0000
0000
,
0000
0000
0000
0000
,
0000
0000
0000
0000
,
0000
0000
0000
0000
,
1001
1000
0100
0010
,
1001
0001
0100
0010
,
1001
1000
0100
0010
1001
0001
0100
0010
,
0101
0000
0000
0001
0000
0000
0010
0000
0100
0000
1000
0000
0001
0000
0000
0100
0000
0000
1000
0000
0000
0000
0000
0000
,
0101
0000
0000
0000
0100
0000
0010
0000
1000
0001
0000
1000
0100
0000
0010
0000
,
0001
0010
0100
0001
0101
0000
0110
0000
,
1100
0000
0000
0000
1000
0000
0001
0100
0000
0100
0000
0100
0010
0000
1000
0000
,
1020
0000
0000
0000
0100
0000
0000
0000
0031
0010
0000
0010
1000
0000
0001
0000
,
1001
0000
0000
0000
1000
0000
0100
0000
0001
0100
0010
0100
1000
0000
0001
0000
,
0100
0000
0000
0000
0000
0000
1000
0000
0000
0100
0000
0000
0010
0000
0000
0000
0000
0000
0100
0000
0000
0001
0000
0000
0100
0000
0000
0000
0000
0000
0000
0000
0101
0000
0000
0000
0000
0000
0000
0000
1001
0000
0000
0000
0000
0000
0000
0000
,
0011
0000
0000
0000
0001
0000
0010
0000
1000
0010
0100
0010
0001
0000
1000
0000
,
0010
0000
0000
0000
0000
0000
1000
0000
0001
0000
1000
0000
0100
0000
0000
0000
0000
0000
0010
0000
0000
0000
0000
0000
0001
0000
0000
1000
0000
0000
0000
0000
0000
0001
0000
0000
1000
0000
0000
0000
0000
0000
MMMM
0000
0000
0000
0000
0000
,
2000
0000
0010
0000
3002
0000
0103
0010
0000
0010
0000
0010
1000
0000
2010
0000
,
3002
0000
0010
0000
2003
0000
3100
0010
0000
0010
0000
0010
0001
0000
0012
0000
,
2003
0000
0010
0000
3002
0000
0103
0010
0000
0010
0000
0010
1000
0000
1010
0000
,
2002
3003
0001
0010
1100
0110
0011
0000
,
0002
0000
0010
0000
0203
0000
1300
0100
0000
0010
0000
0100
0001
0000
0102
0000
,
2003
0000
0010
0000
3200
0000
0301
0100
0000
0010
0000
0100
1000
0000
2100
0000
,
3002
0000
0003
0000
0100
0001
0100
0001
0020
0000
0030
0000
0100
1000
0100
1000
,
0020
0030
0220
0330
2002
3003
MMMM
0000
,
0001
0000
0001
0100
0000
0100
0010
0000
0010
1000
0000
1000
0100
0010
0001
1000
,
0100
0000
0010
0001
0000
1000
0001
0000
0100
0001
0000
1000
0001
0010
0100
1000
,
0001
0000
0001
0100
0000
0100
0010
0000
0010
1000
0000
1000
0001
0010
0100
1000
,
0001
0000
0001
0000
1000
0010
0000
1000
0001
0000
0001
0000
1000
0010
0100
0001
,
1000
0000
1000
0100
0000
0100
0010
0000
0010
0001
0000
0001
0100
0010
1000
0001
,
0100
0000
0010
1000
0000
0001
1000
0000
0100
1000
0000
0001
1000
0010
0100
0001
,
1000
0000
0100
0001
0000
0100
1000
0000
0010
0001
0000
0010
1000
0010
1000
0100
,
0010
0001
1000
0000
0010
1000
0001
0000
1002
0000
0000
0000
0013
0000
0000
0000
,
0002
0000
0023
0000
,
0230
0000
2300
0000
,
3002
0000
0203
0000
,
2300
0000
3200
0000
,
0301
0000
0000
0000
1000
0000
0000
0100
0000
0000
0100
0000
1000
0000
0000
0000
,
0001
0000
0000
0000
1000
0000
0000
0010
0000
0000
0010
0000
1000
0001
0000
0001
,
1000
0000
1000
0000
0100
0000
0100
0000
0010
0100
1000
0001
1000
0010
0100
0001
,
1000
0000
0000
0000
0000
0000
0001
0000
1000
0000
0001
0000
0010
0000
0000
0000
0000
0000
0100
0000
0000
0000
0000
0000
1200
0000
0000
0000
0000
0000
0000
0000
0000
0000
0000
0000
0310
0000
0000
0001
0000
0000
1000
0000
0000
0001
0000
0000
,
0100
0000
0010
0000
1000
0010
0000
1000
0000
1000
0000
0010
0100
0000
0001
0000
,
1000
0000
0100
0000
0010
0001
0000
1000
0000
0010
0100
0000
0001
1000
0001
1000
,
0100
0000
0010
0000
0001
0010
0000
0001
0000
0001
0000
0010
0100
0000
1000
0000
,
0001
0000
0100
0000
0010
1000
0000
0010
1000
0000
0001
0000
0010
0100
0010
0001
,
2000
0000
3010
0000
0100
0010
0000
0100
0002
0000
0013
0000
0100
0010
0000
0100
,
2000
0000
3010
0100
0001
1000
0000
1000
0002
0000
0013
0100
0010
0100
1000
0001
,
0200
0000
0310
1000
0001
0010
0001
1000
0020
0130
0001
0010
0100
1000
0010
0100
,
0002
0003
0220
0330
2002
3003
MMMM
0000
,
2000
0000
0010
0000
3001
0010
0000
0010
0100
1000
0000
1000
0001
0000
0100
0000
,
0120
0000
1030
0010
0100
0001
0000
1000
0100
0000
0010
0100
0010
0001
1000
0001
,
0200
0000
0001
0000
0310
1000
0000
1000
0100
0010
0000
0100
0010
0001
1000
0000
,
1002
0000
0100
0000
2003
0010
0000
3001
0010
0100
1000
0000
0001
0100
0010
1000
,
0002
0000
0010
0000
1003
0010
0000
0010
0100
0001
0000
0001
1000
0000
0100
0000
,
0120
0000
0031
0010
0100
1000
0000
0001
0100
0000
0010
0100
0010
1000
0001
1000
,
0200
0000
0310
0001
1000
0010
0000
0010
2000
0000
3010
1000
0100
0010
0000
0010
,
0001
0000
0100
0000
0010
1000
0000
2000
0000
0000
3100
0000
0010
0000
0001
0000
,
2001
0000
0010
0000
3100
0010
0000
0100
0001
0100
0000
0100
1000
0000
0001
0000
,
1002
0000
0103
0000
0010
0100
0000
1000
0100
0010
0100
0001
1000
0001
1000
0100
,
0020
0000
0100
0000
0031
0010
0000
0100
0010
1000
0000
1000
0010
0100
1000
0000
,
1002
0000
0100
0000
2003
0010
0000
3001
0010
0100
1000
0000
0001
0100
0010
1000
,
0002
0000
0010
0000
0103
0010
0000
0100
1000
0100
0000
0100
0010
0000
1000
0000
,
2001
0000
3100
0000
0010
0100
0000
0001
0100
0010
0100
1000
0001
1000
0001
0100
,
0020
1030
2010
3001
0102
1003
2100
3001
,
0012
0000
0000
0000
0203
0000
0000
0301
0100
0000
0010
0100
0010
0000
1000
0000
,
1001
0000
0001
0000
0010
0000
0100
1000
0001
1000
0010
0000
0100
0001
1000
0001
,
0010
0001
0100
1000
1100
0000
0110
0000
,
0101
0000
0001
0000
0010
0000
0100
1000
0000
1000
0000
0010
0100
0001
1000
0100
,
0020
0000
0000
0000
0100
0000
0000
0000
1030
0010
0000
0010
0001
0000
1000
0000
,
1001
0000
0000
0000
0001
0000
0100
0000
1000
0100
0010
0100
0001
0000
1000
0000
,
0100
0000
0000
0000
0000
0000
0001
0000
0000
0100
0000
0000
0010
0000
0000
0000
0000
0000
0100
0000
0000
1000
0000
0000
0100
0000
0000
0000
0000
0000
0000
0000
1100
0000
0000
0000
0000
0000
0000
0000
1001
0000
0000
0000
0000
0000
0000
0000
,
1010
0000
0000
0000
1000
0000
0010
0000
0001
0010
0100
0010
1000
0000
0001
0000
,
0010
0000
0000
0000
0000
0000
0001
0000
1000
0000
0001
0000
0100
0000
0000
0000
0000
0000
0010
0000
0000
0000
0000
0000
1000
0000
0000
0001
0000
0000
0000
0000
0000
1000
0000
0000
0001
0000
0000
0000
0000
0000
MMMM
0000
0000
0000
0000
0000
,
2002
0000
3003
0000
0001
0100
1000
0100
0002
0000
0003
0000
1000
0100
0001
0100
,
2000
3000
0220
0330
2002
3003
MMMM
0000
,
0201
0000
0010
0000
1300
0000
0100
0010
0000
0010
0000
0010
1000
0000
0100
0000
,
1200
0000
0010
0000
0301
0000
0100
1000
0000
1000
0000
1000
0010
0000
1000
0000
,
1020
0000
0100
0000
0031
0000
0010
0100
0000
0100
0000
0100
0001
0000
0010
0000
,
0011
0001
1010
1000
0010
0100
1001
0000
,
2010
0000
3001
0000
1200
0000
0310
0100
0010
1000
0000
0010
0100
0010
0001
0000
,
0012
0000
0000
0000
0000
0000
1003
0000
0000
0000
0000
0000
0201
0000
0000
0000
0000
0000
0310
0000
0000
0100
0000
0000
0010
0000
0000
0001
0000
0000
0000
0000
0000
0010
0000
0000
0100
0000
0000
0000
0000
0000
0010
0000
1000
0000
0010
0000
,
1000
0000
0001
0010
0100
1000
0001
1000
0001
0100
0010
1000
0100
0000
0010
0000
,
0110
0000
0000
0000
;

//---------------dance-single - ----------------
#NOTEDATA:;
#CHARTNAME:;
#STEPSTYPE:dance-single;
#DESCRIPTION:;
#CHARTSTYLE:;
#DIFFICULTY:Easy;
#METER:8;
#RADARVALUES:0.393651,0.530101,0.242424,0.541414,0.000000,341.000000,311.000000,30.000000,67.000000,0.000000,0.000000,0.000000,0.000000,0.000000,0.393651,0.530101,0.242424,0.541414,0.000000,341.000000,311.000000,30.000000,67.000000,0.000000,0.000000,0.000000,0.000000,0.000000;
#CREDIT:Gameoson;
#NOTES:
0000
0000
0000
0000
,
0000
0000
0000
0000
,
0000
0000
0000
0000
,
0000
0000
0000
0000
,
0000
0000
0000
0000
,
1000
1000
0100
0000
,
0010
0010
0001
0000
,
1000
0010
0100
0001
,
2000
3002
2000
3003
,
1000
0000
0100
0000
1000
0000
0100
1000
,
0001
0200
1000
0010
,
0302
0000
0013
0000
0100
0010
0100
0000
,
0000
0110
1000
1000
,
0001
0000
0100
0000
0010
0000
1000
0001
,
0010
0100
2000
0000
,
3010
0000
0100
0000
0001
0010
0001
0000
,
1000
0010
1000
0000
0200
0000
0300
0000
,
1000
0000
0100
0000
0010
0100
0010
0000
,
0001
0000
0100
0000
0010
0100
0010
0000
,
1000
0000
0100
0000
0010
0100
0010
0000
,
0002
0000
2003
0000
3010
0100
0001
0000
,
0101
0000
1000
0000
0001
1000
0001
0000
,
1100
0000
0001
0000
1000
0001
1000
0000
,
2002
3003
0000
0000
0220
0330
0000
0000
,
2002
3003
0220
0330
2002
3003
0000
0000
,
0001
0010
0001
0010
,
0100
1000
0100
1000
,
0010
0100
0010
0100
,
0002
0000
0003
0000
0001
1000
0001
0000
,
1000
0100
1000
0100
,
0010
0001
0010
0001
,
0100
0010
1000
0001
,
0020
0100
0130
0000
,
2000
0000
3020
0000
,
0230
0000
0302
0000
,
2003
0000
3200
0000
,
0320
0000
0032
0000
,
1003
0010
0100
0000
,
0001
0010
0100
0000
,
1000
1000
0010
0100
,
0001
0010
0001
0000
0200
0000
0300
0000
,
0010
0010
1000
0000
,
0001
1000
0001
0000
,
0010
0010
0100
0000
,
1000
0001
0100
0000
,
0020
1030
2000
3001
,
0002
0013
0020
0130
,
2000
0100
3002
0100
,
2003
3000
0220
0330
2002
0000
3003
0000
,
0001
0000
0100
0000
0010
1000
0010
0000
,
0100
0000
0001
0000
0001
0000
1000
0100
,
1000
0000
0100
0000
0010
0001
0010
0000
,
0001
0000
0010
0000
0100
1000
0001
0000
,
1000
0000
0010
0000
0100
0001
0100
0000
,
0010
1000
1000
0001
,
0011
1000
1010
0001
,
0011
1001
2020
3030
,
1000
0010
0200
0000
0010
0000
0010
0000
,
0301
0100
0001
0000
1000
0000
1000
0000
,
0001
0010
0200
0000
0010
0000
0010
0000
,
1300
0001
0100
0000
0001
1000
0100
0000
,
0010
0001
2000
0000
0001
0000
3001
0000
,
0100
0010
1000
0000
0100
0000
0010
0000
,
0002
0203
0320
2030
,
3200
0300
0110
1001
,
0001
0000
0100
0000
0001
0000
0100
0001
,
1000
0200
0001
0010
,
2300
0000
3010
0000
0100
0010
0100
0000
,
0000
0110
0001
0001
,
1000
0000
0100
0000
0010
0000
0001
1000
,
0010
0100
0002
0000
,
0013
0000
0100
0000
1000
0010
1000
0000
,
0001
0010
0001
0000
0200
0000
0300
0000
,
2002
3003
0000
0000
0220
0330
0000
0000
,
2002
3003
0220
0330
2002
0000
3003
0000
,
0001
0000
0100
0000
0010
1000
0100
0000
,
0010
0000
0001
0000
0100
0010
1000
0000
,
0001
0000
0010
0000
0100
1000
0010
0000
,
0200
0000
0302
0000
1003
0001
1000
0000
,
1100
0000
0011
0000
1000
0001
1000
0000
,
0101
0000
1010
0000
0001
1000
0001
0000
,
1100
0000
0011
0000
1000
0001
0100
0000
,
0110
0000
0000
0000
;

//---------------dance-single - ----------------
#NOTEDATA:;
#CHARTNAME:;
#STEPSTYPE:dance-single;
#DESCRIPTION:;
#CHARTSTYLE:;
#DIFFICULTY:Beginner;
#METER:4;
#RADARVALUES:0.225108,0.364444,0.113131,0.153535,0.000000,195.000000,181.000000,14.000000,19.000000,0.000000,0.000000,0.000000,0.000000,0.000000,0.225108,0.364444,0.113131,0.153535,0.000000,195.000000,181.000000,14.000000,19.000000,0.000000,0.000000,0.000000,0.000000,0.000000;
#CREDIT:Gameoson;
#NOTES:
// measure 0
0000
0000
0000
0000
,  // measure 1
0000
0000
0000
0000
,  // measure 2
0000
0000
0000
0000
,  // measure 3
0000
0000
0000
0000
,  // measure 4
0000
0000
0000
0000
,  // measure 5
1000
0000
1000
0000
,  // measure 6
0001
0000
0001
0000
,  // measure 7
1000
0000
0001
0000
,  // measure 8
2000
0000
3000
0000
,  // measure 9
0001
0000
0010
0000
,  // measure 10
0100
0000
1000
1000
,  // measure 11
1000
0000
0010
0010
,  // measure 12
0000
2002
3003
0000
,  // measure 13
1000
0000
0100
0000
,  // measure 14
0010
0010
0010
0000
,  // measure 15
0001
0000
0100
0000
,  // measure 16
0010
0010
1000
0000
,  // measure 17
0001
0001
0010
0000
,  // measure 18
0001
0001
0010
0000
,  // measure 19
0001
0001
0010
0000
,  // measure 20
0100
0000
1000
0000
,  // measure 21
0001
0001
0100
0000
,  // measure 22
0001
0001
0100
0000
,  // measure 23
1001
0000
1001
0000
,  // measure 24
1001
1001
1001
0000
,  // measure 25
1000
0000
0100
0000
,  // measure 26
0010
0000
0001
0000
,  // measure 27
0010
0000
0100
0000
,  // measure 28
1000
0000
1000
1000
,  // measure 29
0001
0000
0100
0000
,  // measure 30
0010
0000
1000
0000
,  // measure 31
0100
0000
0010
0000
,  // measure 32
0001
0001
0001
0000
,  // measure 33
2000
0000
3000
0000
,  // measure 34
0020
0000
0030
0000
,  // measure 35
0200
0000
0300
0000
,  // measure 36
0002
0000
0003
0000
,  // measure 37
1000
0000
1000
0000
,  // measure 38
0001
0000
0001
0000
,  // measure 39
1000
0000
0100
0000
,  // measure 40
0010
0010
0001
0000
,  // measure 41
0200
0000
0300
0000
,  // measure 42
0020
0000
0030
0000
,  // measure 43
2000
0000
3000
0000
,  // measure 44
0002
0000
0003
0000
,  // measure 45
0020
0030
0020
0030
,  // measure 46
0200
0300
0200
0300
,  // measure 47
2000
3000
0002
0003
,  // measure 48
1000
0001
1000
0000
,  // measure 49
0001
0001
0001
0000
,  // measure 50
0100
0100
0010
0000
,  // measure 51
1000
1000
1000
0000
,  // measure 52
0100
0100
0010
0000
,  // measure 53
0001
0001
0001
0000
,  // measure 54
1000
1000
0001
0000
,  // measure 55
0100
0000
0010
0000
,  // measure 56
0100
0010
0100
0000
,  // measure 57
0001
0001
0010
0000
,  // measure 58
0100
0100
1000
0000
,  // measure 59
0001
0001
0100
0000
,  // measure 60
0010
1000
0010
0000
,  // measure 61
1000
1000
0100
0000
,  // measure 62
0010
0010
0001
0000
,  // measure 63
1000
0000
0001
0000
,  // measure 64
1001
0000
0000
0000
,  // measure 65
1000
0000
0010
0000
,  // measure 66
0100
0000
0001
0001
,  // measure 67
0001
0000
0010
0010
,  // measure 68
0000
2002
3003
0000
,  // measure 69
0001
0000
0100
0000
,  // measure 70
0010
0010
0010
0000
,  // measure 71
1000
0000
0100
0000
,  // measure 72
0010
0010
0001
0000
,  // measure 73
1001
0000
1001
0000
,  // measure 74
1001
1001
1001
0000
,  // measure 75
1000
1000
0010
0000
,  // measure 76
1000
1000
0010
0000
,  // measure 77
1000
1000
0010
0000
,  // measure 78
0100
0000
0001
0000
,  // measure 79
1000
1000
0100
0000
,  // measure 80
1000
1000
0100
0000
,  // measure 81
1000
1000
0100
0000
,  // measure 82
1001
0000
0000
0000
;
