#VERSION:0.83;
#TITLE:つっぱれ!にゃんきー魂;
#SUBTITLE:;
#ARTIST:Neko Hacker feat. うごくちゃん;
#TITLETRANSLIT:Tsuppare! Nyankee tamashii;
#SUBTITLETRANSLIT:;
#ARTISTTRANSLIT:Neko Hacker feat. Ugoku-chan;
#GENRE:;
#CREDIT:;
#MUSIC:Tsuppare! Nyankee tamashii.ogg;
#BANNER:Tsuppare! Nyankee tamashii.png;
#BACKGROUND:Tsuppare! Nyankee tamashii-bg.png;
#CDTITLE:;
#SAMPLESTART:59.856;
#SAMPLELENGTH:15.000;
#SELECTABLE:YES;
#OFFSET:1.269;
#BPMS:0.000=160.000;
#STOPS:96.000=1.125;
#BGCHANGES:;
#FGCHANGES:;

//--------------- dance-single - chronon ----------------
#NOTEDATA:;
#STEPSTYPE:dance-single;
#DESCRIPTION:chronon;
#DIFFICULTY:Beginner;
#METER:4;
#RADARVALUES:0,0,0,0,0;
#NOTES:
0000
0000
0000
0000
,
0000
0000
0000
0000
,
0000
0000
0000
0000
,
0000
0000
0000
0000
,
0000
0000
0000
0000
,
1000
0000
0010
0000
,
0100
0000
0001
0000
,
1000
0000
0100
0000
,
0010
0000
0001
0000
,
1000
0000
0000
0010
,
0000
0000
0100
0000
0000
0001
0000
0000
,
1000
0000
0000
0000
0000
0000
0000
0100
,
0000
0000
0010
0000
0000
0001
0000
0000
,
1000
0000
0000
0000
0000
0000
0000
0010
,
0000
0000
0100
0000
0000
0001
0000
0000
,
0010
0000
0000
0100
0000
0000
1000
0000
,
0000
0000
0010
0000
0000
0100
0000
0000
,
0001
0000
0010
0000
,
0100
0000
0100
0000
,
1000
0000
0010
0000
,
0100
0000
0100
0000
,
0001
0000
0100
0000
,
0010
0000
0010
0000
,
0001
0000
0010
0000
,
0200
0300
0000
0000
0001
0000
0000
0000
0000
0000
0000
0000
1000
0000
0000
0000
,
0000
0100
0100
0100
,
0000
1000
0000
0001
,
0000
0100
0100
0100
,
0000
0001
0000
1000
,
0000
0010
0010
0010
,
0000
1000
0000
0001
,
0000
1000
0000
0000
,
0000
1001
0000
0000
,
0000
1000
0000
0000
,
0000
0100
0000
0000
,
0000
0010
0000
0000
,
0000
0001
0000
1000
,
0000
0001
0000
1000
,
0000
0000
0001
0000
0000
0001
0000
0000
,
0001
0000
0000
0000
,
0000
1000
0000
0100
,
0000
0010
0000
0001
,
1000
0001
0000
0100
,
0000
0010
0000
1000
,
0001
1000
0000
0100
,
0000
0010
0000
0001
,
1000
0001
0000
0100
,
0000
0020
0000
0000
,
0030
0000
0000
0000
0000
0000
2000
3000
,
0020
0030
0000
0000
2000
3000
0020
0030
,
0200
0300
0000
0000
0000
0000
0002
0003
,
0020
0030
0000
0000
0002
0003
0020
0030
,
0200
0300
0000
0000
0000
0000
2000
3000
,
0200
0300
0000
0000
2000
3000
0200
0300
,
0020
0030
0000
0000
0000
0000
0002
0003
,
0200
0300
0000
0000
0002
0003
0200
0300
,
0020
0030
2000
0000
0000
0000
0000
0000
,
3000
0001
0010
1000
,
0010
0100
1000
0001
,
1000
0010
0100
1000
,
0100
1001
0010
1001
,
0100
1001
0010
1001
,
0100
0110
0001
0110
,
1000
0110
0001
0110
,
1000
2002
0000
0000
,
0000
0000
0000
0000
,
0000
3003
0000
0000
,
0000
0000
0000
0000
,
0000
1000
0000
0001
,
0000
1000
0000
0001
,
0000
0000
1000
0000
0000
1000
0000
0000
,
1000
0000
0000
0000
,
0000
0001
0000
0010
,
0000
0100
0000
1000
,
0001
1000
0000
0010
,
0000
0100
0000
0001
,
1000
0001
0000
0010
,
0000
0100
0000
1000
,
0001
1000
0000
0010
,
0010
0200
0000
0000
,
0300
0000
0000
0000
0000
0000
0002
0003
,
0200
0300
0000
0000
0002
0003
0200
0300
,
0020
0030
0000
0000
0000
0000
2000
3000
,
0200
0300
0000
0000
2000
3000
0200
0300
,
0020
0030
0000
0000
0000
0000
0002
0003
,
0020
0030
0000
0000
0002
0003
0020
0030
,
0200
0300
0000
0000
0000
0000
2000
3000
,
0020
0030
0000
0000
2000
3000
0020
0030
,
0200
0300
0002
0000
0000
0000
0000
0000
,
0000
0000
0000
0000
,
0000
0000
0000
0000
,
0000
0000
0000
0000
,
0000
0003
0000
0000
0000
0000
0000
0000
;

//--------------- dance-single - chronon ----------------
#NOTEDATA:;
#STEPSTYPE:dance-single;
#DESCRIPTION:chronon;
#DIFFICULTY:Easy;
#METER:9;
#RADARVALUES:0,0,0,0,0;
#NOTES:
0000
0000
0000
0000
,
0000
0000
0000
0000
,
0000
0000
0000
0000
,
0000
0000
0000
0000
,
0000
0000
0000
0000
,
0001
0010
1000
0010
,
0000
0001
1000
0010
,
1000
0010
0001
0010
,
0000
1000
0001
1001
,
2000
0000
0000
0000
3000
0000
0000
0200
,
0000
0300
0020
0000
0030
0002
0000
0003
,
2000
0000
0000
0000
3000
0000
0000
0020
,
0000
0030
0200
0000
0300
0002
0000
0003
,
2000
0000
0000
0000
3000
0000
0000
0200
,
0000
0300
0020
0000
0030
0002
0000
0003
,
0200
0000
0300
0020
0000
0030
2000
0000
,
3000
0000
0200
0000
0300
0020
0000
0030
,
0001
1000
0010
0100
,
0001
1000
0001
0001
,
1000
0001
0010
0100
,
0001
0100
1000
1000
,
0001
1000
0100
0010
,
0001
1000
0001
0001
,
0100
1000
0100
0010
,
2000
3000
0001
0000
0010
0000
0100
0010
,
0001
0000
1000
0000
0010
0000
0100
0010
,
1000
0000
0001
0000
0010
0000
0100
0010
,
0001
0000
1000
0010
0100
0000
0001
0000
,
1001
0000
1000
0000
0100
0000
0010
0100
,
1000
0000
0001
0000
0100
0000
0010
0100
,
0001
0010
1000
0100
,
0001
2000
0000
0000
,
3000
0001
0000
0020
,
0100
0031
0000
0200
,
1000
0310
0000
2000
,
0001
3100
0000
0020
,
1000
0230
0001
0320
,
0100
0032
1000
0103
,
0010
0000
0110
0000
0000
0110
0000
0000
,
2002
0000
0000
3003
,
1000
0100
0010
0100
,
1000
0000
0001
0000
1000
0010
0100
0000
,
0001
0020
1000
0230
,
0001
0310
0001
1000
,
0001
0100
0010
0100
,
0002
0010
2003
0010
,
3100
0010
1000
0010
,
0001
0200
0000
0000
,
0300
0000
1001
0000
0000
0000
2000
3000
,
0200
0300
0000
0000
2000
3000
0200
0300
,
0020
0030
1001
0000
0000
0000
0002
0003
,
0200
0300
0000
0000
0002
0003
0200
0300
,
0020
0030
0000
0000
0000
0000
2000
3000
,
0020
0030
0000
0000
2000
3000
0020
0030
,
0200
0300
1001
0000
0000
0000
0002
0003
,
0020
0030
0000
0000
0002
0003
0020
0030
,
0200
0300
2000
0000
0000
0000
0000
0000
,
3000
0000
0000
0000
0001
0000
0100
0000
0010
0000
0100
0000
0001
0000
0000
0010
,
0000
0000
0100
0000
0001
0000
0100
0000
0010
0000
0000
0000
0001
0000
0000
1000
,
0000
0010
0000
0010
0100
0001
1000
0000
,
0100
0000
0001
0200
0000
1300
0200
0000
,
0301
0200
0000
1300
0200
0000
0310
0001
,
1000
0010
0001
0010
0200
0000
1300
0100
,
0020
0000
0031
0010
0200
0000
1300
0100
,
0001
0020
0000
0000
,
0000
0000
0000
0000
,
0000
0001
0130
2000
,
0001
3010
0000
0200
,
1000
0320
0001
0230
,
1000
0320
0100
2030
,
3100
0000
0110
0000
0000
0110
0000
0000
,
1001
0000
0000
0000
,
0001
0100
0010
0100
,
0001
0000
1000
0000
0001
0010
0100
0000
,
1000
0020
0001
0230
,
1000
0310
1000
0001
,
1000
0100
0010
0100
,
2000
0010
3002
0010
,
0103
0010
0001
0020
,
0100
2030
0000
0000
,
3000
0000
1001
0000
0000
0000
0002
0003
,
0200
0300
0000
0000
0002
0003
0200
0300
,
0020
0030
1001
0000
0000
0000
2000
3000
,
0200
0300
0000
0000
2000
3000
0200
0300
,
0020
0030
0000
0000
0000
0000
0002
0003
,
0020
0030
0000
0000
0002
0003
0020
0030
,
0200
0300
1001
0000
0000
0000
2000
3000
,
0020
0030
0000
0000
2000
3000
0020
0030
,
0200
0300
2002
0000
0000
0000
0000
0000
,
0000
0000
0000
0000
,
0000
0000
0000
0000
,
0000
0000
0000
0000
,
0000
3003
0000
0000
0000
0000
0000
0000
;

//--------------- dance-single - chronon ----------------
#NOTEDATA:;
#STEPSTYPE:dance-single;
#DESCRIPTION:chronon;
#DIFFICULTY:Medium;
#METER:13;
#RADARVALUES:0,0,0,0,0;
#NOTES:
0000
0000
0000
0000
,
0000
0000
0000
0000
,
0000
0000
0000
0000
,
0000
0000
0000
0000
,
0000
0000
0000
0000
,
1001
0000
0001
0010
0100
0000
1000
0001
,
0000
0001
0100
0010
1000
0000
0001
0000
,
1001
0000
1000
0100
0010
0000
0001
1000
,
0000
1000
0010
0100
0002
0000
0010
0000
,
1003
0100
0010
0001
0100
0000
0000
0101
,
0000
0000
0110
0000
0000
1001
0000
0000
,
0001
0100
0010
1000
0100
0000
0000
1100
,
0000
0000
0110
0000
0000
1001
0000
0000
,
1000
0010
0100
0001
0010
0000
0000
0011
,
0000
0000
0110
0000
0000
1100
0000
0000
,
2001
3010
0000
1002
0103
0000
2001
3100
,
0000
0000
1002
0000
0103
0010
1000
0001
,
1000
0000
0100
0000
0010
0000
0100
1000
,
0000
1000
0001
0000
0101
0000
1001
0000
,
0001
0000
0010
0000
0100
0000
0010
0001
,
0000
0001
1000
0000
1010
0000
1001
0000
,
1000
0010
0100
0000
0010
0000
0100
0001
,
0000
0001
1000
0000
1100
0000
0110
0000
,
0010
0001
0100
0010
1000
0000
0001
0000
,
0200
0000
0300
0000
0001
0000
0100
0000
0020
0000
0000
1000
0000
0000
0130
0000
,
0001
0000
0000
0000
1000
0000
0100
0000
0020
0000
0000
0001
0000
0001
0000
0000
,
0130
0000
0000
0000
1000
0000
0001
0000
0200
0000
0000
0010
0000
0000
0301
0000
,
0100
0000
1000
0100
0010
1000
0001
0000
,
1000
0000
0000
0000
0001
0000
0010
0000
0200
0000
0000
1000
0000
0000
0310
0000
,
0001
0000
0000
0000
1000
0000
0010
0000
0200
0000
0000
0001
0000
0001
0000
0000
,
0310
0000
0001
0010
0100
0001
1000
0000
,
0200
0010
0000
0010
0000
0010
0000
0310
,
0001
0000
0000
0000
2000
0000
0000
0001
0000
0000
3010
0000
0100
0000
0000
0000
,
1001
0000
0000
0000
0002
0000
0000
1000
0000
0000
0013
0000
0100
0000
0000
0000
,
0001
0000
0100
0000
2000
0000
0000
0001
0000
0000
3010
0000
1000
0000
0001
0000
,
1000
0000
0001
0000
2000
0000
0000
0001
0000
0000
3100
0000
0010
0000
0000
0000
,
1002
0103
2001
3010
,
0100
0010
0200
0000
1300
0100
0010
0000
,
1001
0000
0011
0000
0000
0110
0000
0000
,
2002
0000
0000
3003
,
1000
0020
1000
0130
,
0002
0000
0000
0010
0000
0000
1003
0000
0100
0000
0010
0000
0001
0000
0000
0000
,
0200
0000
0320
0000
0001
0000
0230
0001
,
0000
0000
0000
0310
0000
0000
0100
0000
0000
0000
0100
0000
0001
0000
0000
0000
0001
0000
1000
0000
0000
0000
0000
0000
,
0001
0000
0000
0000
0020
0000
0000
0000
0001
0000
0000
0000
0130
0000
0000
0100
,
1000
0000
0000
1000
0010
0000
0100
0000
0001
0000
1000
0000
0001
0000
0000
0000
,
0020
0000
0130
1000
0001
0000
0100
0001
,
1000
2002
0000
0000
,
3003
0000
2010
0000
0000
3000
1002
0003
,
0210
0300
0000
0000
1002
0003
0210
0300
,
2001
3000
0102
0000
0000
0003
2001
3000
,
0120
0030
0000
0000
2001
3000
0120
0030
,
1002
0003
2000
0000
0000
3000
2001
3000
,
0210
0300
0000
0000
2001
3000
0210
0300
,
1002
0003
2100
0000
0000
3000
1002
0003
,
0120
0030
0000
0000
1002
0003
0120
0030
,
2001
3000
0200
0000
0000
0000
0000
0000
,
0000
0000
0000
0000
1300
0000
0100
0000
0010
0000
0001
0000
1000
0001
0000
0100
,
0000
0010
0000
0100
0001
1000
0001
0000
0010
0000
0100
0010
0100
1000
0000
0001
,
0000
1000
0010
0000
0100
0001
0100
0000
0010
0000
0100
0000
1000
0000
0100
0000
,
0010
0000
1000
0000
0001
2000
0001
0000
3100
0000
1000
0002
1000
0000
0103
0000
,
0001
2000
0001
0000
3100
0000
1000
0002
1000
0000
0103
0000
0010
0100
0001
0000
,
1000
0000
0001
0000
0010
0200
1000
0000
0310
0000
0100
2000
0001
0000
3010
0000
,
0100
0020
1000
0000
0130
0000
0010
2000
0001
0000
3100
0000
1000
0000
0100
0000
,
0010
0000
0001
0000
0200
0000
0000
0001
0000
0000
0310
0000
1000
0000
0000
0000
,
1200
0000
0320
0000
0130
0010
0001
0000
,
0100
0010
1000
0001
2000
0000
3100
0000
,
0020
0000
0000
0000
0230
0000
0000
1000
0000
0000
0310
0000
0001
0000
0000
0000
,
0102
0013
2100
3010
,
0001
0000
0010
0100
0001
1000
0001
0000
,
0011
0000
1100
0000
0000
0110
0000
0000
,
2002
0000
0000
3003
,
0001
0020
0001
0130
,
2000
0000
0000
0010
0000
0000
3001
0000
0100
0000
0010
0000
1000
0000
0000
0000
,
0200
0000
0320
0000
1000
0000
0230
1000
,
0000
0000
0000
0310
0000
0000
0100
0000
0000
0000
0100
0000
1000
0000
0000
0000
1000
0000
0001
0000
0000
0000
0000
0000
,
1000
0000
0000
0000
0020
0000
0000
0000
1000
0000
0000
0000
0130
0000
0000
0100
,
0001
0000
0000
0001
0010
0000
0100
0000
1000
0000
0001
0000
1000
0000
0000
0000
,
0020
0000
0130
0010
1000
0000
0100
0010
,
0001
2002
0000
0000
,
3003
0000
0012
0000
0000
0003
2001
3000
,
0210
0300
0000
0000
2001
3000
0210
0300
,
1002
0003
2100
0000
0000
3000
1002
0003
,
0120
0030
0000
0000
1002
0003
0120
0030
,
2001
3000
0002
0000
0000
0003
1002
0003
,
0210
0300
0000
0000
1002
0003
0210
0300
,
2001
3000
0102
0000
0000
0003
2001
3000
,
0120
0030
0000
0000
2001
3000
0120
0030
,
1002
0003
2002
0000
0000
0000
0000
0000
,
0000
0000
0000
0000
,
0000
0000
0000
0000
,
0000
0000
0000
0000
,
0000
3003
0000
0000
0000
0000
0000
0000
;

//--------------- dance-single - chronon ----------------
#NOTEDATA:;
#STEPSTYPE:dance-single;
#DESCRIPTION:chronon;
#DIFFICULTY:Hard;
#METER:16;
#RADARVALUES:0,0,0,0,0;
#NOTES:
0000
0000
0000
0000
,
0000
0000
0000
0000
,
0000
0000
0000
0000
,
0000
0000
0000
0000
,
0000
0000
0000
0000
,
1001
0000
0000
0000
1010
0000
1000
0000
0100
0000
0010
0001
1000
0000
0010
0000
,
0000
0000
0010
0100
0001
0000
1000
0000
0100
0000
0010
0001
1000
0000
0001
0000
,
1001
0000
0000
0000
0011
0000
0001
0000
0100
0000
0010
1000
0001
0000
0010
0000
,
0000
0000
0010
0100
1000
0000
0001
0000
0100
0000
0000
0000
0110
0000
0000
0000
,
1001
0000
1000
0000
0010
0000
0100
0001
1000
0000
0100
0000
0010
0000
0110
0000
,
0100
1000
0001
0000
1001
0000
1000
0000
0010
0000
0100
0001
1000
0000
0001
0000
,
1001
0000
0001
0000
0010
0000
0100
1000
0001
0000
0100
0000
0010
0000
0110
0000
,
0100
0001
1000
0000
1001
0000
0001
0000
0010
0000
0100
1000
0001
0000
1000
0000
,
1001
0000
1000
0000
0100
0000
0010
0001
1000
0000
0010
0000
0100
0000
0110
0000
,
0010
1000
0001
0000
1001
0000
1000
0000
0100
0000
0010
0001
1000
0000
0010
0000
,
0110
0000
0010
1000
0100
0000
0110
0000
0010
0001
0100
0000
0110
0000
0010
1000
,
0100
0010
0011
0001
0100
0110
0010
1000
,
0001
0010
0100
0010
0001
0000
0001
1000
,
0000
1000
0010
0000
0110
0000
1001
0000
,
1000
0100
0010
0100
1000
0000
1000
0010
,
0000
0010
0100
0001
0011
0000
0101
0000
,
0001
0100
0010
0100
0001
0000
0001
1000
,
0000
1000
0100
0010
0110
0000
1001
0000
,
1000
0010
0001
0010
1000
0000
1000
0100
,
0020
0000
0030
0000
0100
0000
1000
0000
0010
0200
0000
0001
0000
0310
0100
0001
,
1000
0000
0100
0000
0010
0000
0001
0000
0100
0020
0000
1000
0000
0100
0000
0130
,
0010
0000
0100
0000
0010
0000
1000
0000
0100
0020
0000
0100
0000
0031
1000
0000
,
0010
0000
0000
0200
0000
0000
1000
0000
0000
0320
0000
0000
0001
0000
0000
0130
0000
0000
0010
0000
0100
0000
0001
0000
,
0010
0000
0100
0000
0010
0000
0001
0000
0100
0020
0000
1000
0000
0130
0010
1000
,
0001
0000
0010
0000
0100
0000
1000
0000
0010
0200
0000
0001
0000
0010
0000
0310
,
0100
0010
0001
0010
0100
0001
0010
0100
,
1000
0020
0000
1000
0000
0100
0000
0130
,
0001
0000
0100
0000
0002
0000
1000
0000
0013
0000
0100
0000
1000
0001
0000
0001
,
0100
0000
0001
0100
0002
0000
1000
0000
0013
0000
0100
0000
1000
0001
0000
0001
,
0100
0010
1000
0001
2000
0000
0001
0000
3100
0000
0010
0000
0001
0010
0100
1000
,
0001
0000
0001
0000
2000
0000
0001
0000
3100
0000
0010
0000
0001
1000
0000
1000
,
0020
0000
0100
0000
1030
0001
0000
0001
0020
0000
0130
0010
0001
1000
0000
1000
,
0010
0100
0010
0100
0001
0000
0200
0000
1000
0000
0010
0000
0301
1000
0000
1000
,
0100
0001
0101
0000
0000
0110
0000
0000
,
2002
0000
0000
3003
,
1000
0000
0000
0001
0010
0000
0100
0000
0010
0000
0001
0000
1000
0000
0010
0200
,
0001
0000
0320
0001
0000
0130
0001
0000
0010
0000
0100
0000
1000
0000
0010
0000
,
1020
0000
0000
0130
0010
0000
0200
0000
1000
0000
0310
0000
0200
0000
1000
0000
,
0310
0000
0000
1000
0000
0000
0010
0000
1000
0000
0001
0000
0100
0000
0001
0000
1000
0000
0100
0000
0000
0010
0000
0000
,
0001
0000
0000
1000
0010
0000
0100
0000
0010
0000
1000
0000
0001
0000
0010
0200
,
1000
0000
0310
0001
1000
0000
0001
0000
0100
0000
0010
0000
1000
0000
0100
0000
,
1200
0000
0320
0100
1030
0020
0100
0031
,
1000
0010
1020
0000
0100
0000
1030
0000
,
0010
1000
2100
0000
0000
0000
3002
0003
,
2020
0030
3000
0102
2000
3000
0020
0030
,
0203
0300
0102
0000
0000
0000
2003
3000
,
0022
0030
0003
2100
0002
0003
3010
1020
,
0230
0000
0300
0000
0001
0000
0001
0000
0010
0000
0100
1000
0002
0000
0103
0000
,
0210
0000
0310
0000
0100
0001
1000
0000
0002
0000
0013
0000
0210
0000
0310
0001
,
2000
0000
3001
0000
1001
0000
1000
0000
0010
0000
0100
0001
2000
0000
3100
0000
,
0210
0000
0310
0000
0100
1000
0001
0000
2000
0000
3010
0000
0200
0000
0310
1000
,
0002
0003
2002
0000
0000
0000
0000
0000
,
3003
0000
0000
0000
1000
0100
0010
0100
1000
0100
0010
0001
0100
0010
1000
0001
,
0000
0010
0000
0100
1000
0001
1000
0010
1000
0000
0001
1000
0010
0100
0000
0100
,
0000
0100
1000
0000
0100
0001
1000
0000
0100
0000
0010
0000
0210
0000
0301
0000
,
0210
0000
1300
0000
0100
1000
0100
0010
0001
0000
0100
0001
0100
0010
1000
0000
,
0100
1000
0100
0010
0001
0000
0100
0001
0100
0010
1000
0000
0100
0010
0001
1000
,
0010
0100
0001
1000
0001
0010
1000
0010
0001
1000
0010
1000
0100
0010
0001
1000
,
0001
0100
1000
0100
0001
1000
0100
1000
0010
0100
0001
1000
0001
0010
0100
1000
,
0001
0010
0100
1000
0020
0000
1000
0000
0130
0000
0010
0000
1000
0001
0000
0001
,
0010
0000
0000
0000
0200
0000
0000
0000
0310
0100
0010
0100
1000
0001
0000
0001
,
0200
0000
0010
0000
0301
1000
0001
1000
0002
0000
2003
0000
3001
1000
0000
1000
,
0100
0010
0100
1000
0200
0000
1000
0000
0310
0000
0100
0000
1000
0001
0000
0001
,
0200
0000
0010
0000
0301
1000
0000
1000
0200
0000
0010
0000
1300
0000
0002
0000
,
0100
0000
1003
0000
0001
0000
0020
0000
1000
0000
0130
0000
1000
0001
0000
0001
,
0100
1000
1100
0000
0000
0110
0000
0000
,
2002
0000
0000
3003
,
0001
0000
0000
1000
0100
0000
0010
0000
0100
0000
1000
0000
0001
0000
0100
0020
,
1000
0000
0230
1000
0000
0310
1000
0000
0100
0000
0010
0000
0001
0000
0100
0000
,
0102
0000
0103
0020
0001
0130
0020
0001
,
0130
0000
0000
0001
0000
0000
0100
0000
0001
0000
1000
0000
0010
0000
1000
0000
0001
0000
0010
0000
0000
0100
0000
0000
,
1000
0000
0000
0001
0100
0000
0010
0000
0100
0000
0001
0000
1000
0000
0100
0020
,
0001
0000
0130
1000
0001
0000
1000
0000
0010
0000
0100
0000
0001
0000
0010
0000
,
0021
0000
0230
0010
0301
0200
0010
2300
,
0001
3010
0210
0000
0010
0000
0301
0000
,
0100
0001
0012
0000
0000
0000
2003
3000
,
0202
0300
0003
2010
0002
0003
0200
0300
,
3020
0030
2010
0000
0000
0000
3002
0003
,
2200
0300
3000
0012
2000
3000
0103
0201
,
0320
0000
0030
0000
1000
0000
1000
0000
0100
0000
0010
0001
2000
0000
3010
0000
,
0120
0000
0130
0000
0010
1000
0001
0000
2000
0000
3100
0000
0120
0000
0130
1000
,
0002
0000
0103
0000
0110
0000
0100
0001
0010
0000
0110
0000
0100
1000
0010
0000
,
0120
0000
0130
0001
0010
0000
0100
0000
1200
0000
1300
0000
0010
0000
0210
0000
,
0302
1003
2002
0000
0000
0000
0000
0000
,
0000
0000
0000
0000
,
0000
0000
0000
0000
,
0000
0000
0000
0000
,
0000
3003
0000
0000
0000
0000
0000
0000
;
