#TITLE:Trust Me;
#SUBTITLE:;
#ARTIST:Yuya Matsushita;
#TITLETRANSLIT:;
#SUBTITLETRANSLIT:;
#ARTISTTRANSLIT:;
#GENRE:;
#CREDIT:;
#MUSIC:Trust Me.ogg;
#BANNER:Trust Me.png;
#BACKGROUND:Trust Me-bg.png;
#CDTITLE:;
#SAMPLESTART:10.409;
#SAMPLELENGTH:14.694;
#SELECTABLE:YES;
#OFFSET:1.836;
#BPMS:0.000=98.000;
#STOPS:;
#BGCHANGES:12.500=Trust Me.mp4=1.000=0=0=1,
198.000=Trust Me-bg.png=1.000=0=0=1,
99999.000=-nosongbg-=1.000=0=0=0=StretchNoLoop====
;
#FGCHANGES:;

//--------------- dance-single - OrangeRight ----------------
#NOTES:
     dance-single:
     OrangeRight:
     Beginner:
     2:
     0.105952,0.142188,0.033333,0.05,0,89,85,4,6,0,0,0.105952,0.142188,0.033333,0.05,0,89,85,4,6,0,0:
0000
0000
0000
0000
,
0000
0000
0000
0000
,
0000
0000
0000
0000
,
0000
0000
0000
0000
,
0000
0000
0000
0000
,
1000
0000
1000
0000
,
0001
0000
0001
0000
,
0100
0000
0010
0000
,
1000
0000
1000
0000
,
0001
0000
0001
0000
,
1000
0000
1000
0000
,
0100
0000
0010
0000
,
0001
0000
0001
0000
,
0200
0300
0000
0000
,
0020
0030
0000
0000
,
2000
3000
0000
0000
,
0001
0000
1000
0000
,
0200
0300
0000
0000
,
0020
0030
0000
0000
,
0002
0003
0000
0000
,
1000
0000
0001
0000
,
1000
0000
0100
0000
,
0010
0000
0001
0000
,
0100
0000
0010
0000
,
1000
0000
0001
0000
,
1000
0000
1000
0000
,
0001
0000
0001
0000
,
0010
0000
0100
0000
,
1000
0001
1000
0000
,
0001
0000
0001
0000
,
1000
0000
1000
0000
,
0010
0000
0100
0000
,
0001
1000
0001
0000
,
1000
0000
0100
0000
,
1000
0000
0010
0000
,
0100
0000
0001
0000
,
0010
0010
0010
0000
,
0001
0000
0100
0000
,
0010
0000
1000
0000
,
0100
0000
0010
0000
,
0001
0001
0001
0000
,
1001
0000
0000
0000
,
1001
0000
0000
0000
,
0001
0001
0000
0000
,
1000
0001
1000
0000
,
1001
0000
0000
0000
,
1001
0000
0000
0000
,
1000
1000
0000
0000
,
0001
1000
0001
1000
;

//--------------- dance-single - OrangeRight ----------------
#NOTES:
     dance-single:
     OrangeRight:
     Easy:
     4:
     0.195238,0.183281,0,0.2,0,164,164,0,24,0,0,0.195238,0.183281,0,0.2,0,164,164,0,24,0,0:
0000
0000
0000
0000
,
0000
0000
0000
0000
,
0000
0000
0000
0000
,
0000
0000
0000
0000
,
1000
0001
1000
0001
,
1000
1000
0000
0100
,
0010
0010
0000
0001
,
0100
0100
0000
0010
,
2000
3002
2003
3002
,
1003
1000
0000
0001
,
0100
0100
0000
0010
,
1000
0100
0010
0001
,
0200
0320
0230
0320
,
2030
3000
1000
1000
,
0002
0003
0001
0001
,
0200
0300
0100
0100
,
0001
1000
0001
1000
,
0002
0003
1000
0001
,
2000
3000
0001
1000
,
0200
0300
0010
0100
,
1000
0001
1000
0001
,
1000
0000
0100
1000
,
0010
0000
0100
0001
,
0010
0000
0100
1000
,
0001
1000
1000
0001
,
1000
1000
0010
0100
,
0001
0001
0010
0100
,
1000
0001
0100
0010
,
2000
3200
0320
0032
,
1003
1000
0100
0010
,
0001
0001
1000
0100
,
0020
0001
0031
0000
,
0001
1000
0001
1000
,
0001
0001
0100
0010
,
1000
1000
0100
0010
,
0001
1000
0010
0100
,
0002
0023
0230
2300
,
3001
0001
0010
0100
,
1000
0010
0100
0001
,
0020
0100
0130
0000
,
0100
1000
0010
0001
,
0010
0010
1000
0100
,
0010
0010
0001
0100
,
0010
0010
1000
0001
,
0000
1000
0000
0100
0000
0010
0000
0001
,
0100
0100
0001
0010
,
0100
0100
1000
0010
,
0100
0100
0001
1000
,
0000
0001
0000
0100
0000
0010
0000
1000
;

//--------------- dance-single - OrangeRight ----------------
#NOTES:
     dance-single:
     OrangeRight:
     Medium:
     8:
     0.341667,0.325833,0.341667,0.15,0.025,287,246,41,18,0,0,0.341667,0.325833,0.341667,0.15,0.025,287,246,41,18,0,0:
0000
0000
0000
0000
,
0000
0000
0000
0000
,
0000
0000
0000
0000
,
0000
0000
0000
0000
,
1000
0001
1000
0001
1000
0001
1000
0000
,
2001
0000
3100
0000
1000
0001
0100
0000
,
0102
0000
1003
0000
0001
1000
0010
0000
,
1000
0001
1000
0000
0001
0100
0001
0000
,
0101
0101
1001
1100
,
2001
0000
3010
0000
1000
0001
0010
0000
,
0001
0100
0010
0000
1000
0001
1000
0200
,
0000
0000
1300
0100
0010
0001
1000
0000
,
1010
1010
1001
0011
,
0012
0000
0103
0000
0001
0100
0010
0000
,
2010
0000
3100
0000
1000
0100
0010
0000
,
0210
0000
1300
0000
0100
1000
0001
0000
,
1000
0001
1000
0001
0100
0001
0010
0000
,
0012
0000
1003
0000
0001
1000
0100
1000
,
2010
0000
3001
0000
0001
0100
0010
0000
,
0210
0000
0301
0000
0100
0001
1000
0000
,
0001
1000
0001
1000
0100
1000
0010
0000
,
1000
0100
0010
0001
2000
0000
3000
0000
,
0001
0100
0010
1000
0002
0000
0003
0000
,
0010
0100
1000
0001
0200
0000
0300
0000
,
0101
0101
1001
1100
,
2100
0000
3010
0000
1000
0010
0100
0000
,
0102
0000
0013
0000
0001
0010
0100
0000
,
1000
0001
1000
0000
0010
0100
0001
0000
,
0101
1001
1100
1001
,
0012
0000
0103
0000
0100
0010
1000
0000
,
0001
1000
0001
0000
1000
0100
0010
0002
,
0000
0000
0103
0000
0001
0100
0010
0000
,
1000
0001
1000
0001
0100
0010
0100
0000
,
0001
0100
0001
0000
1000
0100
0010
0000
,
0001
0010
0001
0000
1000
0010
0100
0000
,
0001
1000
0001
0000
1000
0001
0100
0000
,
0101
1001
1010
1001
,
1000
0100
1000
0000
0001
0100
0010
0000
,
1000
0001
1001
0000
0001
0100
0010
2000
,
0000
0000
3001
0000
0001
1000
0100
0000
,
1100
1001
0101
1001
,
1000
0000
1000
0000
0000
0000
0001
0000
0001
0000
0000
0100
0000
0000
0100
0000
,
0001
0000
0001
0000
0000
0000
1000
0000
1000
0000
0000
0100
0000
0000
0100
0000
,
1000
0000
0001
0000
0000
0000
0100
0000
0010
0000
0000
1000
0000
0000
0100
0000
,
0000
1100
0000
1001
0000
0011
0000
1001
,
0001
0000
0001
0000
0000
0000
1000
0000
1000
0000
0000
0010
0000
0000
0010
0000
,
1000
0000
1000
0000
0000
0000
0001
0000
0001
0000
0000
0010
0000
0000
0010
0000
,
0100
0000
0100
0000
0000
0000
1000
0000
0010
0000
0000
0100
0000
0000
0001
0000
,
1000
0001
1000
0001
0100
0010
0100
0010
;

//--------------- dance-single - OrangeRight ----------------
#NOTES:
     dance-single:
     OrangeRight:
     Hard:
     10:
     0.430952,0.427656,0.383333,0.108333,0.2125,362,316,46,13,0,0,0.430952,0.427656,0.383333,0.108333,0.2125,362,316,46,13,0,0:
0000
0000
0000
0000
,
0000
0000
0000
0000
,
0000
0000
0000
0000
,
0000
0000
0000
0000
,
1000
0001
0100
0001
0010
0001
1001
0000
,
1000
0001
0001
0100
0001
0010
0100
0010
,
0001
1000
1000
0010
1000
0100
0010
0100
,
1000
0010
0010
0100
0001
1000
0100
0000
,
1100
0110
0011
1001
,
1000
0010
0010
0100
0001
0010
0100
1000
,
0001
1000
1001
0000
1000
0010
0100
0002
,
0010
0000
0000
0000
1003
0000
0100
0000
0010
0000
0001
1000
0001
0000
0000
0000
,
1001
0110
1010
0101
,
1002
0000
0000
0000
0013
0000
0000
0010
0000
0100
0010
0000
0001
0000
0000
0000
,
2001
0000
0000
0000
3010
0000
0000
0010
0000
0100
0010
0000
1000
0000
0000
0000
,
1000
0000
0001
0000
1000
0000
0010
0100
0000
0100
0001
0000
0010
0000
0100
0000
,
1000
0000
0010
0000
0100
0000
0001
0010
0000
0010
0001
0000
1000
0000
0001
0000
,
1002
0000
0000
0000
0013
0000
0010
0001
0000
0001
0000
0001
1000
0000
0000
0000
,
2001
0000
0000
0000
3100
0000
0100
1000
0000
1000
0000
1000
0020
0000
0000
0000
,
1030
0000
0001
0000
1000
0100
0000
0100
0000
0100
0010
0000
0001
0000
1000
0000
,
0001
0000
0010
0000
0100
0000
1000
0010
0000
0010
0100
0000
0001
0000
1000
0000
,
0001
0000
0010
0000
0100
0000
1000
0000
0010
0000
0000
1000
0000
0000
0010
0000
,
1000
0000
0100
0000
0010
0000
0001
0000
0100
0000
0000
0001
0000
0000
0100
0000
,
0001
0000
0010
0000
0100
0000
1000
0000
0010
0000
0000
0100
0000
0000
0010
0000
,
1000
0000
0000
1000
0100
0000
0000
0100
0001
0000
0000
0001
0200
0000
0000
0000
,
1300
0000
0001
0000
0001
0000
0100
0010
0100
0000
0001
0000
0010
0000
0100
0000
,
1000
0000
0010
0000
0010
0000
0100
0001
0100
0000
0001
0000
0010
0000
0100
0000
,
1000
0000
0100
0000
0100
0000
1000
0001
1000
0000
0010
0000
0100
0000
0000
0000
,
0110
0101
0011
1001
,
0001
0000
1000
0000
1000
0000
0010
0100
0010
0000
1000
0000
0100
0000
1000
0000
,
0010
0100
0101
0000
0001
0010
0100
2000
,
0010
0000
0000
0000
3001
0000
0100
0000
0010
0000
1000
0010
1000
0000
0000
0000
,
1010
1100
0110
0011
,
0001
0000
1000
0000
1000
0000
0001
0100
0001
0000
1000
0100
0000
1000
0100
0000
,
1000
0000
0001
0000
0001
0000
1000
0010
1000
0000
0001
0010
0000
0001
0010
0000
,
0001
0000
0100
0000
0100
0000
0001
1000
0001
0000
1000
0010
1000
0000
0000
0000
,
1010
1100
0110
1001
,
1000
0000
0001
0000
0001
0000
0100
0010
0100
0000
0001
1000
0000
1000
0001
0000
,
0010
0100
0110
0000
0010
0001
0100
0020
,
1000
0000
0000
0000
1030
0000
0100
0000
0010
0000
0001
1000
0001
0000
0000
0000
,
1001
0110
0011
1100
,
1000
0000
0001
0000
1000
0000
0010
0000
0100
0000
0000
0001
0000
0000
0100
0000
,
0001
0000
1000
0000
0001
0000
0010
0000
0100
0000
0000
1000
0000
0000
0100
0000
,
1000
0000
0001
0000
1000
0000
0010
0000
0100
0000
0001
0100
0000
0100
0001
0000
,
0000
0011
0000
0110
0000
1100
0000
1001
,
0001
0000
1000
0000
0001
0000
0100
0000
0010
0000
0000
1000
0000
0000
0100
0000
,
1000
0000
0001
0000
1000
0000
0010
0000
0100
0000
0000
0001
0000
0000
1000
0000
,
0100
0000
0010
0000
0001
0000
0100
0000
0001
0000
0010
0001
0000
0001
0010
0000
,
0000
0011
0000
0101
0000
1100
0000
1010
;

//--------------- dance-single - OrangeRight ----------------
#NOTES:
     dance-single:
     OrangeRight:
     Challenge:
     13:
     0.617857,0.570208,0.466667,0.133333,0.570833,519,463,56,16,0,0,0.617857,0.570208,0.466667,0.133333,0.570833,519,463,56,16,0,0:
0000
0000
0000
0000
,
0000
0000
0000
0000
,
0000
0000
0000
0000
,
0000
0000
0000
0000
,
1000
0000
0010
0100
0001
0000
1000
0100
1000
0000
0001
0100
0010
0000
1000
0010
,
1000
0000
1100
0000
0110
0000
0010
0000
0001
0000
0100
0010
0000
0010
1000
0000
,
0100
0000
0110
0000
0011
0000
0010
0000
0001
0000
0100
0010
0000
0010
1000
0000
,
0001
0000
1001
0000
0110
0000
0010
0000
1000
0000
0100
0000
0010
0000
0100
1000
,
0100
0000
0100
0001
0100
0000
0010
1000
0010
0000
0010
0001
0010
0000
0001
0100
,
0010
0000
1010
0000
1001
0000
0001
0000
0010
0000
0100
1000
0000
1000
0100
0000
,
0010
0000
0110
0000
1001
0000
0001
0000
1000
0000
0010
0100
0001
0000
2001
0000
,
0100
0000
0010
0000
3002
0000
1000
0000
0103
0000
0001
0010
0100
0000
1000
0100
,
0010
0000
0010
0100
1000
0000
1000
0010
0100
0001
0010
0100
1000
0000
0001
1000
,
0002
0000
0100
0000
1003
0000
0001
0100
0000
0100
0010
0000
1000
0000
0001
0000
,
2000
0000
0100
0000
3001
0000
1000
0010
0000
0010
0100
0000
0001
0000
0010
0000
,
0002
0000
1000
0000
0013
0000
0001
0100
0000
0100
0010
0000
1000
0000
1001
0000
,
0001
0010
0001
0010
1000
0000
0010
0001
0000
1000
0010
0000
0100
0000
0001
0000
,
2001
0000
0010
0000
3001
0000
1000
0100
0000
0010
0000
0100
1000
0000
0001
1000
,
0002
0000
0010
0000
1003
0000
0001
0010
0000
0100
0000
0010
0002
0000
1000
0000
,
2003
0000
0001
0000
3010
1000
0000
0100
0000
0010
0001
0000
0011
0000
1001
0000
,
1000
0100
1000
0100
0001
0000
0100
1000
0000
0001
0100
0000
0010
1000
0100
0010
,
0001
0000
0100
0001
1000
0000
0100
1000
0001
0000
0001
0100
0000
0100
0010
0000
,
1000
0000
0100
1000
0001
0000
0100
0001
1000
0000
1000
0100
0000
0100
0010
0000
,
0001
0000
0010
0001
0100
0000
0010
1000
0100
0000
0010
0001
1000
0000
0010
1000
,
0001
0010
0000
0010
0100
0000
0100
1000
0000
1000
0010
0000
1000
0001
1000
0001
,
1000
0000
1100
0000
1001
0000
0001
0100
0010
0000
1000
0010
0000
0010
1000
0000
,
0001
0000
0011
0000
1001
0000
1000
0010
0100
0000
0001
0100
0000
0100
0001
0000
,
1000
0000
1001
0000
0110
0000
0100
0001
1000
0000
0100
1000
0001
0000
0100
0001
,
0100
0000
0100
1000
0100
0000
0010
0001
0010
0000
0010
1000
0010
0000
1000
0100
,
0010
0000
0011
0000
0101
0000
0100
0010
1000
0000
0100
1000
0000
0001
0100
0000
,
0010
0000
0110
0000
1001
0000
0001
0000
0010
0100
1000
0000
0001
0000
1002
0000
,
0100
0000
0010
0000
2003
0000
0001
0000
3100
0000
1000
0100
0010
0000
0001
0100
,
0010
1000
0001
1000
0100
0000
1000
0100
0010
0001
1000
0001
0100
0000
0001
0000
,
2001
0000
0010
0000
3010
0000
1000
0100
0010
0000
0001
0100
0000
0001
1000
0000
,
1002
0000
0010
0000
0013
0000
0001
0010
0100
0000
1000
0010
0000
1000
0100
0000
,
1000
0000
0110
0000
1001
0000
0001
0010
0100
0000
1000
0001
1000
0000
0100
1000
,
0100
0000
0100
0001
0100
0000
0010
1000
0010
0000
0010
0001
0010
0000
0001
0000
,
1002
0000
0010
0000
0013
0000
0001
1000
0010
0000
0010
0100
0000
0100
0001
0000
,
0011
0000
1100
0000
1001
0000
1000
0000
0001
0000
0100
0010
1000
0000
2001
0000
,
0010
0000
0100
0000
3002
0000
0010
0000
1003
0000
0001
0100
0010
0000
1000
0010
,
0001
0000
0001
0010
1000
0000
1000
0100
0001
0100
0010
0100
1000
0000
1001
0000
,
0110
0000
1010
0000
0010
1000
0000
1000
0100
0000
0100
0010
0000
0010
0001
0000
,
0011
0000
0101
0000
0001
0100
0010
1000
0100
0000
0010
0001
0000
0001
0100
0000
,
0110
0000
1001
0000
1000
0010
0100
0001
1000
0000
0001
1000
0000
1000
0001
0000
,
1000
1100
0001
0101
1000
1010
0001
0011
,
0101
0000
0110
0000
0010
1000
0100
0001
0100
0000
0010
0001
0000
0001
1000
0000
,
1100
0000
0110
0000
0010
0001
0100
1000
0100
0000
0010
1000
0000
1000
0001
0000
,
0011
0000
1100
0000
0100
1000
0010
0001
0010
0000
0100
0001
0000
1000
0100
0000
,
1000
1010
0001
0101
1000
1100
0001
0011
;

//--------------- dance-double - OrangeRight ----------------
#NOTES:
     dance-double:
     OrangeRight:
     Easy:
     4:
     0.189286,0.204167,0.05,0.291667,0,159,153,6,35,0,0,0.189286,0.204167,0.05,0.291667,0,159,153,6,35,0,0:
00000000
00000000
00000000
00000000
,
00000000
00000000
00000000
00000000
,
00000000
00000000
00000000
00000000
,
00000000
00000000
00000000
00000000
,
10000000
00010000
10000000
00010000
,
01000000
01000000
00000000
00010000
,
00100000
00100000
00000000
00001000
,
00010000
00010000
00000000
00000100
,
00001000
00000001
00000001
00001000
,
00000010
00000010
00000000
00001000
,
00000001
00001000
00000100
00000010
,
00000002
00000000
00001003
00000000
,
00000002
00000203
00000320
00002030
,
00003200
00000300
00001000
00000001
,
00000200
00000300
00000001
00001000
,
00000020
00000030
00001000
00000010
,
00010000
00001000
00100000
00000000
,
00020000
00030000
01000000
00100000
,
20000000
30000000
01000000
01000000
,
00200000
00300000
00010000
10000000
,
00100000
01000000
00010000
00100000
,
00001000
00001000
00010000
00000000
,
00010000
00010000
00001000
00000000
,
00001000
00100000
00010000
00000000
,
01000000
00100000
10000000
00010000
,
00100000
00100000
01000000
10000000
,
00100000
00100000
01000000
00010000
,
00100000
00001000
00010000
00010000
,
00000200
00002300
00003020
00002030
,
00003001
00000001
00000010
00000100
,
00001000
00001000
00000010
00000100
,
00000002
00000000
00001003
00000000
,
00002000
00003200
00000320
00000032
,
00001003
00000100
00010000
00010000
,
00001000
00100000
00010000
00010000
,
10000000
00010000
01000000
01000000
,
00020000
02030000
03200000
20300000
,
30010000
00010000
00100000
00001000
,
00010000
00000100
00010000
00000000
,
00002000
00000000
00013000
00000000
,
00020000
00030200
00002300
00003001
,
00001001
00000000
00001000
00000001
,
00001001
00000000
00000001
00001000
,
00001100
00000000
00001000
00000100
,
00020000
00032000
00203000
00310000
,
10010000
00000000
10000000
00010000
,
10010000
00000000
00010000
10000000
,
10100000
00000000
10000000
00100000
,
02000000
03020000
00230000
00302000
,
00003000
00000000
00000000
00000000
;

//--------------- dance-double - OrangeRight ----------------
#NOTES:
     dance-double:
     OrangeRight:
     Medium:
     8:
     0.325,0.325833,0.183333,0.241667,0.025,273,251,22,29,0,0,0.325,0.325833,0.183333,0.241667,0.025,273,251,22,29,0,0:
00000000
00000000
00000000
00000000
,
00000000
00000000
00000000
00000000
,
00000000
00000000
00000000
00000000
,
00000000
00000000
00000000
00000000
,
10000000
00010000
10000000
00010000
10000000
00010000
10000000
00000000
,
20010000
00000000
30100000
00000000
00100000
10000000
00100000
00000000
,
20100000
00000000
31000000
00000000
10000000
01000000
00100000
00000000
,
00120000
00000000
01030000
00000000
01000000
00001000
00010000
00000000
,
00021000
00000000
00030200
00000000
00002300
00000000
00003010
00001000
,
00001002
00000000
00000013
00000000
00000010
00000001
00000010
00000000
,
00000001
00000100
00000010
00000000
00001000
00000100
00001000
00000200
,
00000000
00000000
00010300
00000000
00001000
00010000
00001000
00000000
,
00200000
00320000
02030000
03200000
,
20300000
00000000
30010000
00000000
10000000
00010000
01000000
00000000
,
00020000
00000000
01030000
00000000
01000000
00001000
00010000
00000000
,
00002000
00000000
00013000
00000000
00010000
00000100
00001000
00000000
,
00000010
00001000
00000010
00000000
00000100
00000001
00000100
00000000
,
00000002
00000000
00001003
00000000
00001000
00000100
00000010
00000000
,
00000200
00000000
00001300
00000000
00000100
00010000
00002000
00000000
,
00203000
00000000
00310000
00000000
00100000
00010000
01000000
00000000
,
00100000
10000000
00100000
00000000
01000000
00010000
01000000
00000000
,
00010000
00100000
00010000
00100000
00010000
00000000
01000000
00000000
,
00001000
00010000
00001000
00010000
00001000
00000000
00010000
00000000
,
00000100
00001000
00000100
00001000
00000100
00000000
00001000
00000000
,
00001001
00001100
00001001
00000101
,
00000210
00000000
00000301
00000000
00000001
00000010
00000100
00000000
,
00000210
00000000
00001300
00000000
00000100
00010000
00001000
00000000
,
00012000
00000000
00103000
00000000
00100000
00010000
01000000
00000000
,
00100000
10000000
00100000
01000000
00010000
01000000
00100000
00000000
,
01200000
00000000
10300000
00000000
10000000
01000000
00100000
00000000
,
00010000
10000000
00010000
00000000
10000000
01000000
00100000
00020000
,
00000000
00000000
01030000
00000000
00010000
01000000
00010000
00000000
,
10000000
00100000
01000000
00100000
10000000
00010000
00100000
00000000
,
00010000
00100000
01000000
00100000
00010000
01000000
00001000
00000000
,
00010000
00001000
00010000
00000100
00001000
00000010
00001000
00000000
,
00000001
00001000
00000010
00000100
00000001
00001000
00000001
00000000
,
00002001
00003200
00000320
00000032
,
00001003
00000100
00000010
00000100
00001000
00000010
00010000
00000000
,
00001000
00100000
00010000
00000000
01000000
00100000
10000000
00020000
,
00000000
00000000
10030000
00000000
00010000
10000000
00010000
00000000
,
10010000
00110000
10010000
10100000
,
10000000
00000000
00010000
00000000
10000000
00000000
00000000
00000000
00010000
00000000
00000000
00010000
00000000
00000000
00010000
00000000
,
00100000
00000000
00001000
00000000
00100000
00000000
00000000
00000000
00001000
00000000
00000000
00001000
00000000
00000000
00001000
00000000
,
00010000
00000000
00000100
00000000
00010000
00000000
00000000
00000000
00000100
00000000
00000000
00000100
00000000
00000000
00000100
00000000
,
00000000
00001100
00000000
00001100
00000000
00001001
00000000
00001001
,
00000001
00000000
00001000
00000000
00000100
00000000
00000000
00000000
00001000
00000000
00000000
00001000
00000000
00000000
00001000
00000000
,
00000100
00000000
00010000
00000000
00001000
00000000
00000000
00000000
00010000
00000000
00000000
00010000
00000000
00000000
00010000
00000000
,
00001000
00000000
00100000
00000000
00010000
00000000
00000000
00000000
10000000
00000000
00000000
10000000
00000000
00000000
10000000
00000000
,
00010000
10000000
00010000
10000000
00100000
01000000
00100000
01000000
;

//--------------- dance-double - OrangeRight ----------------
#NOTES:
     dance-double:
     OrangeRight:
     Hard:
     10:
     0.407143,0.386927,0.4,0.125,0.120833,342,294,48,15,0,0,0.407143,0.386927,0.4,0.125,0.120833,342,294,48,15,0,0:
00000000
00000000
00000000
00000000
,
00000000
00000000
00000000
00000000
,
00000000
00000000
00000000
00000000
,
00000000
00000000
00000000
00000000
,
10000000
00010000
00100000
00010000
01000000
00010000
10010000
00000000
,
00010000
10000000
10000000
00010000
01000000
00010000
00100000
00000000
,
00010000
01000000
01000000
00001000
00010000
00001000
00100000
00000000
,
00001000
00010000
00010000
00000100
00001000
00000010
00001000
00000000
,
00001010
00000110
00000101
00001001
,
00001000
00000001
00000001
00001000
00000100
00001000
00000010
00000000
,
00001000
00000001
00001001
00000000
00000001
00000100
00000010
00002000
,
00000100
00000000
00003001
00001000
00000100
00010000
00000100
00000000
,
00010100
00011000
01001000
01010000
,
00120000
00000000
10030000
00000000
00010000
10000000
00010000
01000000
,
01020000
00000000
00130000
00000000
00010000
00100000
00001000
00010000
,
00021000
00000000
00030100
00000000
00000100
00001000
00000010
00000100
,
00000001
00000000
00000100
00000000
00000010
00000000
00001000
00000001
00000000
00001000
00000001
00000000
00001000
00000000
00000100
00000000
,
00002100
00000000
00003001
00000000
00001000
00000001
00001000
00000010
,
00002010
00000000
00003100
00000000
00001000
00000100
00010000
00001000
,
00012000
00000000
00103000
00000000
00100000
00010000
01000000
00100000
,
10000000
00000000
00100000
00000000
01000000
00000000
00010000
00100000
00000000
00010000
00100000
00000000
01000000
00000000
10000000
00000000
,
00010000
00000000
10000000
00000000
00100000
00000000
01000000
00000000
00010000
00000000
00000000
00100000
00000000
00000000
00100000
00000000
,
00010000
00000000
00100000
00000000
00001000
00000000
00010000
00000000
00000100
00000000
00000000
00001000
00000000
00000000
00001000
00000000
,
00000010
00000000
00000100
00000000
00000001
00000000
00000010
00000000
00000100
00000000
00000000
00000100
00000000
00000000
00000010
00000000
,
00000001
00000000
00000000
00000001
00000100
00000000
00000000
00000100
00001000
00000000
00000000
00001000
00000200
00000000
00000000
00000000
,
00000301
00000010
00000010
00000001
00000100
00000001
00001000
00000100
,
00001000
00000010
00000010
00000100
00000010
00001000
00000100
00010000
,
00001000
00010000
00010000
00000100
00010000
00001000
00100000
00000000
,
00110000
01100000
11000000
10010000
,
10000000
00100000
00100000
10000000
00100000
01000000
00010000
00000000
,
10000000
00010000
10010000
00000000
10000000
01000000
00010000
02000000
,
00100000
00000000
13000000
00010000
00100000
00001000
00010000
00000000
,
00010100
00001100
00001010
00001001
,
00000002
00000000
00000100
00000000
00000103
00000000
00000001
00000010
00000001
00000000
00000100
00000000
00000010
00000000
00001000
00000000
,
00000020
00000000
00001000
00000000
00001030
00000000
00000010
00001000
00000010
00000000
00001000
00000000
00000100
00000000
00010000
00000000
,
00002000
00000000
00100000
00000000
00103000
00000000
00001000
00010000
00001000
00000000
00100000
00000000
00010000
00000000
00000000
00000000
,
00110000
01010000
01100000
10100000
,
00200000
00000000
10000000
00000000
10300000
00000000
00100000
10000000
00100000
00000000
01000000
00000000
00010000
00000000
10000000
00000000
,
01000000
10000000
11000000
00000000
10000000
00100000
00010000
00200000
,
01000000
00000000
00000000
00000000
10300000
00000000
01000000
00000000
00100000
00000000
00010000
01000000
00010000
00000000
00000000
00000000
,
01010000
01001000
00011000
00010100
,
00000100
00000000
00001100
00000000
00000000
00000000
00000100
00000000
00001000
00000000
00000000
00000010
00000000
00000000
00010000
00000000
,
00001000
00000000
00011000
00000000
00000000
00000000
00001000
00000000
00100000
00000000
00000000
00010000
00000000
00000000
01000000
00000000
,
00010000
00000000
01010000
00000000
00000000
00000000
01000000
00000000
00010000
00000000
00100000
01000000
00000000
01000000
10000000
00000000
,
00000000
11000000
00000000
10010000
00000000
00110000
00000000
01010000
,
00010000
00000000
00110000
00000000
00000000
00000000
00100000
00000000
00010000
00000000
00000000
01000000
00000000
00000000
00001000
00000000
,
00010000
00000000
00011000
00000000
00000000
00000000
00010000
00000000
00000100
00000000
00000000
00001000
00000000
00000000
00000010
00000000
,
00001000
00000000
00001010
00000000
00000000
00000000
00000010
00000000
00001000
00000000
00000001
00000010
00000000
00000100
00001000
00000000
,
00000000
00001100
00000000
00010010
00000000
00101000
00000000
01010000
;

//--------------- dance-double - OrangeRight ----------------
#NOTES:
     dance-double:
     OrangeRight:
     Challenge:
     13:
     0,0,0,0,0:
00000000
00000000
00000000
00000000
,
00000000
00000000
00000000
00000000
,
00000000
00000000
00000000
00000000
,
00000000
00000000
00000000
00000000
,
10000000
00000000
01000000
10000000
01000000
00000000
00100000
01000000
00100000
00000000
00010000
00100000
00010000
00000000
10000000
00010000
,
20000000
00100000
30100000
10000000
01000000
00100000
00010000
01000000
,
00020000
00100000
00130000
00010000
00100000
00001000
00010000
00000100
,
00002000
00000000
00000010
00000000
00003010
00000000
00001000
00000000
00000010
00000000
00000100
00000000
00000001
00000000
00001000
00000100
,
00001000
00000000
00000001
00000100
00000001
00000000
00001000
00000010
00001000
00000000
00000001
00000010
00000001
00000000
00001000
00000000
,
00000002
00000010
00000013
00000001
00000100
00000010
00001000
00000100
,
00010000
00001000
00011000
00000000
00010000
00001000
00100000
00120000
,
01000000
00000000
10030000
00000000
20010000
00000000
00100000
00000000
31000000
00000000
10000000
00100000
10000000
00000000
00010000
01000000
,
00010000
00000000
10000000
01000000
10000000
00000000
00010000
00100000
00010000
01000000
00100000
10000000
00010000
00000000
00010000
00000000
,
10020000
00000000
01000000
00000000
10030000
00000000
10000000
01000000
00000000
01000000
10000000
00000000
00100000
00000000
01000000
00000000
,
01020000
00000000
00100000
00000000
01030000
00000000
01000000
00010000
00000000
00010000
00100000
00000000
00001000
00000000
00010000
00000000
,
00021000
00000000
00000100
00000000
00031000
00000000
00010000
00000100
00000000
00001000
00000010
00000000
00000100
00000000
00000001
00000000
,
00001000
00000100
00001000
00000000
00000010
00000000
00000100
00000001
00000000
00001000
00000100
00000000
00001000
00000000
00000001
00000000
,
00002001
00000000
00000010
00000000
00003001
00000000
00000001
00000010
00000000
00000100
00000000
00001000
00000010
00000000
00001000
00000000
,
00002010
00000000
00000100
00000000
00003010
00000000
00000010
00001000
00000000
00000100
00000000
00010000
00002000
00000000
00013000
00000000
,
00012000
00000000
00100000
00000000
00013000
00001000
00000000
00100000
00000000
00010000
01000000
00000000
00100000
00000000
10000000
00000000
,
00010000
01000000
00010000
00000000
10000000
00000000
00010000
00100000
00000000
01000000
10000000
00000000
00010000
00000000
01000000
00000000
,
00010000
00000000
00100000
00000000
00001000
00000000
00010000
00000000
00000010
00000000
00001000
00000100
00000000
00001000
00000010
00000000
,
00001000
00000000
00000100
00000000
00010000
00000000
00001000
00000000
01000000
00000000
00010000
00100000
00000000
00010000
01000000
00000000
,
00100000
00000000
10000000
00000000
01000000
00000000
00010000
00000000
01000000
00000000
10000000
01000000
10000000
00000000
00010000
00000000
,
10000000
00100000
00000000
00100000
01000000
00000000
01000000
00010000
00000000
00010000
00100000
00000000
00010000
10000000
00010000
10000000
,
00010000
00000000
01010000
00000000
01100000
00000000
01000000
00100000
10000000
00000000
01000000
00100000
00000000
00100000
00010000
00000000
,
10000000
00000000
11000000
00000000
01100000
00000000
00100000
00010000
10000000
00000000
00100000
01000000
00000000
01000000
00010000
00000000
,
00100000
00000000
00101000
00000000
00011000
00000000
00001000
00010000
00000100
00000000
00001000
00000010
00000100
00000000
00000001
00000100
,
00000002
00000000
00001003
00000100
00002000
00000000
00003001
00000010
00000002
00000000
00001003
00000010
00002000
00000000
00003001
00000000
,
00001000
00000000
00001100
00000000
00000110
00000000
00000010
00000001
00001000
00000000
00000010
00010000
00000000
00010000
00001000
00000000
,
00010000
00001000
00011000
00000000
00001000
00010000
00000100
00002100
,
00000010
00000000
00003001
00000000
00001002
00000000
00000100
00000000
00000013
00000000
00000001
00000100
00000001
00000000
00001000
00000100
,
00001000
00000010
00000100
00000001
00001000
00000000
00000001
00000100
00000001
00000010
00000100
00001000
00000001
00000000
00001001
00000000
,
00000002
00000000
00000100
00000000
00001003
00000000
00001000
00000001
00000010
00000000
00000010
00000100
00000000
00000100
00001000
00000000
,
00000200
00000000
00010000
00000000
00001300
00000000
00001000
00000010
00010000
00000000
00001000
00100000
00000000
00100000
00010000
00000000
,
01000000
00000000
01100000
00000000
10010000
00000000
10000000
00010000
01000000
00000000
00010000
10000000
01000000
00000000
00100000
00010000
,
00100000
00000000
00100000
10000000
00100000
00000000
01000000
00010000
01000000
00000000
01000000
10000000
01000000
00000000
10000000
00000000
,
20010000
00000000
00100000
00000000
30010000
00000000
00010000
10000000
01000000
00000000
01000000
00100000
00000000
00100000
00010000
00000000
,
10000000
10010000
01100000
01000000
00010000
00100000
01000000
21000000
,
00100000
00000000
30010000
00000000
01020000
00000000
00100000
00000000
01030000
00000000
00010000
00100000
00001000
00000000
00010000
00000100
,
00001000
00000100
00010000
00001000
00100000
00000000
00010000
01000000
00001000
00010000
00000010
00010000
00001000
00000000
00010000
00000000
,
00011000
00000000
00101000
00000000
00001000
00100000
00000000
00100000
00010000
00000000
00010000
01000000
00000000
01000000
00001000
00000000
,
00011000
00000000
00010100
00000000
00010000
00000100
00001000
00000100
00010000
00000000
00001000
00100000
00000000
00100000
00010000
00000000
,
00110000
00000000
01010000
00000000
00010000
01000000
10000000
01000000
00100000
00000000
10000000
00010000
00000000
10000000
00100000
00000000
,
10000000
11000000
00010000
01010000
00100000
00101000
00000100
00010100
,
00011000
00000000
00010010
00000000
00010000
00000010
00001000
00000010
00010000
00000000
00001000
00100000
00000000
00100000
00001000
00000000
,
00011000
00000000
01001000
00000000
00001000
01000000
00010000
01000000
00001000
00000000
00010000
00000100
00000000
00000100
00001000
00000000
,
00001100
00000000
00001010
00000000
00001000
00000010
00000001
00000010
00000100
00000000
00000001
00000010
00000000
00000100
00001000
00000000
,
00000001
00000011
00001000
00001100
00000001
00000101
00001000
00001010
;
