#TITLE:驫麤~とりぷるばか~;
#SUBTITLE:;
#ARTIST:ラマーズP feat. 初音ミク;
#TITLETRANSLIT:Triple Baka;
#SUBTITLETRANSLIT:;
#ARTISTTRANSLIT:LamazeP;
#GENRE:;
#CREDIT:;
#BANNER:Triple Baka-banner.png;
#BACKGROUND:Triple Baka-bg.png;
#LYRICSPATH:;
#CDTITLE:;
#MUSIC:Triple Baka.ogg;
#OFFSET:2.412000;
#SAMPLESTART:48.254669;
#SAMPLELENGTH:15.000000;
#LASTBEATHINT:4.236000;
#SELECTABLE:YES;
#BPMS:0.000000=180.000000
;
#STOPS:
;
#BGCHANGES:2.750=Triple Baka.avi=1.000=0=0=1=====,
99999=-nosongbg-=1.000=0=0=0 // don't automatically add -songbackground-
;
#KEYSOUNDS:;
#ATTACKS:;

//---------------dance-single - Lunaticboi----------------
#NOTES:
     dance-single:
     Lunaticboi:
     Hard:
     14:
     0.607553,0.615588,0.280785,0.404057,0.000000,621.000000,580.000000,41.000000,59.000000,0.000000,0.000000,0.607553,0.615588,0.280785,0.404057,0.000000,621.000000,580.000000,41.000000,59.000000,0.000000,0.000000:
0000
0000
0000
0000
,
0000
0000
0000
0000
,
0000
0000
0000
0000
,
0000
0000
0000
0000
,
0000
0000
0000
0000
,
0000
0000
0000
0000
0001
1000
1001
0000
,
0001
0100
1000
0100
0001
0100
1000
0100
,
0001
0010
1000
0010
0001
0010
1000
0010
,
0001
0100
1000
0100
0001
0010
1000
0010
,
0001
0010
0100
1000
0001
0010
0100
1000
,
0001
0010
1000
0010
0001
0010
1000
0010
,
0001
0100
1000
0100
0001
0100
1000
0100
,
0001
0010
1000
0010
0001
0100
1000
0100
,
0001
0010
0100
1000
0001
0010
0100
0000
,
0000
0100
1000
1000
0001
0100
0001
0001
,
2000
0000
3001
0100
0000
0110
0000
0101
,
0000
0001
1000
0000
1000
0100
0100
0000
,
1000
0001
0100
0010
1000
1000
1000
0000
,
0002
0013
0200
2300
,
3002
0000
0103
0010
1000
0001
1000
0020
,
0000
0000
0130
0000
0001
0100
0001
0000
,
2000
3200
0320
0032
,
0003
1000
0100
1000
1000
0000
0001
0100
,
0001
0100
0000
0100
0010
0100
0000
0001
,
0000
1000
1000
0000
0001
0000
1100
0000
,
0000
1000
0100
0001
0100
1000
0001
1000
,
0020
0000
0030
0000
1000
0001
1000
0000
,
0001
0100
0001
0000
1000
0020
0000
0030
,
0000
0100
0001
1000
0001
0000
1000
0100
,
1000
0000
0001
0010
0000
0000
1100
0000
,
1000
0001
0100
0000
0001
1000
0100
0000
,
1000
0100
0010
0001
0000
1001
0000
0000
,
0001
1000
0100
0000
1000
0001
0100
0000
,
0001
0100
0010
1000
0000
1001
0000
0000
,
1000
0100
1000
0000
0001
0100
0001
0000
,
1000
0010
0100
0001
0000
1001
0000
0000
,
1000
0100
0010
0001
0010
0100
1000
0002
,
2000
0000
3003
1001
,
0001
0100
1000
0100
0001
0100
0000
0010
,
0200
0000
0301
0010
0200
0000
1300
0001
,
2000
0000
0010
0000
0001
0000
3010
0100
,
0002
0000
0013
0100
1000
0000
1001
0000
,
0110
0000
1001
0000
0110
0000
0100
0001
,
2000
0000
0100
0000
0001
0000
3100
0010
,
0002
0000
0103
0010
2000
0000
3100
0010
,
0001
1000
0001
0000
1000
0001
0000
0000
,
1000
0100
0001
0100
1000
0100
0000
0010
,
0200
0000
1300
0010
0200
0000
0310
1000
,
0002
0000
0010
0000
1000
0000
0103
0010
,
2000
0000
3010
0100
0001
0000
1001
0000
,
0110
0000
1001
0000
0110
0000
0010
1000
,
0002
0010
1000
0013
,
0200
0000
0000
0010
0310
0001
0100
0010
,
1000
0001
0100
0010
0100
0010
0000
0000
,
0000
1000
0100
0010
0001
1000
0010
0200
,
0000
0000
0300
0001
1000
0001
0100
0000
,
0001
0100
1000
0100
0001
0100
1000
0100
,
0001
0010
1000
0010
0001
0010
1000
0010
,
0001
0100
1000
0100
0001
0010
1000
0010
,
0001
0100
1000
0001
0010
1000
0100
1000
,
0001
0010
1000
0010
0001
0010
1000
0010
,
0001
0100
1000
0100
0001
0100
1000
0100
,
0001
0010
1000
0010
0001
0100
1000
0100
,
0001
0010
1000
0001
0100
1000
0001
1000
,
0000
0001
0100
0001
0001
0000
1000
0100
,
0010
0001
1000
0001
0000
0101
0000
0110
,
0000
0010
1000
0000
0002
0010
0013
0000
,
0000
0001
0100
0010
1000
0001
1000
0010
,
0200
0000
0301
0010
0200
0000
1000
0000
,
0310
0000
0001
0010
0100
1000
0010
0200
,
0000
0000
0301
0000
0000
0001
1001
0000
,
0000
1000
0100
0010
0001
1000
0001
1000
,
0000
0002
0000
0103
0010
1000
0001
0000
,
2000
0000
3010
0100
0010
0100
0000
1001
,
0000
0001
0010
0000
0200
1000
1300
0000
,
0000
1000
0001
0100
0010
0100
0001
0010
,
0200
1300
0002
0203
,
0320
2030
3002
0023
,
0230
0000
0000
0020
0000
0000
0000
0330
,
0000
0000
0000
1100
0000
1000
0001
0000
,
1000
0010
0001
0000
1000
0100
0001
0000
,
1000
0100
0010
0001
0000
1001
0000
0000
,
1000
0100
0001
0000
1000
0010
0001
0000
,
1000
0001
1000
0001
0000
1001
0000
0000
,
1000
0010
1000
0000
0001
0010
0001
0000
,
1000
0100
0010
0001
0000
1001
0000
0000
,
1000
0100
0010
0001
0010
0100
1000
0002
,
2000
0000
3003
1001
,
1000
0100
0001
0100
1000
0100
0000
0010
,
0002
0000
0103
0010
2000
0000
3100
0010
,
0002
0000
1000
0000
0100
0000
1003
0010
,
0200
0000
0301
1000
0001
0000
1001
0000
,
0110
0000
1001
0000
0110
0000
0100
0001
,
1000
0000
1100
0000
0011
0000
0001
0100
,
2000
0000
3100
0001
0020
0000
0130
1000
,
0100
0010
0001
0010
0001
1000
0000
0000
,
0001
0010
1000
0010
0001
0010
0000
0100
,
2000
0000
3010
0100
0002
0000
1003
0100
,
0020
0000
0001
0000
1000
0000
0130
1000
,
0002
0000
0103
0010
1000
0000
1001
0000
,
0110
0000
1001
0000
0110
0000
1000
0001
,
0100
0110
0101
1001
,
2000
0000
0000
0001
3001
0010
0100
1000
,
0100
0010
0001
0000
1000
0001
0000
0000
,
0100
0001
1000
0001
0100
0010
2000
0002
,
0000
3003
0000
0000
0000
1001
1001
0000
;

//---------------dance-single - Lunaticboi----------------
#NOTES:
     dance-single:
     Lunaticboi:
     Challenge:
     17:
     0.748435,0.760432,0.616358,0.369815,0.150665,765.000000,675.000000,90.000000,54.000000,0.000000,0.000000,0.748435,0.760432,0.616358,0.369815,0.150665,765.000000,675.000000,90.000000,54.000000,0.000000,0.000000:
// measure 0
0000
0000
0000
0000
,  // measure 1
0000
0000
0000
0000
,  // measure 2
0000
0000
0000
0000
,  // measure 3
0000
0000
0000
0000
,  // measure 4
0000
0000
0000
0000
,  // measure 5
0000
0000
0000
0000
1000
0001
1001
0000
,  // measure 6
1000
0100
0010
0000
0001
0000
1000
0000
0010
0100
0010
0000
1000
0000
1000
0000
,  // measure 7
0001
0010
0100
0000
1000
0000
0001
0000
0100
0010
0100
0000
0001
0000
0001
0000
,  // measure 8
1000
0010
0100
0000
0001
0000
1000
0000
0100
0010
0100
0000
1000
0000
1000
0000
,  // measure 9
0001
0100
0010
0000
1000
0000
0001
0000
0010
0100
0010
0000
0001
0000
0001
0000
,  // measure 10
1000
0100
0010
0000
0001
0000
0100
0000
0010
1000
0100
0000
1000
0000
1000
0000
,  // measure 11
0001
0100
0010
0000
1000
0000
0100
0000
0010
0001
0100
0000
0001
0000
0001
0000
,  // measure 12
1000
0001
0100
0000
0001
0000
1000
0000
0001
0010
0100
0000
1000
0000
1000
0000
,  // measure 13
0001
1000
0100
0000
1000
0000
0001
0000
0100
0010
1000
0000
0001
0000
0000
0000
,  // measure 14
0000
0100
0001
0001
1000
0100
0001
0100
,  // measure 15
2000
0000
3001
0100
0000
0001
0000
1010
,  // measure 16
0000
1001
1001
0000
1000
0100
1100
0000
,  // measure 17
1000
0000
0001
0000
0100
0000
0001
0000
0010
0000
0010
0000
0001
1000
0001
1000
,  // measure 18
0001
0100
0101
0000
1001
0000
1100
0000
,  // measure 19
0020
0000
0031
1000
0001
0100
0001
2000
,  // measure 20
0000
0000
3100
0000
0010
0001
0101
0000
,  // measure 21
0200
0320
2030
3002
,  // measure 22
0003
0010
0100
1000
2000
0000
3001
0100
,  // measure 23
1000
0200
0000
0301
0001
1000
0000
0011
,  // measure 24
0000
1001
1001
0000
0001
0100
0101
0000
,  // measure 25
0000
0000
0001
0000
0100
0000
1000
0000
0100
0000
0100
0000
0001
1000
0001
1000
,  // measure 26
0200
0000
1300
0000
1000
0100
1000
0001
,  // measure 27
1000
0100
1000
0001
0100
0002
0000
0003
,  // measure 28
0000
0020
0000
0130
1000
0100
0001
0100
,  // measure 29
1000
0000
0001
0011
0000
1001
1001
0000
,  // measure 30
1000
0001
0100
0010
0100
0001
1000
0100
,  // measure 31
0001
0100
1000
0100
0000
0110
0000
1001
,  // measure 32
1001
0000
0001
0100
1000
0100
0001
1000
,  // measure 33
0001
1000
0100
0010
0000
0011
0000
1001
,  // measure 34
1001
0000
0001
0010
1000
0010
0001
1000
,  // measure 35
0001
0001
0100
0010
0000
0101
0000
1001
,  // measure 36
1001
0000
0001
0100
0010
0100
0001
0100
,  // measure 37
0020
0000
0000
0030
0000
1001
1001
0000
,  // measure 38
1010
0010
1010
0010
1010
0010
0000
0100
,  // measure 39
0002
0000
0013
0100
1000
0001
0100
0010
,  // measure 40
2000
0000
3200
0000
0302
0000
0013
0100
,  // measure 41
0002
0000
0000
0000
0103
0000
0010
1000
0001
0000
0000
0000
1001
0000
0000
0000
,  // measure 42
1100
0000
0101
0000
0110
0000
0001
1000
,  // measure 43
0020
0000
0130
0001
0010
1000
0010
0001
,  // measure 44
2000
0000
0000
3100
0100
0010
0001
0010
,  // measure 45
0001
1000
0001
0100
0010
1000
0000
0000
,  // measure 46
0101
0001
0101
0001
0101
0001
0000
1000
,  // measure 47
0200
0000
1300
0010
0100
0001
1000
0001
,  // measure 48
2000
0000
3002
0000
0203
0000
1300
0010
,  // measure 49
0002
0000
0000
0000
0103
0000
0010
1000
0001
0000
0000
0000
1001
0000
0000
0000
,  // measure 50
0101
0000
1100
0000
1010
0000
1000
0001
,  // measure 51
0010
1100
1001
0001
,  // measure 52
0200
0000
0000
0010
0310
1000
0001
0100
,  // measure 53
1000
0100
0001
1000
0001
1000
0000
0000
,  // measure 54
0000
0001
1000
0010
0001
0010
1000
0002
,  // measure 55
0000
0010
0013
0100
1000
0001
0010
0000
,  // measure 56
0001
0100
0001
0000
1000
0000
0001
0000
1000
0100
0010
0000
0001
0000
0001
0000
,  // measure 57
1000
0100
1000
0000
0001
0000
1000
0000
0001
0100
0010
0000
1000
0000
1000
0000
,  // measure 58
0001
0010
0001
0000
1000
0000
0001
0000
1000
0010
0100
0000
0001
0000
0001
0000
,  // measure 59
1000
0010
1000
0000
0001
0000
1000
0000
0100
0010
0001
0000
1000
0000
1000
0000
,  // measure 60
0010
0100
0001
0000
1000
0000
0001
0000
0010
0100
1000
0000
0001
0000
0001
0000
,  // measure 61
0100
0010
1000
0000
0001
0000
1000
0000
0100
0010
0001
0000
1000
0000
1000
0000
,  // measure 62
0001
0010
0100
0000
1000
0000
0001
0000
0100
0001
1000
0000
0001
0000
0001
0000
,  // measure 63
1000
0100
0010
0000
0001
0000
1000
0000
0100
1000
0001
0000
0100
0000
0100
0000
,  // measure 64
0000
0001
0001
0010
0100
0010
0001
1000
,  // measure 65
0010
0100
0010
0100
0000
0110
0000
0101
,  // measure 66
0000
1001
1001
0000
1000
0010
1010
0000
,  // measure 67
1000
0000
0010
0000
0100
0000
0001
0000
0010
0000
0100
0000
1000
0001
1000
0001
,  // measure 68
0020
0000
0031
1000
0020
0000
0130
0000
,  // measure 69
0101
0000
1001
0000
1000
0100
0001
0200
,  // measure 70
0000
0000
1300
0000
0001
0010
0011
0001
,  // measure 71
0000
1000
1100
1000
0001
0100
0010
1000
,  // measure 72
0000
0020
0000
0130
0001
0001
1000
0100
,  // measure 73
0020
0000
0031
1000
0001
0100
0000
0110
,  // measure 74
0000
1001
1001
0000
0001
0010
0011
0000
,  // measure 75
0000
0000
0100
0000
1000
0000
0001
0000
0100
0000
0010
0000
1000
0001
1000
0100
,  // measure 76
0020
0130
2000
3002
,  // measure 77
0023
0032
2003
3200
,  // measure 78
0320
0032
0103
1001
,  // measure 79
0001
0010
0100
1100
0000
0110
0110
0000
,  // measure 80
0001
0001
0100
0010
0100
0001
0010
0100
,  // measure 81
1000
0100
0001
0100
0000
1100
0000
0011
,  // measure 82
0001
0100
0010
1000
1000
0100
0010
0001
,  // measure 83
0010
1000
0010
0001
0000
0101
0000
1010
,  // measure 84
0010
1000
0001
0010
0100
1000
0010
0100
,  // measure 85
0001
0100
1000
0100
0000
0101
0000
1010
,  // measure 86
1000
0001
0010
0100
1000
0010
1000
0100
,  // measure 87
0020
0000
0030
0000
0000
1001
1001
0000
,  // measure 88
0011
0010
0011
0010
0011
0010
0000
0100
,  // measure 89
2000
0000
3010
0100
0001
1000
0001
0010
,  // measure 90
0002
0000
2003
0000
3200
0000
0301
0010
,  // measure 91
2000
0000
0000
0000
3001
0000
0010
0001
1000
0000
0000
0000
1001
0000
0000
0000
,  // measure 92
0101
0000
1010
0000
1100
0000
1000
0100
,  // measure 93
0020
0000
0130
0000
1000
0001
0100
1000
,  // measure 94
0100
0001
1000
0010
0001
0010
0100
0010
,  // measure 95
0100
0001
0010
0100
1000
0001
0000
0000
,  // measure 96
1100
1000
1100
1000
1100
1000
0000
0001
,  // measure 97
0200
0000
0310
1000
0100
0010
0100
1000
,  // measure 98
0002
0000
0203
0000
2300
0000
3010
0001
,  // measure 99
0200
0000
0000
0000
0310
0000
1000
0001
0100
0000
0000
0000
1001
0000
0000
0000
,  // measure 100
1010
0000
0011
0000
1100
0000
1000
0001
,  // measure 101
0100
0101
1010
1001
,  // measure 102
0001
0010
0100
0010
0001
1000
0010
0100
,  // measure 103
0010
1000
0100
0010
0001
0010
0011
0000
,  // measure 104
0001
0100
0010
1000
0010
0100
0002
1003
,  // measure 105
0000
0110
0110
0000
0000
1001
1001
0000
;

//---------------dance-single - ----------------
#NOTES:
     dance-single:
     :
     Medium:
     10:
     0.506783,0.543166,0.458844,0.486238,0.000000,518.000000,451.000000,67.000000,71.000000,0.000000,0.000000,0.506783,0.543166,0.458844,0.486238,0.000000,518.000000,451.000000,67.000000,71.000000,0.000000,0.000000:
0000
0000
0000
0000
,
0000
0000
0000
0000
,
0000
0000
0000
0000
,
0000
0000
0000
0000
,
0000
0000
0000
0000
,
0000
0000
0000
0000
0001
1000
1000
0000
,
0001
0100
0001
0000
1000
0000
1100
0000
,
0010
0001
1000
0000
0001
0000
1001
0000
,
1000
0010
0100
0000
0001
0000
0101
0000
,
0200
0320
2030
3002
,
0013
0100
1000
0000
0100
0000
1100
0000
,
1000
0010
0100
0000
0001
0000
1001
0000
,
1000
0100
0010
0000
0001
0000
0011
0000
,
0020
0230
2300
3001
,
0000
0000
1000
0000
0100
0100
1000
0000
,
0002
0000
0103
0010
0000
1000
0000
1100
,
0000
0100
1000
0000
0010
0200
0301
0000
,
1000
0100
0010
0000
0001
0000
1000
0000
,
0020
0130
0001
1100
,
0010
0000
1001
0000
1000
0000
0010
0100
,
0000
0100
0010
0000
1000
0001
1000
0000
,
0200
0320
0032
2003
,
3000
0000
0001
0100
0100
0000
0001
0000
,
1000
0100
0000
0010
0001
1000
0000
1001
,
0000
0001
1000
0000
0001
0200
0301
0000
,
0010
1000
0001
0000
1000
0000
0100
0000
,
0010
0000
0002
0000
1003
0100
0100
0000
,
0010
0100
0100
0000
1000
0002
0000
0003
,
0000
0110
0000
0100
0001
0000
1000
0001
,
1000
0000
0000
1001
0000
0000
0110
0000
,
0000
1000
0000
0010
0100
0001
0001
0000
,
1000
0001
1000
0000
0000
1001
0000
0000
,
0110
0000
0000
0000
0001
0100
0010
0000
,
1000
0001
1000
1000
0000
1001
0000
0000
,
0110
0000
0000
0000
1000
0001
1000
0000
,
0001
0010
0100
1000
0000
1001
0000
0000
,
0110
0000
1000
0100
0010
0001
1000
0000
,
2002
0000
3003
1001
,
1100
0000
0101
0000
1100
0000
0000
1000
,
0200
0000
0000
0310
0002
0000
0000
0103
,
0020
0000
1000
0000
0100
0000
1030
0001
,
0020
1000
0001
0130
,
0010
1001
0100
1001
,
0001
0101
0001
1001
,
2000
0000
0000
0001
3001
0000
1000
0001
,
0100
0010
1000
0001
1000
0001
0000
0000
,
0101
0000
1100
0000
0101
0000
0000
0001
,
0200
0000
0300
0010
0200
0000
0300
0001
,
0020
0000
0100
0000
1000
0000
0031
0200
,
1000
0001
0010
0310
,
0100
1001
0100
1001
,
1000
1100
1000
1001
,
0002
0000
0000
1000
2000
0000
3003
0000
,
0000
0001
0010
0100
1000
0001
0000
0000
,
0000
0001
0100
0010
1000
0001
1000
0001
,
0000
0000
0000
0100
0010
0100
0010
0000
,
1000
0010
1000
0000
0001
0000
1001
0000
,
1000
0100
0010
0000
0001
0000
0011
0000
,
0001
0100
0010
0000
1000
0000
1010
0000
,
0010
1000
0100
0000
1000
0000
1100
0000
,
0100
1000
0001
0000
0100
0000
0101
0000
,
0001
1000
0100
0000
0010
0000
0011
0000
,
0001
0100
0010
0000
0100
0000
0110
0000
,
0020
0230
0302
2003
,
3000
0001
0010
0001
0010
0000
0100
1000
,
0100
0000
1000
0000
0000
0001
0000
0101
,
0000
0100
0010
0000
1000
0002
1003
0000
,
0000
0001
0100
0001
0000
1000
0100
0010
,
0002
1003
2000
3200
,
0320
0000
0031
1000
0001
0000
0100
0020
,
0000
0030
1000
0000
0001
2000
3001
0000
,
0000
1000
0100
0010
0001
1000
0001
0000
,
0000
2000
0000
3010
0100
0001
1000
0000
,
0002
0000
2003
0000
3010
0100
0000
0001
,
0000
1000
0001
0000
1000
0020
0130
0000
,
0000
0001
1000
0000
0001
0100
0010
1000
,
0002
0003
2000
3200
,
0320
0032
0203
0320
,
2030
0000
0000
0002
0000
0000
3003
0000
,
0000
0000
0000
0110
0000
0000
1001
0000
,
0000
0001
1000
0001
0010
0000
0100
0000
,
1000
0000
0001
1000
0000
1001
0000
0000
,
1001
0000
1000
0001
,
0010
0001
1000
0001
0000
1001
0000
0000
,
1001
0000
1000
0000
0010
1000
0001
0000
,
0010
0000
0001
1000
0000
1001
0000
0000
,
1001
0002
2003
3200
,
0020
0000
0330
1001
,
0011
0000
1010
0000
0011
0000
0000
0001
,
0020
0000
0000
0130
2000
0000
0000
3010
,
0200
0000
0001
0000
0010
0000
0301
1000
,
0200
0001
1000
0310
,
0100
1001
0010
1001
,
1000
1010
0010
0110
,
0002
0000
0000
1000
1003
0000
0001
1000
,
0010
0100
0001
1000
0001
1000
0000
0000
,
1010
0000
0011
0000
1010
0000
0000
1000
,
0020
0000
0030
0100
0020
0000
0030
1000
,
0200
0000
0010
0000
0001
0000
1300
0020
,
0001
1000
0001
1030
,
0100
1001
0010
1001
,
0001
0011
0010
0110
,
2000
0000
0000
0001
0002
0000
3003
0000
,
0000
1000
0100
0010
0001
1000
0000
0000
,
0000
0001
0100
0001
0000
1000
0002
2000
,
0000
3003
0000
1001
;
