#TITLE:Tricologe;
#SUBTITLE:;
#ARTIST:25-ji, Nightcord de.;
#TITLETRANSLIT:;
#SUBTITLETRANSLIT:;
#ARTISTTRANSLIT:;
#GENRE:;
#CREDIT:;
#MUSIC:Tricologe.ogg;
#BANNER:Tricologe.png;
#BACKGROUND:Tricologe-bg.png;
#CDTITLE:;
#SAMPLESTART:75.117;
#SAMPLELENGTH:15.231;
#SELECTABLE:YES;
#OFFSET:-1.848;
#BPMS:0.000=130.000;
#STOPS:;
#ORIGIN:;
#PREVIEWVID:;
#JACKET:Tricologe-jacket.png;
#CDIMAGE:;
#DISCIMAGE:;
#BGCHANGES:-4.004=Tricologe.avi=1.000=1=0=0=StretchNoLoop==CrossFade==,
99999.000=-nosongbg-=1.000=0=0=0=StretchNoLoop====
;
#FGCHANGES:;

//--------------- dance-single - ----------------
#NOTES:
     dance-single:
     :
     Beginner:
     3:
     0.130194,0.207854,0.103927,0,0,114,101,13,0,0,0,0,0,0,0.130194,0.207854,0.103927,0,0,114,101,13,0,0,0,0,0,0:
0000
0000
0000
0000
,
0000
0000
0000
0000
,
0000
0000
0000
0000
,
0000
0000
0000
0000
,
1000
0000
0000
0000
,
0001
0000
0000
0000
,
1000
0000
0000
0000
0001
0000
0000
0010
,
0000
0000
0000
0000
,
1000
0000
1000
0000
,
0001
0000
0001
0000
,
0100
0000
0000
0000
,
0010
0000
0000
0000
,
0001
0000
0001
0000
,
1000
0000
1000
0000
,
0010
0000
0000
0000
,
0100
0000
0000
0000
,
1000
0000
1000
0000
,
0001
0000
0001
0000
,
1001
0000
0000
0000
,
0110
0000
0000
0000
,
1000
0000
0100
0000
,
0001
0000
0100
0000
,
1000
0000
0000
0000
,
0001
0000
0000
0000
,
1000
0000
1000
0000
,
0010
0000
0010
0000
,
0100
0000
0100
0000
,
0001
0000
0001
0000
,
1000
0000
0001
0000
,
1000
0000
0001
0000
,
0010
0000
0010
0000
,
0100
0000
0100
0000
,
1000
0000
0000
0000
,
1000
0000
0000
0000
,
0001
0000
0000
0000
,
0001
0000
0000
0000
,
1001
0000
0000
0000
,
0110
0000
0000
0000
,
1001
0000
0000
0000
,
0001
0000
0001
0000
,
1000
0000
1000
0000
,
0001
0000
0001
0000
,
0100
0000
0100
0000
,
0010
0000
0010
0000
,
1000
0000
1001
0000
,
0001
0000
1001
0000
,
1000
0000
0000
0000
,
0100
0000
0100
0000
,
0001
0000
0001
0000
,
1000
0000
1000
0000
,
0010
0000
0010
0000
,
0100
0000
0100
0100
,
0001
0000
1001
0000
,
1000
0000
1001
0000
,
1000
0000
0100
0000
,
0110
0000
0000
0000
,
0001
0000
0100
0000
,
0110
0000
0000
0000
,
1001
0000
1000
0000
,
0010
0000
0000
0000
,
0100
0000
0000
0000
,
0001
0000
0001
0000
,
1000
0000
1000
0000
,
0100
0000
0100
0000
,
0010
0000
0010
0000
,
1001
0000
0000
0000
;

//--------------- dance-single - ----------------
#NOTES:
     dance-single:
     :
     Easy:
     8:
     0.312923,0.363744,0.159887,0.271809,0.011992,274,254,20,34,0,0,0,0,0,0.312923,0.363744,0.159887,0.271809,0.011992,274,254,20,34,0,0,0,0,0:
0000
0000
0000
0000
,
0000
0000
0000
0000
,
0000
0000
0000
0000
,
0000
0000
0000
0000
,
1000
0100
1000
0000
,
0001
0100
0001
0000
,
2000
0000
0000
0000
3002
0000
0000
0103
,
0000
0000
0000
0000
,
1000
0001
0200
0300
,
0001
1000
0200
0300
,
1000
1000
0100
0100
,
0010
0010
0001
1000
,
0010
0100
0020
0030
,
0100
0001
2000
3000
,
0001
0001
0010
0010
,
0100
0000
0100
0000
1000
0000
1000
0001
,
1000
0000
0000
0000
0001
0000
0000
0000
0100
0000
0000
0100
0000
0000
0100
0000
,
0001
0000
0000
0000
1000
0000
0000
0000
0010
0000
0000
0010
0000
0000
0010
0000
,
0100
0101
0001
0011
,
1000
1010
2002
3003
,
0001
0000
0100
0000
0010
1000
0010
0000
,
1000
0000
0100
0000
0010
0001
0010
0000
,
0001
1000
0002
0003
,
1000
0000
0001
0000
1000
0100
2000
0000
,
3010
0010
0100
0100
,
0001
0010
0200
0300
,
1000
1000
0001
0001
,
0100
0010
2000
3000
,
0001
0000
1000
0000
0100
0010
0100
0000
,
1000
0000
0001
0000
0100
0010
0100
0000
,
0002
1003
2000
3001
,
1000
0001
1000
0001
0200
0000
0310
0000
,
0220
0000
0330
0000
,
1001
0000
1000
0001
0010
0000
0000
0000
,
0220
0000
0330
0000
,
1001
0000
1000
0001
0100
0000
0020
0000
,
1030
0100
1000
0100
1000
0000
0001
0000
,
0100
0010
0100
0010
1000
0000
0001
0000
,
0010
0000
0000
0011
0000
0000
2100
0000
,
0002
0000
0003
0000
0000
0002
0000
3003
0000
0000
0000
0000
0000
0000
0000
0000
,
1000
0000
0100
0000
0010
0001
1000
0000
,
0010
0000
0100
0000
0001
0010
0100
0000
,
1000
0010
1000
0000
0001
0010
0001
0100
,
0000
0110
0000
1001
0000
1000
0200
0000
,
0310
0001
0011
1000
,
0010
1010
1001
2000
,
3100
0001
0100
0000
0100
0010
0100
0000
,
1000
0010
1000
0000
0001
1000
0100
0010
,
0001
0000
0100
0000
0010
1000
0001
0000
,
0010
0000
0100
0000
1000
0010
0100
0000
,
0001
0010
0001
0000
1000
0001
0100
0010
,
0000
0110
0000
1001
0000
0001
0020
0000
,
0130
1000
1010
0001
,
0010
0110
1001
0002
,
0103
1000
0100
0000
0100
0010
0100
0000
,
0001
0010
0001
1000
0000
1000
0001
0000
,
2000
0000
3200
0000
0302
0000
0103
1000
,
0001
1000
0020
0030
,
1000
0001
0020
0030
,
0001
0001
0100
0100
,
0010
0010
1000
0001
,
0010
0100
0020
0030
,
0100
1000
0002
0003
,
1000
1000
0010
0010
,
0100
0000
0100
0000
0001
1000
0001
0010
,
0100
0000
0000
0000
;

//--------------- dance-single - ----------------
#NOTES:
     dance-single:
     :
     Medium:
     12:
     0.537907,0.597579,0.239831,0.519634,0.323772,471,441,30,65,0,0,0,0,0,0.537907,0.597579,0.239831,0.519634,0.323772,471,441,30,65,0,0,0,0,0:
0000
0000
0000
0000
,
0000
0000
0000
0000
,
0000
0000
0000
0000
,
0000
0000
0000
0000
,
2000
0000
0000
3100
0000
0010
0000
0011
0000
0000
0000
0000
1000
0000
0010
0000
,
0200
0000
0000
0301
0000
1000
0000
1001
0000
0000
0000
0000
0001
0000
1000
0000
,
0002
0000
0000
0000
0103
0000
1000
0000
0100
0000
0000
0110
0000
0000
1001
0000
,
0000
0000
0000
0000
,
1200
0000
0001
0000
1300
0001
1000
0010
,
0010
0100
0100
0001
0001
0020
0230
2300
,
3001
0000
0010
0000
0001
0100
0001
0000
1000
0010
1000
0000
0001
0010
0001
0000
,
2000
0000
0000
0000
3001
0010
0000
0011
0000
0000
1000
0000
0010
0000
0100
0000
,
0020
0000
1000
0000
0031
0010
1000
0100
,
0100
0000
0010
0000
0010
0000
0001
0000
0001
0000
2000
0000
3200
0300
0200
0000
,
1300
0000
0002
0000
0103
0010
0100
0000
0010
1000
0010
0000
1000
0001
1000
0000
,
0100
0010
0001
0000
1000
0010
0100
0000
0002
0000
0023
0000
0130
1000
0001
1000
,
0000
0000
0001
0000
0100
0000
0010
0000
1000
0000
1000
0002
0000
0000
1003
0000
,
0100
0000
0010
0000
0001
0000
1000
0010
0000
0100
0000
0001
0000
0000
1000
0000
,
0100
0000
0000
2200
0000
3300
0001
0000
0100
0000
0000
0202
0000
0303
1000
0000
,
0010
0000
0100
0000
0001
0000
0010
0100
0000
1000
0000
0002
0000
0000
1003
0000
,
0100
0000
0001
0000
0100
0000
0010
0000
0001
0000
1000
0020
0000
0000
0130
0000
,
0001
0000
0100
0000
1000
0000
0100
0000
0010
0000
1000
0002
0000
0000
1000
0000
,
1003
0000
0100
0000
0001
0000
0100
0000
1000
0000
0000
1010
0000
0000
0010
0000
,
0100
0000
0001
0000
0100
0000
1000
0000
0100
0000
0001
0000
0010
0100
1000
0000
,
0001
0000
1000
0000
0001
0000
0001
0100
0000
0101
0000
2010
0000
0000
3100
0000
,
0010
0000
0001
0000
1000
0000
0001
0020
0000
0000
0031
0000
1000
0000
0100
0000
,
0001
0000
0100
0000
1000
0000
0001
0000
0100
0000
0010
1000
0000
1000
0001
0020
,
0000
0000
0130
0000
1000
0000
0001
0010
0000
0010
0100
0000
1000
0000
0001
0000
,
1000
0100
0010
0000
0001
0100
0010
0000
,
1000
1000
0001
0001
1000
0010
0100
0000
,
0001
0000
0100
2000
0000
0000
3000
0000
1000
0000
0100
0002
0000
0000
1003
0000
,
0001
0000
0010
0000
0100
0000
1000
0000
0010
0000
0100
0000
0001
1000
0000
0000
,
2100
0000
0010
0000
3100
0000
1100
1001
,
0000
0000
0101
0000
2001
0000
0000
0000
0010
0000
0000
0000
0100
3100
0000
0000
,
0102
0000
0010
0000
0103
0000
0101
1010
,
0000
0000
1001
0000
0021
0000
0000
0000
0130
0000
0000
0000
0000
0000
1000
0100
,
1000
0000
0100
0000
0010
0000
0001
0000
1000
0000
0000
0000
0002
0000
0000
0203
,
0000
0310
1000
0001
0010
0001
1001
0000
,
1000
0000
0000
0000
0000
0000
0000
0000
0000
1000
0000
0000
0000
0000
0000
0000
0000
0000
0001
0000
0000
0000
0000
0000
0000
0000
0000
0001
0000
0000
0000
0000
0000
0000
0000
0000
1000
0000
0000
0000
0100
0000
0000
0000
0010
0000
0000
0000
,
0001
1000
0001
0000
0000
1000
0001
1000
0001
0000
0000
0000
0000
0000
0000
0000
,
2000
0000
3200
0000
0301
0100
1000
0010
,
0200
0000
2300
0000
3100
0001
1000
0100
,
0010
0001
1000
0000
0001
0010
0100
1000
,
0000
1010
0000
0110
0000
0101
0001
1000
,
0001
0000
0001
0100
0000
0010
0000
2000
0000
0000
3100
0000
0001
0000
0100
0000
,
1000
0000
0001
0010
0000
0100
0000
2000
0000
0000
3010
0000
2000
0000
0000
0000
,
3100
1000
0010
0100
0001
0010
0001
1000
,
0000
0000
1000
0000
0010
0000
0100
0000
0000
0000
0100
0000
0001
1000
0000
0000
,
0002
0000
0203
0000
1300
0100
0001
0010
,
2000
0000
3020
0000
0031
0100
0010
1000
,
0001
0010
0100
0000
1000
0001
0100
0001
,
0000
1001
0000
0110
0000
1001
1000
0001
,
1000
0000
1000
0100
0000
0010
0000
0002
0000
0000
0103
0000
1000
0000
0100
0000
,
0001
0000
1000
0010
0000
0100
0000
0002
0000
0000
0013
0000
0001
0000
1000
0000
,
0100
0000
0000
0100
0010
0000
0000
0010
0001
0000
1000
0000
0010
0000
2000
0000
,
0000
0000
3001
0000
0010
0000
0002
0000
0000
0000
0103
0000
0010
1000
0001
1000
,
0100
0010
0001
2000
0000
3010
0100
0001
,
0201
0000
1000
0000
0301
1000
0001
0010
,
0010
0100
0100
1000
1000
0020
0230
0302
,
1003
0000
0010
0000
1000
0100
1000
0000
0001
0010
0001
0000
1000
0010
1000
0000
,
0002
0000
0000
0000
1003
0010
0000
1010
0000
0000
0001
0000
0010
0000
0100
0000
,
0020
0000
1000
0000
0031
0010
0100
1000
,
1000
0010
0010
0100
0100
0002
0023
0032
,
1003
0000
0020
0000
0130
0010
0100
0000
0001
1000
0001
0000
1000
0100
1000
0000
,
0100
0010
0001
0000
1000
0010
0200
0000
0302
0000
0023
0000
0230
0000
2300
0000
,
3001
0000
0000
0000
;

//--------------- dance-single - ----------------
#NOTES:
     dance-single:
     :
     Hard:
     15:
     0.701221,0.805433,0.303786,0.599578,0.719494,614,576,38,75,0,0,0,0,0,0.701221,0.805433,0.303786,0.599578,0.719494,614,576,38,75,0,0,0,0,0:
0000
0000
0000
0000
,
0000
0000
0000
0000
,
0000
0000
0000
0000
,
0000
0000
0000
0000
0000
1000
0100
0010
,
0001
0000
1000
0010
0000
0100
0000
0110
0000
0000
0001
0000
0100
0000
1000
0000
,
0100
0000
0001
0010
0000
0110
0000
1001
0000
0000
0001
0000
0010
0000
0100
0000
,
1000
0000
0001
0000
0100
0000
0001
0000
0020
0000
0000
0032
0000
0000
1003
0000
,
0000
0000
0000
0000
0000
0000
0000
0000
0000
0000
0000
0000
0000
0000
1000
0100
,
0020
0000
1000
0000
0031
1000
0100
0020
,
0130
0002
0103
2000
3100
0020
0032
2003
,
3010
0000
0200
0000
0301
0010
0001
0010
0100
1000
0100
1000
0010
0100
0001
0010
,
0002
0000
0203
0000
0310
1000
0000
1010
0000
0010
0100
0001
0010
0100
1000
0001
,
2000
0000
0100
0000
3001
1000
0010
0002
,
0013
0200
0310
2000
3010
0200
0302
0023
,
0130
0000
2000
0000
3010
0100
0010
0100
0001
1000
0001
1000
0100
0010
0100
1000
,
0010
0100
0001
1000
0100
0010
0001
1000
0010
1000
0001
0010
0001
0010
0100
1000
,
0000
0000
1000
0100
0010
0001
1000
0000
0010
0000
0100
0001
0000
0001
1000
0000
,
0100
0000
0001
0000
0100
0000
0010
0001
0000
1000
0000
2001
0000
3100
0010
0001
,
0100
0000
0001
0100
0000
0010
1000
0100
0010
0000
0100
0020
0000
0000
0031
1000
,
0010
0000
0100
0000
0001
0000
0010
0100
0000
1000
0000
2001
0000
0000
3020
0000
,
1030
0100
0010
0100
1000
0010
0100
0010
1000
0100
0010
0001
0000
0020
0000
0031
,
0100
0010
0100
0001
0010
0100
0010
0001
1000
0010
0100
0001
0000
1000
0001
0010
,
0200
0000
0302
0000
0203
0000
1300
0010
0200
0000
1300
0100
0000
0001
1000
0001
,
1000
0000
0100
0000
0010
0000
0001
0100
0000
0001
1000
0010
0100
0001
0010
0100
,
1000
0000
0010
0000
1000
0000
0100
0010
0000
0110
0000
1001
0000
0000
0001
1000
,
0010
0000
0001
0000
0010
0000
1000
0200
0000
0000
0310
0000
0001
0000
1000
0000
,
0100
0000
0001
0000
0100
0000
1000
0000
0001
0000
0100
0020
0000
0130
0001
0020
,
0000
0130
1000
0001
1000
0010
0100
0001
0000
1000
0010
0000
1000
0000
0100
0000
,
0010
0001
1000
0010
1000
0002
0000
1003
0100
0010
0001
0200
0000
0310
1000
0001
,
0010
0100
1000
0001
0010
0100
1000
0001
1000
0100
0010
0002
0000
1003
0100
1000
,
0001
0000
1000
0020
0000
0130
0001
0010
0001
0000
1000
0020
0000
1030
0001
0100
,
1000
0000
1000
0100
0001
0010
0100
1000
0001
2000
0000
0000
0010
3010
0000
0000
,
1002
0000
0100
0000
1000
0000
0100
0000
1003
0000
0000
0000
0001
0100
0010
1000
,
0001
0000
0010
0000
0100
0000
1000
0000
2010
0000
0000
0000
0100
3100
0000
0000
,
2001
0000
0100
0000
0001
0000
0100
0000
3001
0000
1000
0100
1000
0001
0100
0020
,
0000
0000
0000
1030
0000
0000
0002
0000
0000
0010
0000
0000
1003
0000
0000
0000
0000
0000
0000
0000
0000
1000
0001
1000
,
0001
0000
0100
0000
0010
0000
1000
0000
1010
0000
0000
0000
0001
0010
0001
0010
,
0100
1000
0010
0110
1001
1000
0002
0000
,
1003
0000
0000
0000
0000
0000
0001
0000
0000
0100
0000
0000
0000
0000
0000
0000
0000
0000
0001
0000
0000
0000
0000
0000
1000
0000
0000
0200
0000
0000
0000
0000
0000
0000
0000
0000
1300
0000
0000
0000
0010
0000
0000
0000
0100
0000
0000
0000
,
0001
1000
0001
0000
0000
1000
0001
1000
0001
0000
0000
0000
0000
0000
0000
0000
,
1000
0100
0001
0100
0010
0100
0001
0100
,
1000
0010
0001
0010
1000
0100
0010
0001
,
1000
0010
0110
0000
1002
0013
0100
1000
,
0001
0011
1000
1010
0010
0200
0302
2003
,
3010
0000
1000
0100
0000
0110
0000
1001
0000
0000
1000
0000
0010
0000
0100
0000
,
1000
0000
0100
0001
0000
0101
0000
1100
0000
0000
1000
0000
0001
0000
1000
0000
,
0100
0001
0100
1000
0010
0100
0001
2002
,
3003
0000
0010
0000
0100
0000
0220
0000
0330
0000
1001
0000
0001
2000
0000
0000
,
3001
0100
1000
0100
0010
0100
1000
0100
,
0001
0010
1000
0010
0001
0100
0010
1000
,
0001
0010
0110
0000
1002
0103
0010
1010
,
0000
0000
1100
0000
0000
0000
0101
0000
0000
0000
0011
0000
0001
0010
0100
1000
,
0010
0000
0100
0001
0000
0101
0000
1010
0000
0000
1000
0000
0001
0000
0010
0000
,
0001
1000
0100
1000
0000
1100
0000
0011
0000
0000
1000
0000
0100
0000
0010
0000
,
0002
0000
0000
0103
2000
0000
0000
3100
0001
0000
0010
0000
0100
0000
0110
0000
,
0000
0000
1000
0000
0001
0000
1001
0000
0000
0000
1000
0000
0001
0010
0100
1000
,
0010
0000
1000
0000
0100
0000
0002
0000
0000
0000
0103
0000
1000
0000
0001
0100
,
0020
0000
0001
0000
1030
0100
0010
0002
,
0103
0020
0130
2000
3100
0002
2003
3200
,
0310
0000
0002
0000
1003
0010
1000
0010
0100
0001
0100
0001
0010
0100
1000
0010
,
0200
0000
2300
0000
3100
0001
0000
1001
0000
0001
0010
0100
1000
0010
0100
0001
,
2000
0000
0100
0000
3010
0100
0001
0020
,
0130
0002
0103
2000
3100
0020
0032
2003
,
3010
0000
0200
0000
0301
0010
0001
0010
0100
1000
0100
1000
0001
0100
0001
1000
,
0100
0010
0100
1000
0010
0100
0010
1000
0001
0010
0100
1000
0001
0010
0100
1000
,
0001
0000
0000
0000
;
