#TITLE:Tomoe;
#SUBTITLE:;
#ARTIST:SMiLE.dk;
#TITLETRANSLIT:;
#SUBTITLETRANSLIT:;
#ARTISTTRANSLIT:;
#GENRE:;
#CREDIT:Braeden;
#MUSIC:Tomoe.ogg;
#BANNER:;
#BACKGROUND:;
#CDTITLE:;
#SAMPLESTART:40.034;
#SAMPLELENGTH:12.000;
#SELECTABLE:YES;
#OFFSET:-1.896;
#BPMS:0.000=140.000;
#STOPS:156.000=0.429
,171.000=0.429
,186.000=1.286
;
#BGCHANGES:;
#FGCHANGES:;

//--------------- dance-single - ----------------
#NOTES:
     dance-single:
     :
     Beginner:
     3:
     0,0,0,0,0:
0000
0000
0000
0000
,
0000
0000
0000
0000
,
0000
0000
0000
0000
,
1001
0000
0000
0000
,
1000
0000
0000
0000
,
1001
0000
0001
0000
,
1000
0000
0010
0000
,
0100
0000
0001
0000
,
0010
0000
0100
0000
,
1001
0000
0001
0000
,
1000
0000
0010
0000
,
0100
0000
0001
0000
,
0010
0000
0100
0000
,
1001
0000
0000
0000
,
0001
0000
1000
0000
,
0010
0000
0000
0000
,
0100
0000
0001
0000
,
1001
0000
0000
0000
,
1000
0000
0010
0000
,
0100
0000
0000
0000
,
0001
0000
1000
0000
,
1001
0000
0000
0000
,
0002
0000
0003
0000
,
1001
0000
0000
1000
,
0000
0000
0001
0000
,
1000
0000
0000
0010
,
0000
0000
0100
0000
,
1001
0000
0000
0001
,
0000
0000
1000
0000
,
0010
0000
0000
1000
,
0000
0000
0001
0000
,
1001
0000
1000
0000
,
0010
0000
0100
0000
,
0001
0000
0010
0000
,
0100
0000
1000
0000
,
1001
0000
0001
0000
,
0100
0000
0010
0000
,
1000
0000
0001
0000
,
0010
0000
0001
0000
,
1001
0000
0000
1000
,
0000
0000
0000
0001
,
0000
0000
0000
0100
,
0000
0000
0000
1001
,
0000
0000
0001
0000
,
0000
0000
1000
0000
,
0000
0000
0001
0000
,
1000
0000
0001
0001
,
0000
0000
0100
0000
,
0000
0000
0000
0010
,
0000
0000
1000
0000
,
0000
0000
0000
1001
,
0000
0000
1000
0000
,
0000
0010
0000
0100
,
0000
0000
0010
0000
,
0000
0000
0000
1001
,
0000
0000
0001
0000
,
0000
0100
0000
0010
,
0000
0000
0100
0000
,
0000
0001
0000
1001
,
0000
1000
0000
0010
,
0000
0100
0000
0001
,
0000
0000
2000
0000
0000
3000
0000
0000
;

//--------------- dance-single - ----------------
#NOTES:
     dance-single:
     :
     Easy:
     4:
     0,0,0,0,0:
0000
0000
0000
0000
,
1001
0000
0000
0000
,
0000
0000
0000
0000
,
1001
0000
0000
0000
,
0001
0000
1000
0000
,
1001
0001
1000
0010
,
0000
1000
0001
1000
,
0000
0001
0010
0001
,
1000
0100
1000
0000
,
1001
0001
1000
0000
,
0010
1000
0001
0000
,
1000
0100
0010
0000
,
0001
1000
0001
0000
,
1001
0000
1000
0000
,
0002
0000
0103
0010
,
1000
0000
0001
0000
,
2000
0000
3010
0000
,
1001
0000
0001
1000
,
0020
0000
1030
0001
,
0000
0010
0001
1000
,
0020
0000
0030
1000
,
2002
0000
3003
0000
,
0001
1000
0010
0000
,
1001
0000
1000
0000
0000
0002
0000
0000
,
0003
0100
0010
1000
,
0001
0000
1000
0000
0000
0002
0000
0000
,
0000
0003
1000
0001
,
1001
0000
1000
0000
0000
0002
0000
0000
,
0003
0100
0010
0100
,
0001
1000
0000
0010
,
1000
0000
0001
0000
,
1001
1000
0010
1000
,
0000
0001
0100
0001
,
0000
1000
0010
0100
,
0001
1000
0001
0000
,
1001
1000
0010
0010
,
0000
0100
0100
0001
,
0000
1000
0001
1000
,
0010
1000
0001
0000
,
1001
1000
0000
0001
,
0000
0100
0000
0010
,
0000
1000
0000
0001
,
0000
1000
0000
1001
,
0010
0000
0100
0000
,
0001
0000
1000
0010
,
1000
0000
0001
0100
,
0010
0000
0100
0100
,
0100
0000
0001
0000
,
0000
0000
0001
1000
,
0010
0000
0100
0000
,
0000
0000
0000
1001
,
0001
0010
0001
0010
,
0001
1000
0010
1000
,
0001
0000
1000
0010
,
0000
1000
0000
1001
,
0001
0000
0100
0010
,
0000
1000
0001
1000
,
0010
0000
0100
0020
,
0030
0100
0001
1001
,
1000
0010
0000
1000
,
0001
0100
0000
0001
,
0001
1000
0000
0000
;

//--------------- dance-single - ----------------
#NOTES:
     dance-single:
     :
     Medium:
     8:
     0.251867,0.312663,0.060796,0.03474,0,192,7,4,0,0,0,0.251867,0.312663,0.060796,0.03474,0,192,7,4,0,0,0:
0000
0000
0000
0000
,
0000
0000
0000
0000
,
0000
0000
0000
0000
0000
0000
0000
1000
,
1000
0000
0001
0000
0000
0100
0000
0020
,
0000
0000
1030
0001
,
1001
0000
1000
0100
1000
0001
1000
0010
,
0000
1000
0100
1000
0001
1000
0010
0000
,
0000
1000
0100
0000
0010
0001
0010
0000
,
0001
1000
0001
1000
0001
0000
0100
0000
,
0110
0000
0010
1000
0100
1000
0010
1000
,
0000
0001
0010
0100
1000
0100
0010
0000
,
0000
0001
1000
0000
0100
0010
0100
0000
,
1000
0001
1000
0000
0010
0000
0100
0000
,
0101
0001
0010
0100
,
1000
0000
0001
0010
0002
0000
1003
0000
,
0010
0000
1000
0100
1000
0000
0001
0010
,
0002
0000
0103
0010
0000
1000
0000
0010
,
1000
1100
0100
0110
,
0010
0000
0001
1000
0002
0000
1003
0000
,
0010
0000
1010
0000
1000
0100
1000
0000
,
0020
0000
0130
0001
0000
0100
0000
0010
,
1010
0000
1000
0000
0001
0010
0001
1000
,
0020
1030
0001
0100
,
0001
0010
0001
0000
0000
1000
0010
1000
,
0000
0001
0000
0200
0000
0310
1000
0000
,
0001
0010
0100
0000
0000
1000
0100
0010
,
0000
0001
0000
2000
0000
3010
1000
0001
,
1000
0100
0010
0000
0000
0010
0100
1000
,
0000
0001
0000
0200
0000
0310
1000
0000
,
0001
0100
0001
0000
0000
1000
0010
0200
,
0000
0301
0000
0100
0010
1000
0001
0000
,
1001
0000
1000
0100
0010
0001
0010
0100
,
0000
1000
0010
1000
0100
1000
0001
0000
,
0000
1000
0010
0000
1000
0001
1000
0000
,
0001
0010
0001
0000
1000
0000
0010
0000
,
1010
0000
1000
0100
0010
0100
1000
0001
,
0000
1000
0010
0100
0001
0100
0010
0000
,
0000
1000
0001
0000
1000
0100
1000
0000
,
0001
0010
0001
0000
1000
0000
0001
0000
,
1M01
0000
0001
0000
1000
0000
0001
0100
,
0001
0000
0010
0000
0100
0000
1000
0001
,
1000
0000
0010
1000
0010
0000
1000
0001
,
0100
0001
0010
0000
0001
0000
1M01
0000
,
1000
0000
1000
0000
0001
0100
0001
0000
,
1000
0001
1001
1000
,
0010
0100
0001
0010
,
0100
0000
1000
0000
1M01
0000
0001
0010
,
0001
0000
0000
1000
0100
1000
0000
0000
,
0000
0002
0000
0000
1003
0010
1000
0001
,
1000
0000
0000
0010
0100
0010
0000
1000
,
0000
0001
0000
1000
0010
0000
1000
0001
,
1000
0000
0000
0010
0100
0010
0000
1000
,
0000
0002
0000
0103
0010
0000
1000
0100
,
1000
0000
0000
0001
0010
0001
1000
0000
,
0010
0000
0100
0000
0001
0000
1000
0001
,
1000
0000
0000
0001
1000
0001
0000
1000
,
0000
0020
0000
0130
0001
0000
1000
0100
,
1000
0000
0000
0001
1000
0020
0000
1030
,
0000
0010
0000
1000
0001
0000
1001
0000
,
1000
0010
0100
0001
0100
0000
0000
0001
,
0010
0001
0000
1000
0000
0010
0000
1000
,
0100
2000
0000
3001
1000
2200
0000
0000
,
0000
0000
3300
0000
;

//--------------- dance-single - XO JA ----------------
#NOTES:
     dance-single:
     XO JA:
     Hard:
     11:
     0.349885,0.530875,0.165017,0.069481,0,255,19,8,0,0,0,0.349885,0.530875,0.165017,0.069481,0,255,19,8,0,0,0:
0000
0000
0000
0000
,
0000
0000
0000
0000
,
0000
0000
0000
0000
0000
0000
0000
1000
,
1000
0001
0010
0000
0000
0001
1000
0200
,
0000
0000
0300
0010
,
0011
0001
0001
1000
0100
0001
0100
1000
,
0000
0001
0001
1000
0010
0001
0010
0000
,
0000
1000
1000
0001
0100
0001
0010
0100
,
1000
0010
1000
0010
1000
0001
0010
0000
,
0011
0001
0001
1000
0100
0001
0100
1000
,
0000
0100
0100
1000
0010
0001
0010
0000
,
0000
1000
0100
0010
0100
1000
0100
0001
,
0100
1000
0100
1000
0001
1000
1000
0000
,
0001
0100
0001
0010
0001
0100
0001
1000
,
0001
0000
0000
0001
1000
0000
0010
0000
2000
0000
0000
0000
3100
0000
0000
0000
,
0010
0001
0010
0001
1000
0100
0010
0001
,
2000
0000
3001
0100
0000
0001
0000
1000
,
0001
1000
0100
1000
0010
0100
0010
1000
,
0001
0000
0000
0001
1000
0000
0010
0000
2000
0000
0000
0000
3001
0000
0000
0000
,
1000
0100
1000
0100
0010
0001
0010
0001
,
2000
0000
3010
0100
0000
0001
0000
1000
,
0001
0010
0100
1000
0100
0010
0001
2000
,
0000
0000
3001
0100
0010
0100
0001
1000
,
0001
0010
1000
0000
0000
1000
0010
0001
,
0000
1000
0001
0200
0000
0301
0010
0001
,
1000
0100
0001
0000
0000
0001
0100
2000
,
0000
3001
0100
0002
0000
1003
0100
1000
,
0001
0100
1000
0000
0000
1000
0100
0001
,
0000
1000
0010
0200
0000
0301
1000
0010
,
1000
0100
1000
0010
0100
0001
0010
0002
,
0000
1003
0010
0100
0001
0000
1001
0000
,
1010
1000
1000
0100
0001
0100
1000
0001
,
0000
0010
0010
0001
0100
1000
0100
0000
,
0000
0001
0001
1000
0010
0100
1000
0100
,
0010
1000
0001
0100
0001
0010
0010
0000
,
0011
0001
0001
1000
0100
0001
0100
1000
,
0000
0001
0001
1000
0010
0001
0010
0000
,
0000
1000
1000
0001
1000
0010
0001
0010
,
0100
0010
1000
0100
0010
0001
0001
0000
,
10M1
0000
1000
0100
0010
0001
1000
0100
,
1000
0000
0001
0100
0001
0100
0001
0010
,
0100
0000
1000
0001
1000
0000
0100
0010
,
0100
1000
0001
0000
1000
0000
1M01
0000
,
0001
0010
0001
1000
0100
1000
0010
1000
,
0001
0000
1000
0100
1000
0010
0100
0001
,
1000
0100
0010
0001
1000
0010
1000
0001
,
0010
0001
1000
0000
1M01
0000
0011
0001
,
1000
0000
0000
1000
0001
0010
0000
0001
,
0000
2000
0000
3001
0010
0100
0100
0010
,
0001
0000
0000
0001
0010
0100
0000
0010
,
0000
0001
0000
1000
0010
0100
0001
0100
,
1000
0100
0001
0100
1000
0100
0001
1000
,
0100
2000
0000
3001
1000
0001
1000
0100
,
0001
0100
1000
0100
0001
0100
1000
0001
,
0010
0001
0010
0001
1000
0000
1001
0001
,
0100
1000
0100
0010
1000
0001
0000
0100
,
0010
2000
0000
3001
0010
0001
1000
0100
,
0001
0100
0010
0100
1000
0002
0000
0103
,
0010
2000
0000
3100
0010
0001
1000
0001
,
0010
0001
0100
0010
0001
0010
0000
1000
,
0010
0001
0010
0100
0010
0000
1000
0100
,
0010
0002
0000
0103
0010
0220
0000
0000
,
0000
0000
0330
0000
;

//--------------- dance-single - XO+ JA SJ ----------------
#NOTES:
     dance-single:
     XO+ JA SJ:
     Challenge:
     13:
     0.518623,0.663594,0.199757,0.173702,0.112906,375,23,20,0,0,0,0.518623,0.663594,0.199757,0.173702,0.112906,375,23,20,0,0,0:
0000
0000
0000
0000
,
0000
0000
0000
0000
,
0000
0000
0000
0000
0000
0000
0000
0001
,
0001
1000
0010
0000
0000
1000
0001
1000
,
0010
0000
0000
0000
0100
0000
0000
0000
0001
0000
1000
0010
0100
0000
0000
0000
,
0101
0000
0001
0100
0001
0000
0100
0000
1000
0000
0100
0000
0010
0000
1000
0000
,
0000
0000
0001
0100
0001
0000
0100
0000
0010
0000
1000
0000
0010
0000
0000
0000
,
1000
0000
0001
0100
0010
0000
0100
0000
0001
0000
0010
0000
1000
0000
0010
0000
,
0001
0100
1000
0100
0010
1000
1000
0000
,
1001
0000
0001
1000
0100
0000
0010
0000
0001
0000
0010
0000
1000
0000
0010
0000
,
0000
0000
0001
1000
0001
0000
0100
0000
0001
0000
1000
0000
0100
0000
0000
0000
,
0100
0000
0010
0001
0010
0000
0001
0000
0010
0000
1000
0000
0010
0000
0100
0000
,
0010
0001
1000
0010
1000
0001
0001
1000
,
1010
0010
1000
0100
0010
0001
0010
0100
,
1000
0000
0000
0001
1000
0000
0100
0000
0001
0000
0100
0000
0010
0000
0001
0000
,
1000
0001
0010
0001
0100
0010
1000
0100
,
2000
0000
3001
0020
0000
0130
1000
0010
,
1010
1000
0001
1000
0100
0010
1000
0010
,
0100
0000
0000
1000
0001
0000
0010
0000
0002
0000
0000
0000
1003
0000
0000
0000
,
0010
1000
0100
1000
0001
0010
0100
0010
,
2000
0000
3010
0001
0000
0100
0010
1000
,
0001
0010
0100
1000
0001
0100
0001
1000
,
0001
0100
0001
0100
0001
0000
1000
0010
1000
0010
1000
0000
0001
0000
1000
0000
,
1001
0000
0001
0000
0100
0000
0001
1000
0001
0000
1000
0000
0100
0000
0001
0000
,
0100
0000
1000
0010
1000
0000
0002
0000
0000
0000
1003
0000
0100
0000
1000
0000
,
0001
0000
1000
0000
0001
0000
0010
0100
0010
0000
0001
0000
0010
0000
1000
0000
,
0010
0100
1000
0002
0000
1003
0100
0010
,
0011
0000
0001
0000
0100
0000
0001
1000
0010
0000
1000
0000
0100
0000
0001
0000
,
0100
0000
0010
0001
0010
0000
0200
0000
0000
0000
1300
0000
0001
0000
1000
0000
,
0001
0000
0100
0000
0001
0000
1000
0010
1000
0000
0001
0000
0010
0000
1000
0000
,
0010
0000
0001
1000
0001
0000
0100
0000
0100
0000
0010
1000
0010
0000
1000
0001
,
1000
0000
0001
0100
0001
0000
0010
0000
1000
0000
0010
0000
0100
0000
1000
0000
,
0001
0000
1000
0010
1000
0000
0001
0000
0100
0000
1000
0000
0100
0000
0000
0000
,
0001
0000
1000
0010
1000
0000
0010
0000
0001
0000
0010
0000
0100
0000
0010
0000
,
1000
0100
0001
0100
0010
0001
0001
0000
,
1001
0000
1000
0010
0100
0000
1000
0000
0100
0000
0010
0000
1000
0000
0001
0000
,
0000
0000
1000
0001
1000
0000
0001
0000
0100
0000
1000
0000
0100
0000
0000
0000
,
0001
0000
1000
0010
1000
0000
0100
0000
0001
0000
0100
0000
0010
0000
0100
0000
,
1000
0010
0001
0010
0100
0010
0010
0000
,
1M1M
0000
0000
0000
1000
0000
0000
0000
0001
0000
1000
0100
1000
0000
0010
0000
,
0010
0100
0001
0100
0010
0100
0001
1000
,
0002
0000
0000
0000
1003
0000
0100
0000
0001
0000
0000
0100
0010
0000
0001
0000
,
0100
0010
1000
0100
0010
0000
MM11
0000
,
0001
0000
0000
0000
0100
0000
0010
1000
0010
0000
1000
0000
1000
0000
0001
0000
,
0100
0010
1000
0001
1001
1000
0100
0001
,
0100
0010
0100
1000
0010
0100
0001
0100
,
0010
0100
0001
0000
1MM1
0000
0001
0100
,
1000
0001
0000
0001
0010
1000
0000
0001
,
0000
2000
0000
3100
0010
0001
0001
0100
,
1000
0001
0000
0001
0010
1000
0000
0010
,
0000
0100
0000
0001
0000
1000
0001
0100
,
1000
0100
0010
0100
1000
0100
0000
0001
,
0000
2000
0000
3001
0100
0010
1000
0100
,
0001
0000
1000
0000
0000
0000
1000
0000
0010
0000
0001
0000
1000
0000
0001
0010
,
0001
0000
0100
0010
0100
0010
0100
0000
0001
0000
1000
0000
1001
0000
0001
0000
,
0100
0000
0010
1000
0010
0000
1000
0000
0100
0000
0001
0000
0100
0000
1000
0001
,
1000
0002
0000
0103
0010
1000
0001
0100
,
1000
0000
0001
0000
0000
0000
0001
0000
0010
0000
1000
0000
0001
0000
0100
0010
,
0100
0001
0010
0001
1000
0010
1000
0001
,
0010
1000
1000
0010
0001
0100
0000
0001
,
0100
0000
0010
0000
1000
0000
0001
0100
0001
0000
1000
0000
0001
0000
0001
0000
,
0010
2000
0000
3010
0100
2002
0000
0000
,
0000
0000
3003
0000
;

//--------------- dance-double - XO+ ----------------
#NOTES:
     dance-double:
     XO+:
     Hard:
     12:
     0,0,0,0,0:
00000000
00000000
00000000
00000000
,
00000000
00000000
00000000
00000000
,
00000000
00000000
00000000
00000000
00000000
00000000
00000000
00010000
,
00010000
00001000
01000000
00000000
00000000
00010000
10000000
00010000
,
01000000
00100000
10000000
00000000
00010000
00000000
00100000
00000000
,
00010000
00000000
00100000
00010000
00100000
00000000
00001000
00000000
00010000
00000000
00000010
00000000
00001000
00000000
00000001
00000000
,
00000000
00000000
00001000
00000100
00001000
00000000
00000001
00000000
00000100
00000000
00000010
00000000
00001000
00000000
00000000
00000000
,
00000001
00000000
00001000
00000010
00001000
00000000
00000010
00000000
00010000
00000000
00001000
00000000
00010000
00000000
00000100
00000000
,
00010000
00001000
00100000
00010000
10000000
00100000
00100000
00000000
,
10000000
00000000
00010000
01000000
00010000
00000000
01000000
00000000
00100000
00000000
00010000
00000000
00100000
00000000
01000000
00000000
,
00010000
00000000
00100000
00001000
00100000
00000000
00010000
00000000
00001000
00000000
00010000
00000000
00000100
00000000
00010000
00000000
,
00000100
00000000
00001000
00000010
00001000
00000000
00000001
00000000
00000100
00000000
00001000
00000000
00000100
00000000
00000010
00000000
,
00001000
00000001
00001000
00000010
00010000
00001000
00001000
00000000
,
00011000
00001000
00100000
00010000
01000000
00100000
10000000
01000000
,
00100000
00000000
00000000
00001000
00010000
00000000
00000010
00000000
00002000
00000000
00000000
00000000
00003001
00000000
00000000
00000000
,
00001000
00000001
00000010
00000100
00001000
00010000
00100000
00010000
,
01000000
00000000
00100000
10000000
00000000
00010000
10000000
00100000
,
10100000
00000000
10000000
01000000
00100000
00010000
00001000
00000100
,
00001000
00000000
00000000
00000010
00001000
00000000
00000100
00000000
00001000
00000000
00000000
00000000
00001001
00000000
00000000
00000000
,
00000001
00000100
00000010
00001000
00000100
00000010
00000001
00001000
,
00000020
00000000
00010030
00001000
00000000
00010000
00001000
01000000
,
01020000
00000000
10030000
01000000
00100000
00010000
10000000
00100000
,
10000000
00010000
10000000
00100000
10000000
01000000
00100000
00010000
,
10000000
01000000
00010000
00000000
00000000
00001000
00000010
00000001
,
00001000
00000010
00001000
00000002
00000000
00001003
00000100
00001000
,
00000001
00000100
00001000
00000000
00000000
00010000
00100000
10000000
,
00010000
00100000
00010000
02000000
00000000
03100000
10000000
00010000
,
10000000
01000000
00010000
00000000
00010000
00001000
00000010
00000001
,
00001000
00000010
00001000
00000002
00000000
00001003
00000100
00001000
,
00000001
00000010
00001000
00000000
00001000
00010000
01000000
10000000
,
00010000
00010000
00000000
10000000
00100000
10000000
00010000
01000000
,
00001000
00000000
00010000
00001000
00010000
00000000
00001000
00000000
00000100
00000000
00001000
00000000
00010000
00000000
00001000
00000000
,
00000000
00000000
01000000
00100000
01000000
00000000
00010000
00000000
01000000
00000000
10000000
00000000
01000000
00000000
00000000
00000000
,
00010000
00000000
01000000
00010000
01000000
00000000
00100000
00000000
00010000
00000000
00100000
00000000
01000000
00000000
00001000
00000000
,
00010000
00000010
00000100
00000010
00001000
00000001
00000001
00000000
,
00001000
00000000
00000001
00000100
00000001
00000000
00000100
00000000
00001000
00000000
00000100
00000000
00000010
00000000
00001000
00000000
,
00000000
00000000
00000010
00010000
00001000
00000000
00010000
00000000
00100000
00000000
01000000
00000000
00010000
00000000
00000000
00000000
,
00100000
00000000
00001000
00010000
00001000
00000000
00010000
00000000
00001000
00000000
00000100
00000000
00001000
00000000
00010000
00000000
,
00000100
00001000
00000001
00001000
00000010
00000100
00000100
00000000
,
00001MM1
00000000
00000001
00001000
00001000
00000100
00010000
00010000
,
00001000
01000000
00100000
10000000
00010000
10000000
01000000
10000000
,
00020000
00000000
01030000
00001000
01000000
00000000
00001000
00001000
,
00010000
00001000
02000000
00000000
03010000
00000000
M11M0000
00000000
,
01000000
00010000
00010000
00100000
00001000
00010000
00000010
00001000
,
00000001
00001000
00000010
00000100
00000001
00000010
00001000
00010000
,
00001000
01000000
00100000
01000000
00001000
01000000
00100000
10000000
,
00100000
10000000
00010000
10000000
1M010000
00000000
00010000
01000000
,
10000000
00000000
00000000
10000000
01000000
00010000
00000000
00100000
,
00000000
00002000
00000000
00013000
00000100
00010000
00010000
00001000
,
00000100
00000000
00000000
00000100
00001000
00010000
00000000
00001000
,
00000000
00010000
00000000
00000010
00000000
00001000
00000001
00000100
,
00001000
00000000
00001000
00010000
00100000
10000000
00010000
01000000
,
00010000
20000000
00000000
31000000
00100000
00010000
00001000
00000100
,
00000010
00000000
00001000
00000010
00000100
00001000
00000010
00000000
,
00010000
00000010
00001000
00000001
00000010
00000100
00001000
00000100
,
00000001
00000100
00000010
00000100
00001000
00000100
00000001
00001000
,
00000100
00020000
00000000
00031000
00100000
00010000
01000000
00100000
,
00010000
00100000
01000000
00010000
00100000
00001000
00010000
00001000
,
00100000
00020000
00000000
00130000
00001000
00010000
00000010
00000100
,
00000010
00001000
00000001
00000100
00001000
00000100
00000010
00001000
,
00000100
00000001
00000100
00001000
00000100
00010000
00001000
01000000
,
00100000
01000000
00010000
10000000
00010000
20020000
00000000
00000000
,
30030000
00000000
00000000
00000000
;
