#TITLE:Today;
#SUBTITLE:;
#ARTIST:Talk Talk;
#TITLETRANSLIT:;
#SUBTITLETRANSLIT:;
#ARTISTTRANSLIT:;
#GENRE:;
#CREDIT:Braeden;
#MUSIC:Today.ogg;
#BANNER:SC2023-bn.png;
#JACKET:SC2023-jacket.png;
#BACKGROUND:SC2023-bg.png;
#CDTITLE:;
#SAMPLESTART:0.000;
#SAMPLELENGTH:0.000;
#SELECTABLE:YES;
#OFFSET:-0.128;
#BPMS:0.000=153.400
,6.000=153.694
,8.000=152.694
,10.000=154.694
,11.000=151.694
,13.000=153.694
,15.000=155.694
,17.000=152.694
,18.000=153.694
,19.000=152.694
,20.000=153.694
,21.000=154.694
,23.000=153.694
,25.000=152.694
,27.000=153.200
,29.000=155.200
,31.000=151.200
,33.000=155.200
,34.000=156.200
,35.000=155.200
,37.000=152.200
,39.000=153.200
,40.000=157.200
,41.000=153.000
,42.000=150.000
,43.000=153.000
,45.000=154.000
,49.000=152.000
,52.000=159.596
,53.000=153.596
,55.000=151.596
,56.000=154.596
,57.000=153.000
,59.000=154.000
,62.000=153.000
,63.000=154.000
,65.000=153.000
,67.000=151.000
,68.000=154.182
,75.000=152.182
,77.000=155.182
,81.000=154.000
,83.000=153.000
,89.000=154.600
,91.000=152.600
,95.000=151.600
,96.000=154.600
,97.000=156.600
,98.000=151.600
,100.000=153.600
,104.000=154.600
,106.000=151.600
,107.000=150.000
,108.000=153.000
,109.000=152.000
,110.000=154.000
,111.000=152.000
,112.000=154.000
,113.000=156.000
,115.000=154.000
,117.000=155.000
,118.000=154.000
,120.000=156.000
,121.000=154.000
,122.000=151.000
,124.000=154.000
,126.000=153.000
,131.000=156.000
,134.000=154.000
,136.000=157.000
,137.000=156.000
,138.000=150.000
,140.000=151.000
,142.000=153.000
,144.000=154.000
,145.000=156.000
,147.000=152.000
,149.000=154.000
,150.000=153.000
,152.000=155.000
,153.000=156.000
,154.000=154.000
,155.000=152.000
,156.000=150.000
,157.000=152.000
,158.000=153.500
,160.000=150.500
,161.000=154.500
,162.000=153.500
,163.000=150.000
,164.000=152.000
,165.000=153.000
,166.000=154.000
,169.000=153.000
,170.000=150.000
,171.000=152.600
,172.000=153.000
,175.000=157.000
,176.000=153.000
,177.000=155.000
,178.000=156.000
,179.000=154.000
,180.000=153.000
,181.000=151.000
,183.000=152.000
,186.000=153.000
,187.000=155.000
,189.000=153.000
,192.000=159.000
,193.000=157.000
,194.000=150.000
,197.000=154.000
,198.000=157.000
,199.000=154.000
,202.000=153.000
,203.000=151.000
,204.000=157.000
,206.000=153.000
,208.000=157.000
,209.000=155.000
,210.000=151.000
,211.000=150.000
,212.000=151.000
,213.000=154.000
,214.000=150.000
,216.000=155.000
,217.000=156.000
,218.000=150.000
,219.000=151.000
,220.000=153.000
,221.000=155.000
,222.000=153.000
,224.000=155.000
,226.000=150.000
,227.000=152.000
,228.000=153.000
,229.000=155.000
,230.000=156.000
,233.000=154.000
,234.000=152.000
,235.000=153.000
,237.000=155.000
,239.000=154.000
,246.000=153.000
,249.000=155.000
,250.000=151.000
,251.000=154.000
,257.000=153.000
,259.000=153.500
,261.000=152.500
,262.000=151.000
,265.000=155.000
,266.000=153.000
,267.000=158.000
,269.000=152.000
,270.000=152.500
,272.000=153.500
,273.000=156.500
,274.000=156.000
,275.000=150.000
,277.000=151.500
,280.000=153.500
,282.000=152.500
,283.000=153.500
,287.000=150.500
;
#STOPS:;
#BGCHANGES:;
#FGCHANGES:;

//--------------- dance-single - ----------------
#NOTES:
     dance-single:
     :
     Beginner:
     1:
     0,0,0,0,0:
0000
0000
0000
0000
,
0000
0000
0000
0000
,
0000
0000
0000
0001
,
0000
0000
0000
1000
,
0000
0000
0000
0010
,
0000
0000
0000
0100
,
0000
0000
0000
0001
,
0000
0000
0000
0100
,
0000
0000
0000
0010
,
0000
0000
0000
1000
,
0000
0000
0001
0000
,
0000
1000
0000
0000
,
0000
0010
0000
0000
,
0000
0100
0000
0000
,
0000
0001
0000
0000
,
0000
1000
0000
0000
,
0000
0010
0000
0000
,
0000
0100
0000
0000
,
0000
0000
1001
0000
,
0000
0000
0000
0000
,
0000
0000
0001
0000
,
0000
0000
0000
0000
,
0000
0000
0100
0000
,
0000
0000
0000
0000
,
0000
0000
1001
0000
,
0000
0000
0001
0000
,
0000
0000
1000
0000
,
0000
0000
0010
0000
,
0000
0000
1000
0000
,
0000
0000
0010
0000
,
0000
0000
0100
0000
,
0000
0000
0001
0000
,
0000
0000
1000
0000
,
0000
0000
0000
0001
,
0000
0000
0100
0000
,
0000
0000
0000
0010
,
0000
0000
0100
0000
,
0000
0000
0000
0010
,
0000
0000
1000
0000
,
0000
0000
0000
0010
,
0000
0000
1000
0000
,
0000
0000
0001
0000
,
0000
0000
0100
0000
,
0000
0010
0000
0000
,
0000
0000
1000
0000
,
0000
0000
0001
0000
,
0000
0000
0100
0000
,
0000
0010
0000
0000
,
0000
0000
1000
0000
,
0000
0000
0001
0000
,
0000
0000
0010
0000
,
0000
0001
0000
0000
,
0000
0000
1000
0000
,
0000
0000
0010
0000
,
0000
0000
1000
0000
,
0000
0000
0001
0000
,
0000
0000
0000
1000
,
0000
0001
0000
0000
,
0000
0000
0100
0000
,
0000
0000
0001
0000
,
0000
0000
1000
0000
,
0000
0000
0010
0000
,
0000
0000
0100
0000
,
0000
0000
0000
0000
,
0000
0000
0001
0000
,
0000
0000
0100
0000
,
0000
0000
0010
0000
,
0000
0000
0100
0000
,
0000
0000
0001
0000
,
0000
0000
1000
0000
,
0000
0000
0100
0000
,
0000
0000
0100
0000
;

//--------------- dance-single - ----------------
#NOTES:
     dance-single:
     :
     Easy:
     4:
     0,0,0,0,0:
0000
0000
0000
0000
,
0000
0000
0000
0000
,
0000
0000
0001
0001
,
0000
1000
0000
0010
,
0000
0100
0000
0001
,
0000
1000
0000
0010
,
0000
1000
0000
0001
,
0000
0010
0000
0100
,
0000
1000
0000
0001
,
0000
1000
0000
0010
,
0000
1000
1000
1000
,
0000
0001
0000
0100
,
0000
0010
0000
1000
,
0000
0001
0000
0100
,
0000
0010
0000
0010
,
0000
1000
0000
0001
,
0000
0010
0000
0001
,
0000
1000
0000
0001
,
0010
0001
0010
0001
,
0000
1000
0000
0010
,
0000
0100
0100
0100
,
0000
0010
0000
1000
,
0000
0001
0001
0001
,
0000
0100
0000
0010
,
0000
1000
0100
1000
,
0000
0001
1000
1000
,
0000
0001
0000
0100
,
0000
0010
0000
1000
,
0000
0001
1000
0010
,
0000
1000
0001
0001
,
0000
0100
0001
0001
,
0000
1000
0000
0010
,
0000
1000
0001
0100
,
0000
0010
0000
1000
,
0000
1000
0010
1000
,
0000
0001
0000
0100
,
0000
0100
0001
1000
,
0000
0001
0000
1000
,
0000
0001
0010
0001
,
0000
0100
0000
0001
,
1000
0010
2000
0000
,
0000
0000
3001
0000
,
0100
0000
0010
0000
,
0000
1000
0000
0000
,
0000
0000
0001
0000
,
0001
0000
0100
0000
,
0010
0000
1000
0000
,
0001
0000
1000
0000
,
0010
0000
1000
0001
,
1000
0000
0001
0100
,
0001
0000
1000
0010
,
1000
0000
0001
0100
,
0010
0000
1001
0000
,
0100
0000
1001
0000
,
0010
0000
1001
0000
,
0100
0000
0001
0000
,
0001
1000
0001
0100
,
0000
0100
0010
1000
,
0000
0001
1000
0010
,
0000
0100
0000
0001
,
0000
1000
0001
0100
,
0000
0001
1000
0010
,
0000
0010
0010
0010
,
0000
0100
0000
0001
,
0000
1000
0001
0100
,
0001
0100
0010
1000
,
0010
1000
0001
1000
,
0001
1000
0010
1000
,
0001
1000
0010
1000
,
0001
0100
0001
1000
,
0010
1000
0001
1000
,
0010
1000
0001
1000
,
0001
0000
0000
0000
;

//--------------- dance-single - ----------------
#NOTES:
     dance-single:
     :
     Medium:
     8:
     0,0,0,0,0:
0000
0000
0000
0000
,
0000
0000
0000
0000
,
0000
0000
0000
0000
1001
0000
0001
1000
,
0000
0000
0010
0000
0000
1000
0001
0000
,
0010
0000
0001
0000
1000
0000
0010
1000
,
0000
0000
1001
0000
0000
0001
0010
0000
,
0001
0000
1000
0000
0100
0000
0010
0002
,
0000
0013
0100
1100
,
1000
0000
1001
0000
0001
0000
1000
0020
,
0000
0000
0130
0000
0000
0001
0010
0000
,
0001
0000
1000
0010
1000
0000
1001
0000
,
0001
0101
0100
0110
,
0010
0000
1010
0000
1000
0000
0001
0200
,
0000
0310
1000
0001
,
0100
0000
0010
1000
0010
0000
1010
0000
,
1000
1001
0001
0101
,
0100
0000
0110
0000
0010
0000
1000
0002
,
0000
0103
0010
1000
,
0001
1000
0001
1000
0001
0100
0000
0010
,
0000
1000
0000
0001
0000
1000
0000
0010
,
0000
0000
1000
0001
1000
0010
0000
0100
,
0000
0001
0000
0010
0000
0001
0000
1000
,
0000
0000
0001
1000
0001
0000
1000
0010
,
0000
1000
0000
0001
0000
1000
0000
0010
,
0000
0100
0001
0000
1001
0000
1000
0010
,
0000
0000
1000
0010
1000
0000
0001
0000
,
0100
0010
1010
1000
,
0001
0100
0001
1000
,
0100
0000
0010
0000
0011
0000
0001
0200
,
0000
0000
0301
0000
0101
0000
0001
2000
,
0000
3010
0100
0001
,
1000
0002
1000
0103
,
0010
0001
1000
0000
0010
0000
1000
0200
,
0000
0000
0310
0000
0000
0100
1000
0000
,
0001
0000
0100
0000
0101
0000
0001
2000
,
0000
0000
3010
0000
0000
0100
0001
0000
,
1000
0000
0001
0000
1001
0000
1000
0002
,
0000
0000
1003
0000
0010
0100
0010
0000
,
1000
0000
0001
0000
1001
0000
1000
0020
,
0000
0130
0001
1000
,
0010
1000
2001
0000
,
0000
0000
3020
0030
,
0200
0000
0000
0000
0301
0000
0000
1000
,
0000
0200
0300
0000
,
0000
0000
0010
0001
,
0010
0001
0010
0000
0001
0000
1000
0000
,
0010
1000
0001
0000
0100
0000
0010
0000
,
1000
0001
1000
0000
0001
0000
0010
0000
,
0100
1000
0001
0000
1000
0000
1010
0000
,
0010
0000
1000
0001
1000
0000
1001
0000
,
0001
0000
0100
0010
0100
0000
0101
0000
,
0001
0000
1000
0100
1000
0000
1001
0000
,
0001
0000
0100
0001
0100
0000
0110
0000
,
0010
0000
1000
0001
1000
0000
1001
0000
,
0001
0000
0100
0010
0100
0000
0001
0000
,
1000
0100
1100
1000
,
0001
0100
0001
0100
0001
0000
1000
0010
,
0000
0000
1000
0010
0100
0000
0101
0000
,
0001
1001
1000
0010
,
1000
0001
0100
0001
,
0010
0000
0001
0000
1001
0000
1000
0020
,
0000
0000
0130
0000
0101
0000
0001
0200
,
0000
0310
1010
1000
,
0001
0010
0001
1000
,
0010
0000
1000
0000
1001
0000
0001
0100
,
0000
0000
0001
0100
0010
0000
1000
0000
,
0010
1000
1001
0001
,
0010
0001
0100
0010
,
1000
0000
0001
0000
1001
0000
1000
0020
,
0000
0000
1030
0000
1001
0000
1000
0002
,
0000
1003
0010
0100
,
0001
0010
0100
1000
,
0001
1000
0000
0000
;

//--------------- dance-single - XO JA ----------------
#NOTES:
     dance-single:
     XO JA:
     Hard:
     12:
     0,0,0,0,0:
0000
0000
0000
0000
,
0000
0000
0000
0000
,
0000
0000
0000
0000
1001
0000
1000
0100
,
1000
0000
1001
0000
0001
0010
0001
1000
,
0100
1000
0010
0000
1000
0001
0010
1000
,
0010
0000
0001
0000
0010
0001
1000
0010
,
1000
0000
1001
0000
1000
0001
0100
1000
,
0100
0001
1000
1010
,
0010
0100
0000
0001
1000
0001
0100
1000
,
0100
0000
0010
0000
0100
0001
0100
0010
,
1000
0001
1000
0000
1000
0010
0100
0002
,
0000
0103
0010
2000
0000
3001
0100
0020
,
0000
0130
0001
1000
0001
1000
0100
0001
,
0100
0000
1100
0000
1000
0001
0010
0000
,
0001
1000
0010
0100
0000
0001
0100
0010
,
0000
1000
0100
1000
0000
0001
0010
0001
,
0000
0100
0010
1000
0001
1000
0010
0001
,
0010
0000
1000
0000
0001
0010
0001
1000
,
0100
1000
0001
0000
1001
1000
0010
0200
,
0000
0301
1000
0020
0000
1030
0100
0020
,
0000
0031
0010
0000
0001
1000
0100
0020
,
0000
0031
0010
0002
0000
1003
0010
2000
,
0000
3001
0100
0000
0010
0000
1000
0001
,
0000
1000
0010
1000
0000
0001
0100
0020
,
0000
1030
0100
0010
0011
0000
0001
0001
,
0100
0000
0010
1000
1100
0000
0100
0010
,
0000
0001
1000
0000
0001
0010
0001
2000
,
0000
3010
0100
0002
0000
0013
0100
1000
,
0001
0100
0001
0000
1001
0000
1000
1000
,
0010
0000
0100
0000
0101
0000
0001
0001
,
1000
0000
0010
0000
1010
0000
1000
0100
,
0000
0010
0002
0000
1003
0000
0010
0000
,
0100
0001
0100
0001
0100
0010
0001
0010
,
1000
0000
1010
0000
0000
1000
1000
0000
,
0010
0000
0100
0000
0001
0100
1000
0100
,
0010
0000
1010
0000
0000
1000
1000
0001
,
0001
0100
0100
0000
0001
0010
1000
0010
,
0001
0000
1001
0000
0000
1000
1000
0000
,
0010
0000
0100
0000
0001
0100
1000
0100
,
0010
0000
0100
0000
0000
0001
0001
1000
,
1000
0010
0100
0001
2000
0000
0010
0000
,
0010
3010
0200
0310
,
2000
0000
3001
0000
0020
0000
0130
1000
,
0001
0200
0310
1000
,
0001
0000
1000
0001
1000
0100
0010
0000
,
0001
0010
0100
1000
0001
0100
0010
0000
,
1000
0100
1000
0001
0100
0010
1000
0000
,
0001
0010
0100
1000
0010
0100
0001
0000
,
1000
0100
0010
0001
1000
0100
0001
0000
,
0100
1000
0010
1000
0001
0100
0010
0000
,
1000
0100
1000
0001
1000
0100
1000
0010
,
1000
0001
0100
0001
0010
0100
1000
0000
,
0001
1000
0001
0000
1000
0010
0001
0000
,
0010
0100
0001
0100
1000
0000
0100
0000
,
0001
0010
0001
0010
1000
0010
0100
0000
,
1000
0001
1000
0010
0100
0010
1000
0000
,
0001
0010
0100
1000
0001
0100
0010
0010
,
1000
0000
0001
1000
1001
0000
0001
0100
,
0010
0000
1000
0100
0010
0001
1000
0001
,
0100
0110
0010
1001
,
1000
0100
1000
0000
1001
1000
0001
0002
,
0000
0000
0103
0000
1010
0010
1000
2000
,
0000
0000
3100
0000
1100
0000
1000
0001
,
0000
0100
0020
0000
1030
0100
1000
0001
,
1000
0000
0010
0000
1000
0100
1000
1000
,
0001
0100
0010
0010
1000
0100
1000
0001
,
1000
0010
0100
0001
0100
0010
0100
0010
,
0001
0010
1000
0010
0100
0001
1000
0100
,
0010
0001
1000
0000
0001
0100
0010
0010
,
1000
0100
0010
0000
0001
0100
0010
0010
,
1000
0001
1000
0001
1000
0010
0100
0010
,
0001
0010
1000
0001
1000
0100
0010
0001
,
1000
0010
0100
0001
0000
0000
0000
0000
;

//--------------- dance-single - FS XO SJ ----------------
#NOTES:
     dance-single:
     FS XO SJ:
     Challenge:
     15:
     0,0,0,0,0:
0000
0000
0000
0000
,
0000
0000
0000
0000
,
0000
0000
0000
0000
0000
0000
0000
0000
1001
0000
0001
0000
0100
00M0
0100
0000
,
0000
0000
1000
0000
0010
0M00
0010
0000
0000
0000
0001
0000
0010
0000
1000
0000
,
0010
0000
0001
0000
0010
0000
0100
0000
1000
0000
0001
0000
0100
00M0
0100
0000
,
0000
0000
1000
0000
0010
0M00
0010
0000
0001
0000
1000
0000
0010
0000
0100
0000
,
0001
0000
0000
0000
1002
0000
0000
0000
1003
0000
0001
0000
0010
0M00
0010
0000
,
0000
0000
1000
0000
0100
00M0
0100
0000
0001
0000
1000
0000
0010
0000
0001
0000
,
0010
0000
0100
0000
0010
0000
1000
0000
0001
0000
1000
0000
0010
0M00
0010
0000
,
0000
0000
0001
0000
0100
00M0
0100
0000
1000
0000
0001
0000
0010
0000
2000
0000
,
0000
0000
3010
0000
0100
0000
1000
0001
1000
0000
0001
0000
0100
0000
2000
0000
,
0000
3100
0001
0200
0000
0310
0100
0001
,
0000
0000
0010
0000
0100
0000
1000
0000
0010
0000
1000
0000
0010
0M00
0010
0000
,
0000
0000
0001
0000
0100
M000
0100
0000
0010
0000
0001
0000
0010
0000
1000
0000
,
0010
0000
0001
0000
1000
0000
0010
0100
0010
0000
1000
0000
0100
0000
0001
0000
,
0000
0001
0100
1000
0000
1000
0010
0001
,
0000
0000
0001
0000
0010
0000
1000
0000
0001
0000
0010
0000
0100
M000
0100
0000
,
0001
0000
0100
00M0
0100
0000
1000
0000
0001
0000
0100
0000
0001
0000
1000
0100
,
0010
0001
1000
0010
0100
0001
0010
0001
1000
0000
0001
0000
0010
0000
2000
0000
,
0010
3010
0001
0100
0010
1000
0100
1000
,
0000
0000
0000
0000
0001
0000
1000
0010
1000
0000
0001
0000
0100
0000
0020
0000
,
0001
0031
0010
0100
0001
1000
0100
0010
,
0001
0000
1000
0000
0010
0000
1000
0001
1000
0000
0001
0000
0010
0000
2000
0000
,
0000
3010
0001
1000
0000
0010
0100
0010
,
1000
0000
0001
0010
0100
1000
0001
0100
0001
0000
1000
0000
0010
0000
0010
0000
,
0100
0001
1000
1000
1001
0001
0010
0100
,
0010
0001
0010
0100
1000
0010
0001
0010
,
1000
0100
1000
0001
1000
0100
0001
0100
,
0010
0001
1000
0010
0110
0100
0001
0001
,
1000
0010
0100
0000
1001
0001
0100
0100
,
0010
1000
0001
0000
0101
0100
0010
1000
,
0001
0100
0010
0100
0001
0010
0100
1000
,
0001
0010
0001
1000
0100
0010
0001
1000
0001
0000
0010
0000
1000
0000
0020
0000
,
0000
0030
0011
0000
0000
0001
0001
0000
,
0101
0000
0110
0000
1010
1000
0010
0001
,
0000
0010
1000
0001
0000
1000
1000
0001
,
0001
0100
0100
0000
0110
0010
1000
0010
,
0000
0001
0010
0100
0000
0001
0001
0000
,
0101
0000
1001
0000
1010
1000
0010
0001
,
0000
0010
0100
0010
0000
1000
1000
0001
,
0001
0000
0100
0010
0100
0001
1000
0001
0200
0000
0000
0000
0001
0000
0000
0000
,
0001
0301
0002
1003
,
0020
0000
0100
0000
2030
0000
3001
0100
,
0001
2000
3010
0100
,
0001
0000
0000
0000
1000
0000
0001
0010
0001
0000
1000
0000
0010
0000
0100
0001
,
0010
0001
1000
0100
0010
0001
1000
0010
1000
0000
0100
0000
0010
0000
0001
0100
,
0010
1000
0100
0010
0001
1000
0010
1000
0001
0000
0010
0000
0100
0000
1000
0010
,
1000
0001
0010
0001
1000
0100
0010
0001
1000
0000
0100
0000
1000
0000
0001
0010
,
0100
1000
0001
0100
0010
0000
1000
0000
0001
0000
1000
0000
1010
0000
0010
0000
,
0100
0000
0001
0010
0100
1000
0001
1000
0001
0000
0100
0000
0101
0000
0001
0000
,
1000
0000
0100
0010
0001
1000
0010
0100
0001
0000
1000
0000
1010
0000
0010
0000
,
0100
0000
0001
0010
0001
1000
0100
1000
0001
0000
0100
0000
0101
0000
0001
0000
,
1000
0000
0100
0010
0001
1000
0010
0100
0001
0000
1000
0000
1010
0000
0010
0000
,
0100
0000
0001
0010
0100
1000
0100
0010
0001
0000
0100
0000
0101
0000
0001
0000
,
1000
0000
0010
0100
0001
1000
0100
0010
0001
0000
0100
0000
0010
0000
1000
0000
,
0001
0000
1000
0100
0010
0001
0100
0001
1000
0000
0010
0000
1000
0000
0001
0010
,
0001
0100
0010
1000
0010
0100
0001
1000
0001
0000
1000
0000
0010
0M00
0010
0000
,
0001
0000
1000
0000
0100
00M0
0100
0000
0101
0000
0001
0000
1000
0000
0100
0000
,
1000
0010
0100
0001
1001
1000
0010
2000
,
0000
3001
0010
0200
0000
1300
0100
1000
,
0010
0000
0100
0000
0001
0000
0000
0000
1001
0000
1000
0000
0010
0M00
0010
0000
,
0001
0000
0000
0000
1000
0000
0000
0000
1001
0000
0001
0000
0100
00M0
0100
0000
,
1000
0000
0001
0000
1002
0000
0103
1000
,
0100
0000
0001
0000
1000
0010
0100
0001
,
1000
0000
0100
0000
0010
0000
0001
0000
1000
0000
0001
0000
0100
00M0
0100
0000
,
1000
0000
0001
0000
0010
0M00
0010
0000
1010
0000
1000
0000
0010
0000
0100
0000
,
0010
0100
0001
1000
1001
0001
0010
1000
,
0010
0100
0010
0001
1000
0100
1000
0010
,
0100
0000
0001
0000
1000
0000
0010
0000
1010
0000
1000
0000
0010
0M00
0010
0000
,
0001
0000
1000
0000
0001
0000
0100
0000
0101
0000
0001
0000
0010
0M00
0010
0000
,
0100
0001
0100
0010
1000
0010
0100
0010
,
1000
0000
0100
0000
0010
0000
0001
0000
1000
0000
0010
0000
1000
0000
0100
1000
,
0010
0100
0001
1000
0001
1000
0001
0000
0000
0000
0000
0000
0000
0000
0000
0000
;

//--------------- dance-double - FS XO ----------------
#NOTES:
     dance-double:
     FS XO:
     Hard:
     13:
     0,0,0,0,0:
00000000
00000000
00000000
00000000
,
00000000
00000000
00000000
00000000
,
00000000
00000000
00000000
00000000
00011000
00001000
01000000
00100000
,
00000000
10000000
00100000
01000000
00010000
10000000
01000000
00010000
,
01000000
00100000
00010000
00000000
00100000
00001000
00010000
00000100
,
00001000
00000010
00001000
00000000
00000001
00000100
00001000
00000100
,
00000010
00000000
00001010
00000000
00001000
00000100
00000010
00000001
,
00000000
00000010
00000100
00001000
00010000
00100000
01000000
10000000
,
00100000
01000000
00100000
10000000
00010000
00100000
01000000
10000000
,
00000000
00010000
00100000
00010000
01000000
00001000
00010000
00002000
,
00000000
00000000
00003000
00000000
00010000
00000000
00001000
00010000
00001000
00000000
00010000
00000000
00000100
00000000
00002000
00000000
,
00000000
00013000
00001000
00000200
00000000
00001300
00000001
00001000
,
00000100
00000010
00000001
00001000
00000001
00001000
00000010
00000001
,
00000010
00000100
00000101
00000000
00000010
00010000
00000100
00010000
,
00001000
00000000
01000000
00000000
00010000
00000000
10000000
00100000
10000000
00000000
00010000
00000000
00100000
00000000
00002000
00000000
,
00000000
00013000
00000010
00002000
00000000
00003001
00000010
00000100
,
00001000
00000010
00000100
00000001
00001000
00000010
00000001
00000010
,
00000100
00000001
00000011
00000000
00000100
00001000
00000100
00010000
,
00001000
00010000
00001000
00000000
00100000
00010000
00100000
00000000
00110000
00000000
00010000
00000000
01000000
00000000
10000000
00000000
,
00000000
10000000
01000000
00010000
00000000
00001000
00000010
00000001
,
00000010
00000000
00000100
00000000
00000001
00000000
00001000
00000100
00001000
00000000
00000001
00000000
00000100
00000000
00001000
00000000
,
00000000
00010000
00100000
10000000
00000000
00010000
01000000
00100000
,
01000000
00000000
00001000
00000000
00010000
00000000
00000100
00001000
00000100
00000000
00001000
00000000
00000010
00000000
00000100
00000000
,
00000000
00001000
00000100
00000001
00000000
00001000
00000100
00001000
,
00000100
00000000
00010000
00000000
00001000
00000000
00010000
00000000
00011000
00000000
00000000
00000000
00001000
000M0000
00001000
00000000
,
00000100
00000000
00000000
00000000
00000010
0000000M
00000010
00000000
00002010
00000000
00000000
00000000
00003001
00000000
00000100
00000000
,
00000010
00010000
00001000
00010000
00001000
01000000
00100000
01000000
,
00010000
10000000
01000000
10000000
00010000
00100000
01000000
00000000
,
10000000
00000000
00000000
00000000
00100000
00000000
00000000
00000000
01100000
00000000
00000000
00000000
01000000
00M00000
01000000
00000000
,
10000000
00000000
00000000
00000000
00001000
00000000
00000000
00000000
00011000
00000000
00000000
00000000
00001000
000M0000
00001000
00000000
,
00000100
00000000
00000010
00000000
00000011
00000001
00001000
00000100
,
00000010
00000001
00001000
00000010
00000100
00000001
00001000
00000100
,
00010000
00001000
00010000
00000000
00000100
00001000
00000100
00000000
00010000
00000000
00001000
00000000
01000000
00000000
00100000
00000000
,
00000000
00000000
10100000
00000000
00000000
10000000
00001000
00000000
,
00010000
00000000
00000100
00000000
00010100
00010000
00000010
00000100
,
00000001
00000000
00000101
00000000
00000000
00000001
00000001
00001000
,
00001000
00000100
00000100
00000000
00001100
00000100
00010000
00001000
,
01000000
00000000
01010000
00000000
00000000
00010000
00010000
00000000
,
00100000
00000000
01000000
00000000
11000000
10000000
01000000
00100000
,
00010000
00000000
00110000
00000000
00000000
00100000
00100000
00001000
,
00001000
00010000
00010000
00000100
00002000
00000000
00000100
00000000
,
00000010
00000001
00003020
00001030
,
00000200
00000000
00010000
00000000
00020300
00000000
00031000
00010000
,
00002000
00203000
00310000
10000000
,
00100000
00000000
00000000
00000000
10000000
00000000
00010000
01000000
00010000
00000000
10000000
00000000
01000000
00000000
00100000
00000000
,
00010000
00000000
01000000
00000000
00100000
00000000
10000000
00010000
10000000
00000000
01000000
00000000
00100000
00000000
00010000
00000000
,
00001000
00000000
00000100
00000000
00000010
00000000
00000001
00000100
00000010
00000000
00010000
00000000
00001000
00000000
00010000
00000000
,
00001000
01000000
00100000
01000000
00010000
10000000
01000000
10000000
,
00010000
01000000
00100000
00000000
10000000
00010000
10010000
10000000
,
01000000
00100000
00001000
00010000
00000100
00001000
00001100
00000000
,
00000100
00001000
00000001
00000100
00000010
00010000
00011000
00000000
,
00001000
01000000
00100000
01000000
00010000
10000000
10100000
00000000
,
00100000
10000000
01000000
00100000
00001000
00010000
00001100
00000000
,
00000100
00010000
00000100
00010000
00000010
00000000
00001010
00000000
,
00001000
00000100
00000010
00000001
00000011
00000000
00000100
00001000
,
00000010
00000100
00000001
00000010
00000100
00001000
00010000
00100000
,
01000000
00000000
10000000
00000000
00100000
00000000
10000000
00000000
00010000
00000000
10000000
00000000
01000000
00M00000
01000000
00000000
,
00010000
00000000
00000000
00000000
00010000
00M00000
00010000
00000000
00011000
00000000
00000000
00000000
00001000
00000000
00010000
00000000
,
00000000
00000100
00010000
00000010
00001000
00000100
00000010
00000001
,
00000200
00000000
00000301
00000010
00000001
00001000
00000010
00001000
,
00000100
00000000
00000010
00000000
00000011
00000000
00000000
00000000
00000001
00000000
00001000
00000000
00000100
0000000M
00000100
00000000
,
00000010
00000000
00000000
00000000
00010000
00000000
00000000
00000000
00001000
00000000
00010000
00000000
00001000
000M0000
00001000
00000000
,
00000100
00000000
00000010
00000000
00000110
00000000
00000100
00000010
,
00001000
00000200
00010300
00001000
,
00100000
00000000
00010000
00000000
10000000
00000000
00000000
00000000
00010000
00000000
10000000
00000000
01000000
00M00000
01000000
00000000
,
00010000
00000000
10000000
00000000
00100000
0M000000
00100000
00000000
00010000
00000000
01000000
00000000
00100000
00000000
00010000
00000000
,
00100000
01000000
00010000
00100000
00001000
00010000
00000100
00001000
,
00000010
00000100
00001000
00000100
00000001
00000010
00000001
00001000
,
00000010
00000000
00001000
00000000
00000100
00000000
00000010
00000000
00000001
00000000
00001000
00000000
00000100
0000000M
00000100
00000000
,
00000010
00000000
00010000
00000000
00001000
00000000
00010000
00000000
00000100
00000000
00010000
00000000
00001000
000M0000
00001000
00000000
,
00000100
00010000
00001000
00100000
00010000
00100000
01000000
10000000
,
00100000
01000000
00010000
01000000
00001000
00010000
00000200
00000000
,
00001300
00000001
00010000
00010000
00000000
00000000
00000000
00000000
;
