#VERSION:0.83;
#TITLE:The Devil's Den;
#SUBTITLE:;
#ARTIST:Skrillex & Wolfgang Gartner;
#TITLETRANSLIT:;
#SUBTITLETRANSLIT:;
#ARTISTTRANSLIT:;
#GENRE:;
#ORIGIN:;
#CREDIT:;
#BANNER:bn_thedevilsden.png;
#BACKGROUND:bg_thedevilsden.png;
#PREVIEWVID:;
#JACKET:jacket_thedevilsden.png;
#CDIMAGE:;
#DISCIMAGE:;
#LYRICSPATH:;
#CDTITLE:;
#MUSIC:Skrillex & Wolfgang Gartner - The Devil's Den.ogg;
#OFFSET:0.000000;
#SAMPLESTART:85.780998;
#SAMPLELENGTH:13.594000;
#SELECTABLE:YES;
#DISPLAYBPM:128.000000;
#BPMS:0.000=128.000;
#STOPS:;
#DELAYS:;
#WARPS:;
#TIMESIGNATURES:0.000=4=4;
#TICKCOUNTS:0.000=4;
#COMBOS:0.000=1;
#SPEEDS:0.000=1.000=0.000=0;
#SCROLLS:0.000=1.000;
#FAKES:;
#LABELS:0.000=Song Start;
#BGCHANGES:;
#FGCHANGES:0.000=lua/default.lua=1.000=0=0=1=====,
;
#KEYSOUNDS:;
#ATTACKS: TIME=0.00:LEN=130.00:MODS=*1000 Overhead, *1000 2.5x, *1000 No Cover: TIME=0.00:LEN=7.58:MODS=*1000 100% Beat: TIME=3.75:LEN=0.04:MODS=*1000 0.2x: TIME=26.25:LEN=0.04:MODS=*1000 0.2x: TIME=30.00:LEN=0.04:MODS=*1000 0.2x: TIME=33.75:LEN=0.04:MODS=*1000 0.2x: TIME=37.50:LEN=0.04:MODS=*1000 0.2x: TIME=41.25:LEN=0.04:MODS=*1000 0.2x: TIME=45.00:LEN=0.04:MODS=*1000 0.2x: TIME=48.75:LEN=0.04:MODS=*1000 0.2x: TIME=52.50:LEN=0.04:MODS=*1000 0.2x: TIME=7.50:LEN=0.01:MODS=*1000 -50% Flip: TIME=7.51:LEN=0.01:MODS=*1000 400% Cross: TIME=7.52:LEN=0.01:MODS=*1000 -50% Flip: TIME=7.53:LEN=0.01:MODS=*1000 400% Cross: TIME=7.54:LEN=0.01:MODS=*1000 -50% Flip: TIME=7.55:LEN=0.01:MODS=*1000 400% Cross: TIME=7.56:LEN=0.01:MODS=*1000 -50% Flip: TIME=7.57:LEN=0.01:MODS=*1000 400% Cross: TIME=7.58:LEN=0.01:MODS=*1000 -50% Flip: TIME=7.59:LEN=0.01:MODS=*1000 400% Cross: TIME=7.60:LEN=0.01:MODS=*1000 -50% Flip: TIME=7.61:LEN=0.01:MODS=*1000 400% Cross: TIME=7.62:LEN=0.01:MODS=*1000 -50% Flip: TIME=7.63:LEN=0.01:MODS=*1000 400% Cross: TIME=7.64:LEN=0.01:MODS=*1000 -50% Flip: TIME=7.65:LEN=0.01:MODS=*1000 400% Cross: TIME=7.66:LEN=0.01:MODS=*1000 -50% Flip: TIME=7.67:LEN=0.01:MODS=*1000 400% Cross: TIME=7.68:LEN=0.01:MODS=*1000 -50% Flip: TIME=7.69:LEN=0.01:MODS=*1000 400% Cross: TIME=7.70:LEN=0.01:MODS=*1000 -50% Flip: TIME=7.71:LEN=0.01:MODS=*1000 400% Cross: TIME=7.71:LEN=0.01:MODS=*1000 -50% Flip: TIME=7.72:LEN=0.01:MODS=*1000 400% Cross: TIME=7.73:LEN=0.01:MODS=*1000 -50% Flip: TIME=7.74:LEN=0.01:MODS=*1000 400% Cross: TIME=7.75:LEN=0.01:MODS=*1000 -50% Flip: TIME=7.76:LEN=0.01:MODS=*1000 400% Cross: TIME=7.77:LEN=0.01:MODS=*1000 -50% Flip: TIME=7.78:LEN=0.01:MODS=*1000 400% Cross: TIME=7.79:LEN=0.01:MODS=*1000 -50% Flip: TIME=7.80:LEN=0.01:MODS=*1000 400% Cross: TIME=7.81:LEN=0.01:MODS=*1000 -50% Flip: TIME=7.82:LEN=0.01:MODS=*1000 400% Cross: TIME=7.83:LEN=0.01:MODS=*1000 -50% Flip: TIME=7.84:LEN=0.01:MODS=*1000 400% Cross: TIME=7.85:LEN=0.01:MODS=*1000 -50% Flip: TIME=7.86:LEN=0.01:MODS=*1000 400% Cross: TIME=7.87:LEN=0.01:MODS=*1000 -50% Flip: TIME=7.88:LEN=0.01:MODS=*1000 400% Cross: TIME=7.89:LEN=0.01:MODS=*1000 -50% Flip: TIME=7.90:LEN=0.01:MODS=*1000 400% Cross: TIME=7.91:LEN=0.01:MODS=*1000 -50% Flip: TIME=7.92:LEN=0.01:MODS=*1000 400% Cross: TIME=7.93:LEN=0.01:MODS=*1000 -50% Flip: TIME=7.94:LEN=0.01:MODS=*1000 400% Cross: TIME=7.95:LEN=0.01:MODS=*1000 -50% Flip: TIME=7.96:LEN=0.01:MODS=*1000 400% Cross: TIME=7.97:LEN=0.01:MODS=*1000 -50% Flip: TIME=7.98:LEN=0.01:MODS=*1000 400% Cross: TIME=7.99:LEN=0.01:MODS=*1000 -50% Flip: TIME=8.00:LEN=0.01:MODS=*1000 400% Cross: TIME=8.01:LEN=0.01:MODS=*1000 -50% Flip: TIME=8.02:LEN=0.01:MODS=*1000 400% Cross: TIME=8.03:LEN=0.01:MODS=*1000 -50% Flip: TIME=8.04:LEN=0.01:MODS=*1000 400% Cross: TIME=8.05:LEN=0.01:MODS=*1000 -50% Flip: TIME=8.06:LEN=0.01:MODS=*1000 400% Cross: TIME=8.07:LEN=0.01:MODS=*1000 -50% Flip: TIME=8.08:LEN=0.01:MODS=*1000 400% Cross: TIME=8.09:LEN=0.01:MODS=*1000 -50% Flip: TIME=8.10:LEN=0.01:MODS=*1000 400% Cross: TIME=8.11:LEN=0.01:MODS=*1000 -50% Flip: TIME=8.12:LEN=0.01:MODS=*1000 400% Cross: TIME=8.13:LEN=0.01:MODS=*1000 -50% Flip: TIME=8.14:LEN=0.01:MODS=*1000 400% Cross: TIME=8.14:LEN=0.01:MODS=*1000 -50% Flip: TIME=8.15:LEN=0.01:MODS=*1000 400% Cross: TIME=8.16:LEN=0.01:MODS=*1000 -50% Flip: TIME=8.17:LEN=0.01:MODS=*1000 400% Cross: TIME=8.18:LEN=0.01:MODS=*1000 -50% Flip: TIME=8.19:LEN=0.01:MODS=*1000 400% Cross: TIME=8.20:LEN=0.01:MODS=*1000 -50% Flip: TIME=8.21:LEN=0.01:MODS=*1000 400% Cross: TIME=8.22:LEN=0.01:MODS=*1000 -50% Flip: TIME=8.23:LEN=0.01:MODS=*1000 400% Cross: TIME=8.24:LEN=0.01:MODS=*1000 -50% Flip: TIME=8.25:LEN=0.01:MODS=*1000 400% Cross: TIME=8.26:LEN=0.01:MODS=*1000 -50% Flip: TIME=8.27:LEN=0.01:MODS=*1000 400% Cross: TIME=8.28:LEN=0.01:MODS=*1000 -50% Flip: TIME=8.29:LEN=0.01:MODS=*1000 400% Cross: TIME=8.30:LEN=0.01:MODS=*1000 -50% Flip: TIME=8.31:LEN=0.01:MODS=*1000 400% Cross: TIME=8.32:LEN=0.01:MODS=*1000 -50% Flip: TIME=8.33:LEN=0.01:MODS=*1000 400% Cross: TIME=8.34:LEN=0.01:MODS=*1000 -50% Flip: TIME=8.35:LEN=0.01:MODS=*1000 400% Cross: TIME=8.36:LEN=0.01:MODS=*1000 -50% Flip: TIME=8.37:LEN=0.01:MODS=*1000 400% Cross: TIME=8.38:LEN=0.01:MODS=*1000 -50% Flip: TIME=8.39:LEN=0.01:MODS=*1000 400% Cross: TIME=8.40:LEN=0.01:MODS=*1000 -50% Flip: TIME=8.41:LEN=0.01:MODS=*1000 400% Cross: TIME=8.42:LEN=0.01:MODS=*1000 -50% Flip: TIME=8.43:LEN=0.01:MODS=*1000 400% Cross: TIME=8.44:LEN=0.01:MODS=*1000 -50% Flip: TIME=8.45:LEN=0.01:MODS=*1000 400% Cross: TIME=8.46:LEN=0.01:MODS=*1000 -50% Flip: TIME=8.47:LEN=0.01:MODS=*1000 400% Cross: TIME=8.48:LEN=0.01:MODS=*1000 -50% Flip: TIME=8.49:LEN=0.01:MODS=*1000 400% Cross: TIME=8.50:LEN=0.01:MODS=*1000 -50% Flip: TIME=8.51:LEN=0.01:MODS=*1000 400% Cross: TIME=8.52:LEN=0.01:MODS=*1000 -50% Flip: TIME=8.53:LEN=0.01:MODS=*1000 400% Cross: TIME=8.54:LEN=0.01:MODS=*1000 -50% Flip: TIME=8.55:LEN=0.01:MODS=*1000 400% Cross: TIME=8.56:LEN=0.01:MODS=*1000 -50% Flip: TIME=8.57:LEN=0.01:MODS=*1000 400% Cross: TIME=8.57:LEN=0.01:MODS=*1000 -50% Flip: TIME=8.58:LEN=0.01:MODS=*1000 400% Cross: TIME=8.59:LEN=0.01:MODS=*1000 -50% Flip: TIME=8.60:LEN=0.01:MODS=*1000 400% Cross: TIME=8.61:LEN=0.01:MODS=*1000 -50% Flip: TIME=8.62:LEN=0.01:MODS=*1000 400% Cross: TIME=8.63:LEN=0.01:MODS=*1000 -50% Flip: TIME=8.64:LEN=0.01:MODS=*1000 400% Cross: TIME=8.65:LEN=0.01:MODS=*1000 -50% Flip: TIME=8.66:LEN=0.01:MODS=*1000 400% Cross: TIME=8.67:LEN=0.01:MODS=*1000 -50% Flip: TIME=8.68:LEN=0.01:MODS=*1000 400% Cross: TIME=8.69:LEN=0.01:MODS=*1000 -50% Flip: TIME=8.70:LEN=0.01:MODS=*1000 400% Cross: TIME=8.71:LEN=0.01:MODS=*1000 -50% Flip: TIME=8.72:LEN=0.01:MODS=*1000 400% Cross: TIME=8.73:LEN=0.01:MODS=*1000 -50% Flip: TIME=8.74:LEN=0.01:MODS=*1000 400% Cross: TIME=8.75:LEN=0.01:MODS=*1000 -50% Flip: TIME=8.76:LEN=0.01:MODS=*1000 400% Cross: TIME=8.77:LEN=0.01:MODS=*1000 -50% Flip: TIME=8.78:LEN=0.01:MODS=*1000 400% Cross: TIME=8.79:LEN=0.01:MODS=*1000 -50% Flip: TIME=8.80:LEN=0.01:MODS=*1000 400% Cross: TIME=8.81:LEN=0.01:MODS=*1000 -50% Flip: TIME=8.82:LEN=0.01:MODS=*1000 400% Cross: TIME=8.83:LEN=0.01:MODS=*1000 -50% Flip: TIME=8.84:LEN=0.01:MODS=*1000 400% Cross: TIME=8.85:LEN=0.01:MODS=*1000 -50% Flip: TIME=8.86:LEN=0.01:MODS=*1000 400% Cross: TIME=8.87:LEN=0.01:MODS=*1000 -50% Flip: TIME=8.88:LEN=0.01:MODS=*1000 400% Cross: TIME=8.89:LEN=0.01:MODS=*1000 -50% Flip: TIME=8.90:LEN=0.01:MODS=*1000 400% Cross: TIME=8.91:LEN=0.01:MODS=*1000 -50% Flip: TIME=8.92:LEN=0.01:MODS=*1000 400% Cross: TIME=8.93:LEN=0.01:MODS=*1000 -50% Flip: TIME=8.94:LEN=0.01:MODS=*1000 400% Cross: TIME=8.95:LEN=0.01:MODS=*1000 -50% Flip: TIME=8.96:LEN=0.01:MODS=*1000 400% Cross: TIME=8.97:LEN=0.01:MODS=*1000 -50% Flip: TIME=8.98:LEN=0.01:MODS=*1000 400% Cross: TIME=8.99:LEN=0.01:MODS=*1000 -50% Flip: TIME=8.99:LEN=0.01:MODS=*1000 400% Cross: TIME=9.00:LEN=0.01:MODS=*1000 -50% Flip: TIME=9.01:LEN=0.01:MODS=*1000 400% Cross: TIME=9.02:LEN=0.01:MODS=*1000 -50% Flip: TIME=9.03:LEN=0.01:MODS=*1000 400% Cross: TIME=9.04:LEN=0.01:MODS=*1000 -50% Flip: TIME=9.05:LEN=0.01:MODS=*1000 400% Cross: TIME=9.06:LEN=0.01:MODS=*1000 -50% Flip: TIME=9.07:LEN=0.01:MODS=*1000 400% Cross: TIME=9.08:LEN=0.01:MODS=*1000 -50% Flip: TIME=9.09:LEN=0.01:MODS=*1000 400% Cross: TIME=9.10:LEN=0.01:MODS=*1000 -50% Flip: TIME=9.11:LEN=0.01:MODS=*1000 400% Cross: TIME=9.12:LEN=0.01:MODS=*1000 -50% Flip: TIME=9.13:LEN=0.01:MODS=*1000 400% Cross: TIME=9.14:LEN=0.01:MODS=*1000 -50% Flip: TIME=9.15:LEN=0.01:MODS=*1000 400% Cross: TIME=9.16:LEN=0.01:MODS=*1000 -50% Flip: TIME=9.17:LEN=0.01:MODS=*1000 400% Cross: TIME=9.18:LEN=0.01:MODS=*1000 -50% Flip: TIME=9.19:LEN=0.01:MODS=*1000 400% Cross: TIME=9.20:LEN=0.01:MODS=*1000 -50% Flip: TIME=9.21:LEN=0.01:MODS=*1000 400% Cross: TIME=9.22:LEN=0.01:MODS=*1000 -50% Flip: TIME=9.23:LEN=0.01:MODS=*1000 400% Cross: TIME=9.24:LEN=0.01:MODS=*1000 -50% Flip: TIME=9.25:LEN=0.01:MODS=*1000 400% Cross: TIME=9.26:LEN=0.01:MODS=*1000 -50% Flip: TIME=9.27:LEN=0.01:MODS=*1000 400% Cross: TIME=9.28:LEN=0.01:MODS=*1000 -50% Flip: TIME=9.29:LEN=0.01:MODS=*1000 400% Cross: TIME=9.30:LEN=0.01:MODS=*1000 -50% Flip: TIME=9.31:LEN=0.01:MODS=*1000 400% Cross: TIME=9.32:LEN=0.01:MODS=*1000 -50% Flip: TIME=9.33:LEN=0.01:MODS=*1000 400% Cross: TIME=9.34:LEN=0.01:MODS=*1000 -50% Flip: TIME=9.35:LEN=0.01:MODS=*1000 400% Cross: TIME=9.36:LEN=0.01:MODS=*1000 -50% Flip: TIME=9.37:LEN=0.01:MODS=*1000 400% Cross: TIME=9.38:LEN=0.01:MODS=*1000 -50% Flip: TIME=9.39:LEN=0.01:MODS=*1000 400% Cross: TIME=9.40:LEN=0.01:MODS=*1000 -50% Flip: TIME=9.41:LEN=0.01:MODS=*1000 400% Cross: TIME=9.42:LEN=0.01:MODS=*1000 -50% Flip: TIME=9.42:LEN=0.01:MODS=*1000 400% Cross: TIME=9.43:LEN=0.01:MODS=*1000 -50% Flip: TIME=9.44:LEN=0.01:MODS=*1000 400% Cross: TIME=9.45:LEN=0.01:MODS=*1000 -50% Flip: TIME=9.46:LEN=0.01:MODS=*1000 400% Cross: TIME=9.47:LEN=0.01:MODS=*1000 -50% Flip: TIME=9.48:LEN=0.01:MODS=*1000 400% Cross: TIME=9.49:LEN=0.01:MODS=*1000 -50% Flip: TIME=9.50:LEN=0.01:MODS=*1000 400% Cross: TIME=9.51:LEN=0.01:MODS=*1000 -50% Flip: TIME=9.52:LEN=0.01:MODS=*1000 400% Cross: TIME=9.53:LEN=0.01:MODS=*1000 -50% Flip: TIME=9.54:LEN=0.01:MODS=*1000 400% Cross: TIME=9.55:LEN=0.01:MODS=*1000 -50% Flip: TIME=9.56:LEN=0.01:MODS=*1000 400% Cross: TIME=9.57:LEN=0.01:MODS=*1000 -50% Flip: TIME=9.58:LEN=0.01:MODS=*1000 400% Cross: TIME=9.59:LEN=0.01:MODS=*1000 -50% Flip: TIME=9.60:LEN=0.01:MODS=*1000 400% Cross: TIME=9.61:LEN=0.01:MODS=*1000 -50% Flip: TIME=9.62:LEN=0.01:MODS=*1000 400% Cross: TIME=9.63:LEN=0.01:MODS=*1000 -50% Flip: TIME=9.64:LEN=0.01:MODS=*1000 400% Cross: TIME=9.65:LEN=0.01:MODS=*1000 -50% Flip: TIME=9.66:LEN=0.01:MODS=*1000 400% Cross: TIME=9.67:LEN=0.01:MODS=*1000 -50% Flip: TIME=9.68:LEN=0.01:MODS=*1000 400% Cross: TIME=9.69:LEN=0.01:MODS=*1000 -50% Flip: TIME=9.70:LEN=0.01:MODS=*1000 400% Cross: TIME=9.71:LEN=0.01:MODS=*1000 -50% Flip: TIME=9.72:LEN=0.01:MODS=*1000 400% Cross: TIME=9.73:LEN=0.01:MODS=*1000 -50% Flip: TIME=9.74:LEN=0.01:MODS=*1000 400% Cross: TIME=9.75:LEN=0.01:MODS=*1000 -50% Flip: TIME=9.76:LEN=0.01:MODS=*1000 400% Cross: TIME=9.77:LEN=0.01:MODS=*1000 -50% Flip: TIME=9.78:LEN=0.01:MODS=*1000 400% Cross: TIME=9.79:LEN=0.01:MODS=*1000 -50% Flip: TIME=9.80:LEN=0.01:MODS=*1000 400% Cross: TIME=9.81:LEN=0.01:MODS=*1000 -50% Flip: TIME=9.82:LEN=0.01:MODS=*1000 400% Cross: TIME=9.83:LEN=0.01:MODS=*1000 -50% Flip: TIME=9.84:LEN=0.01:MODS=*1000 400% Cross: TIME=9.85:LEN=0.01:MODS=*1000 -50% Flip: TIME=9.85:LEN=0.01:MODS=*1000 400% Cross: TIME=9.86:LEN=0.01:MODS=*1000 -50% Flip: TIME=9.87:LEN=0.01:MODS=*1000 400% Cross: TIME=9.88:LEN=0.01:MODS=*1000 -50% Flip: TIME=9.89:LEN=0.01:MODS=*1000 400% Cross: TIME=9.90:LEN=0.01:MODS=*1000 -50% Flip: TIME=9.91:LEN=0.01:MODS=*1000 400% Cross: TIME=9.92:LEN=0.01:MODS=*1000 -50% Flip: TIME=9.93:LEN=0.01:MODS=*1000 400% Cross: TIME=9.94:LEN=0.01:MODS=*1000 -50% Flip: TIME=9.95:LEN=0.01:MODS=*1000 400% Cross: TIME=9.96:LEN=0.01:MODS=*1000 -50% Flip: TIME=9.97:LEN=0.01:MODS=*1000 400% Cross: TIME=9.98:LEN=0.01:MODS=*1000 -50% Flip: TIME=9.99:LEN=0.01:MODS=*1000 400% Cross: TIME=10.00:LEN=0.01:MODS=*1000 -50% Flip: TIME=10.01:LEN=0.01:MODS=*1000 400% Cross: TIME=10.02:LEN=0.01:MODS=*1000 -50% Flip: TIME=10.03:LEN=0.01:MODS=*1000 400% Cross: TIME=10.04:LEN=0.01:MODS=*1000 -50% Flip: TIME=10.05:LEN=0.01:MODS=*1000 400% Cross: TIME=10.06:LEN=0.01:MODS=*1000 -50% Flip: TIME=10.07:LEN=0.01:MODS=*1000 400% Cross: TIME=10.08:LEN=0.01:MODS=*1000 -50% Flip: TIME=10.09:LEN=0.01:MODS=*1000 400% Cross: TIME=10.10:LEN=0.01:MODS=*1000 -50% Flip: TIME=10.11:LEN=0.01:MODS=*1000 400% Cross: TIME=10.12:LEN=0.01:MODS=*1000 -50% Flip: TIME=10.13:LEN=0.01:MODS=*1000 400% Cross: TIME=10.14:LEN=0.01:MODS=*1000 -50% Flip: TIME=10.15:LEN=0.01:MODS=*1000 400% Cross: TIME=10.16:LEN=0.01:MODS=*1000 -50% Flip: TIME=10.17:LEN=0.01:MODS=*1000 400% Cross: TIME=10.18:LEN=0.01:MODS=*1000 -50% Flip: TIME=10.19:LEN=0.01:MODS=*1000 400% Cross: TIME=10.20:LEN=0.01:MODS=*1000 -50% Flip: TIME=10.21:LEN=0.01:MODS=*1000 400% Cross: TIME=10.22:LEN=0.01:MODS=*1000 -50% Flip: TIME=10.23:LEN=0.01:MODS=*1000 400% Cross: TIME=10.24:LEN=0.01:MODS=*1000 -50% Flip: TIME=10.25:LEN=0.01:MODS=*1000 400% Cross: TIME=10.26:LEN=0.01:MODS=*1000 -50% Flip: TIME=10.27:LEN=0.01:MODS=*1000 400% Cross: TIME=10.27:LEN=0.01:MODS=*1000 -50% Flip: TIME=10.28:LEN=0.01:MODS=*1000 400% Cross: TIME=10.29:LEN=0.01:MODS=*1000 -50% Flip: TIME=10.30:LEN=0.01:MODS=*1000 400% Cross: TIME=10.31:LEN=1.00:MODS=*0.5 No Flip, *1000 No Cross: TIME=11.25:LEN=0.01:MODS=*1000 -50% Flip: TIME=11.26:LEN=0.01:MODS=*1000 400% Cross: TIME=11.27:LEN=0.01:MODS=*1000 -50% Flip: TIME=11.28:LEN=0.01:MODS=*1000 400% Cross: TIME=11.29:LEN=0.01:MODS=*1000 -50% Flip: TIME=11.30:LEN=0.01:MODS=*1000 400% Cross: TIME=11.31:LEN=0.01:MODS=*1000 -50% Flip: TIME=11.32:LEN=0.01:MODS=*1000 400% Cross: TIME=11.33:LEN=0.01:MODS=*1000 -50% Flip: TIME=11.34:LEN=0.01:MODS=*1000 400% Cross: TIME=11.35:LEN=0.01:MODS=*1000 -50% Flip: TIME=11.36:LEN=0.01:MODS=*1000 400% Cross: TIME=11.37:LEN=0.01:MODS=*1000 -50% Flip: TIME=11.38:LEN=0.01:MODS=*1000 400% Cross: TIME=11.39:LEN=0.01:MODS=*1000 -50% Flip: TIME=11.40:LEN=0.01:MODS=*1000 400% Cross: TIME=11.41:LEN=0.01:MODS=*1000 -50% Flip: TIME=11.42:LEN=0.01:MODS=*1000 400% Cross: TIME=11.43:LEN=0.01:MODS=*1000 -50% Flip: TIME=11.44:LEN=0.01:MODS=*1000 400% Cross: TIME=11.45:LEN=0.01:MODS=*1000 -50% Flip: TIME=11.46:LEN=0.01:MODS=*1000 400% Cross: TIME=11.46:LEN=0.01:MODS=*1000 -50% Flip: TIME=11.47:LEN=0.01:MODS=*1000 400% Cross: TIME=11.48:LEN=0.01:MODS=*1000 -50% Flip: TIME=11.49:LEN=0.01:MODS=*1000 400% Cross: TIME=11.50:LEN=0.01:MODS=*1000 -50% Flip: TIME=11.51:LEN=0.01:MODS=*1000 400% Cross: TIME=11.52:LEN=0.01:MODS=*1000 -50% Flip: TIME=11.53:LEN=0.01:MODS=*1000 400% Cross: TIME=11.54:LEN=0.01:MODS=*1000 -50% Flip: TIME=11.55:LEN=0.01:MODS=*1000 400% Cross: TIME=11.56:LEN=0.01:MODS=*1000 -50% Flip: TIME=11.57:LEN=0.01:MODS=*1000 400% Cross: TIME=11.58:LEN=0.01:MODS=*1000 -50% Flip: TIME=11.59:LEN=0.01:MODS=*1000 400% Cross: TIME=11.60:LEN=0.01:MODS=*1000 -50% Flip: TIME=11.61:LEN=0.01:MODS=*1000 400% Cross: TIME=11.62:LEN=0.01:MODS=*1000 -50% Flip: TIME=11.63:LEN=0.01:MODS=*1000 400% Cross: TIME=11.64:LEN=0.01:MODS=*1000 -50% Flip: TIME=11.65:LEN=0.01:MODS=*1000 400% Cross: TIME=11.66:LEN=0.01:MODS=*1000 -50% Flip: TIME=11.67:LEN=0.01:MODS=*1000 400% Cross: TIME=11.68:LEN=0.01:MODS=*1000 -50% Flip: TIME=11.69:LEN=0.01:MODS=*1000 400% Cross: TIME=11.70:LEN=0.01:MODS=*1000 -50% Flip: TIME=11.71:LEN=0.01:MODS=*1000 400% Cross: TIME=11.72:LEN=0.01:MODS=*1000 -50% Flip: TIME=11.73:LEN=0.01:MODS=*1000 400% Cross: TIME=11.74:LEN=0.01:MODS=*1000 -50% Flip: TIME=11.75:LEN=0.01:MODS=*1000 400% Cross: TIME=11.76:LEN=0.01:MODS=*1000 -50% Flip: TIME=11.77:LEN=0.01:MODS=*1000 400% Cross: TIME=11.78:LEN=0.01:MODS=*1000 -50% Flip: TIME=11.79:LEN=0.01:MODS=*1000 400% Cross: TIME=11.80:LEN=0.01:MODS=*1000 -50% Flip: TIME=11.81:LEN=0.01:MODS=*1000 400% Cross: TIME=11.82:LEN=0.01:MODS=*1000 -50% Flip: TIME=11.83:LEN=0.01:MODS=*1000 400% Cross: TIME=11.84:LEN=0.01:MODS=*1000 -50% Flip: TIME=11.85:LEN=0.01:MODS=*1000 400% Cross: TIME=11.86:LEN=0.01:MODS=*1000 -50% Flip: TIME=11.87:LEN=0.01:MODS=*1000 400% Cross: TIME=11.88:LEN=0.01:MODS=*1000 -50% Flip: TIME=11.89:LEN=0.01:MODS=*1000 400% Cross: TIME=11.89:LEN=0.01:MODS=*1000 -50% Flip: TIME=11.90:LEN=0.01:MODS=*1000 400% Cross: TIME=11.91:LEN=0.01:MODS=*1000 -50% Flip: TIME=11.92:LEN=0.01:MODS=*1000 400% Cross: TIME=11.93:LEN=0.01:MODS=*1000 -50% Flip: TIME=11.94:LEN=0.01:MODS=*1000 400% Cross: TIME=11.95:LEN=0.01:MODS=*1000 -50% Flip: TIME=11.96:LEN=0.01:MODS=*1000 400% Cross: TIME=11.97:LEN=0.01:MODS=*1000 -50% Flip: TIME=11.98:LEN=0.01:MODS=*1000 400% Cross: TIME=11.99:LEN=0.01:MODS=*1000 -50% Flip: TIME=12.00:LEN=0.01:MODS=*1000 400% Cross: TIME=12.01:LEN=0.01:MODS=*1000 -50% Flip: TIME=12.02:LEN=0.01:MODS=*1000 400% Cross: TIME=12.03:LEN=0.01:MODS=*1000 -50% Flip: TIME=12.04:LEN=0.01:MODS=*1000 400% Cross: TIME=12.05:LEN=0.01:MODS=*1000 -50% Flip: TIME=12.06:LEN=0.01:MODS=*1000 400% Cross: TIME=12.07:LEN=0.01:MODS=*1000 -50% Flip: TIME=12.08:LEN=0.01:MODS=*1000 400% Cross: TIME=12.09:LEN=0.01:MODS=*1000 -50% Flip: TIME=12.10:LEN=0.01:MODS=*1000 400% Cross: TIME=12.11:LEN=0.01:MODS=*1000 -50% Flip: TIME=12.12:LEN=0.01:MODS=*1000 400% Cross: TIME=12.13:LEN=0.01:MODS=*1000 -50% Flip: TIME=12.14:LEN=0.01:MODS=*1000 400% Cross: TIME=12.15:LEN=0.01:MODS=*1000 -50% Flip: TIME=12.16:LEN=0.01:MODS=*1000 400% Cross: TIME=12.17:LEN=0.01:MODS=*1000 -50% Flip: TIME=12.18:LEN=0.01:MODS=*1000 400% Cross: TIME=12.19:LEN=0.01:MODS=*1000 -50% Flip: TIME=12.20:LEN=0.01:MODS=*1000 400% Cross: TIME=12.21:LEN=0.01:MODS=*1000 -50% Flip: TIME=12.22:LEN=0.01:MODS=*1000 400% Cross: TIME=12.23:LEN=0.01:MODS=*1000 -50% Flip: TIME=12.24:LEN=0.01:MODS=*1000 400% Cross: TIME=12.25:LEN=0.01:MODS=*1000 -50% Flip: TIME=12.26:LEN=0.01:MODS=*1000 400% Cross: TIME=12.27:LEN=0.01:MODS=*1000 -50% Flip: TIME=12.28:LEN=0.01:MODS=*1000 400% Cross: TIME=12.29:LEN=0.01:MODS=*1000 -50% Flip: TIME=12.30:LEN=0.01:MODS=*1000 400% Cross: TIME=12.31:LEN=0.01:MODS=*1000 -50% Flip: TIME=12.32:LEN=0.01:MODS=*1000 400% Cross: TIME=12.32:LEN=0.01:MODS=*1000 -50% Flip: TIME=12.33:LEN=0.01:MODS=*1000 400% Cross: TIME=12.34:LEN=0.01:MODS=*1000 -50% Flip: TIME=12.35:LEN=0.01:MODS=*1000 400% Cross: TIME=12.36:LEN=0.01:MODS=*1000 -50% Flip: TIME=12.37:LEN=0.01:MODS=*1000 400% Cross: TIME=12.38:LEN=0.01:MODS=*1000 -50% Flip: TIME=12.39:LEN=0.01:MODS=*1000 400% Cross: TIME=12.40:LEN=0.01:MODS=*1000 -50% Flip: TIME=12.41:LEN=0.01:MODS=*1000 400% Cross: TIME=12.42:LEN=0.01:MODS=*1000 -50% Flip: TIME=12.43:LEN=0.01:MODS=*1000 400% Cross: TIME=12.44:LEN=0.01:MODS=*1000 -50% Flip: TIME=12.45:LEN=0.01:MODS=*1000 400% Cross: TIME=12.46:LEN=0.01:MODS=*1000 -50% Flip: TIME=12.47:LEN=0.01:MODS=*1000 400% Cross: TIME=12.48:LEN=0.01:MODS=*1000 -50% Flip: TIME=12.49:LEN=0.01:MODS=*1000 400% Cross: TIME=12.50:LEN=0.01:MODS=*1000 -50% Flip: TIME=12.51:LEN=0.01:MODS=*1000 400% Cross: TIME=12.52:LEN=0.01:MODS=*1000 -50% Flip: TIME=12.53:LEN=0.01:MODS=*1000 400% Cross: TIME=12.54:LEN=0.01:MODS=*1000 -50% Flip: TIME=12.55:LEN=0.01:MODS=*1000 400% Cross: TIME=12.56:LEN=0.01:MODS=*1000 -50% Flip: TIME=12.57:LEN=0.01:MODS=*1000 400% Cross: TIME=12.58:LEN=0.01:MODS=*1000 -50% Flip: TIME=12.59:LEN=0.01:MODS=*1000 400% Cross: TIME=12.60:LEN=0.01:MODS=*1000 -50% Flip: TIME=12.61:LEN=0.01:MODS=*1000 400% Cross: TIME=12.62:LEN=0.01:MODS=*1000 -50% Flip: TIME=12.63:LEN=0.01:MODS=*1000 400% Cross: TIME=12.64:LEN=0.01:MODS=*1000 -50% Flip: TIME=12.65:LEN=0.01:MODS=*1000 400% Cross: TIME=12.66:LEN=0.01:MODS=*1000 -50% Flip: TIME=12.67:LEN=0.01:MODS=*1000 400% Cross: TIME=12.68:LEN=0.01:MODS=*1000 -50% Flip: TIME=12.69:LEN=0.01:MODS=*1000 400% Cross: TIME=12.70:LEN=0.01:MODS=*1000 -50% Flip: TIME=12.71:LEN=0.01:MODS=*1000 400% Cross: TIME=12.72:LEN=0.01:MODS=*1000 -50% Flip: TIME=12.73:LEN=0.01:MODS=*1000 400% Cross: TIME=12.74:LEN=0.01:MODS=*1000 -50% Flip: TIME=12.74:LEN=0.01:MODS=*1000 400% Cross: TIME=12.75:LEN=0.01:MODS=*1000 -50% Flip: TIME=12.76:LEN=0.01:MODS=*1000 400% Cross: TIME=12.77:LEN=0.01:MODS=*1000 -50% Flip: TIME=12.78:LEN=0.01:MODS=*1000 400% Cross: TIME=12.79:LEN=0.01:MODS=*1000 -50% Flip: TIME=12.80:LEN=0.01:MODS=*1000 400% Cross: TIME=12.81:LEN=0.01:MODS=*1000 -50% Flip: TIME=12.82:LEN=0.01:MODS=*1000 400% Cross: TIME=12.83:LEN=0.01:MODS=*1000 -50% Flip: TIME=12.84:LEN=0.01:MODS=*1000 400% Cross: TIME=12.85:LEN=0.01:MODS=*1000 -50% Flip: TIME=12.86:LEN=0.01:MODS=*1000 400% Cross: TIME=12.87:LEN=0.01:MODS=*1000 -50% Flip: TIME=12.88:LEN=0.01:MODS=*1000 400% Cross: TIME=12.89:LEN=0.01:MODS=*1000 -50% Flip: TIME=12.90:LEN=0.01:MODS=*1000 400% Cross: TIME=12.91:LEN=0.01:MODS=*1000 -50% Flip: TIME=12.92:LEN=0.01:MODS=*1000 400% Cross: TIME=12.93:LEN=0.01:MODS=*1000 -50% Flip: TIME=12.94:LEN=0.01:MODS=*1000 400% Cross: TIME=12.95:LEN=0.01:MODS=*1000 -50% Flip: TIME=12.96:LEN=0.01:MODS=*1000 400% Cross: TIME=12.97:LEN=0.01:MODS=*1000 -50% Flip: TIME=12.98:LEN=0.01:MODS=*1000 400% Cross: TIME=12.99:LEN=0.01:MODS=*1000 -50% Flip: TIME=13.00:LEN=0.01:MODS=*1000 400% Cross: TIME=13.01:LEN=0.01:MODS=*1000 -50% Flip: TIME=13.02:LEN=0.01:MODS=*1000 400% Cross: TIME=13.03:LEN=0.01:MODS=*1000 -50% Flip: TIME=13.04:LEN=0.01:MODS=*1000 400% Cross: TIME=13.05:LEN=0.01:MODS=*1000 -50% Flip: TIME=13.06:LEN=0.01:MODS=*1000 400% Cross: TIME=13.07:LEN=0.01:MODS=*1000 -50% Flip: TIME=13.08:LEN=0.01:MODS=*1000 400% Cross: TIME=13.09:LEN=0.01:MODS=*1000 -50% Flip: TIME=13.10:LEN=0.01:MODS=*1000 400% Cross: TIME=13.11:LEN=0.01:MODS=*1000 -50% Flip: TIME=13.12:LEN=0.01:MODS=*1000 400% Cross: TIME=13.13:LEN=0.01:MODS=*1000 -50% Flip: TIME=13.14:LEN=0.01:MODS=*1000 400% Cross: TIME=13.15:LEN=0.01:MODS=*1000 -50% Flip: TIME=13.16:LEN=0.01:MODS=*1000 400% Cross: TIME=13.17:LEN=0.01:MODS=*1000 -50% Flip: TIME=13.17:LEN=0.01:MODS=*1000 400% Cross: TIME=13.18:LEN=0.01:MODS=*1000 -50% Flip: TIME=13.19:LEN=0.01:MODS=*1000 400% Cross: TIME=13.20:LEN=0.01:MODS=*1000 -50% Flip: TIME=13.21:LEN=0.01:MODS=*1000 400% Cross: TIME=13.22:LEN=0.01:MODS=*1000 -50% Flip: TIME=13.23:LEN=0.01:MODS=*1000 400% Cross: TIME=13.24:LEN=0.01:MODS=*1000 -50% Flip: TIME=13.25:LEN=0.01:MODS=*1000 400% Cross: TIME=13.26:LEN=0.01:MODS=*1000 -50% Flip: TIME=13.27:LEN=0.01:MODS=*1000 400% Cross: TIME=13.28:LEN=0.01:MODS=*1000 -50% Flip: TIME=13.29:LEN=0.01:MODS=*1000 400% Cross: TIME=13.30:LEN=0.01:MODS=*1000 -50% Flip: TIME=13.31:LEN=0.01:MODS=*1000 400% Cross: TIME=13.32:LEN=0.01:MODS=*1000 -50% Flip: TIME=13.33:LEN=0.01:MODS=*1000 400% Cross: TIME=13.34:LEN=0.01:MODS=*1000 -50% Flip: TIME=13.35:LEN=0.01:MODS=*1000 400% Cross: TIME=13.36:LEN=0.01:MODS=*1000 -50% Flip: TIME=13.37:LEN=0.01:MODS=*1000 400% Cross: TIME=13.38:LEN=0.01:MODS=*1000 -50% Flip: TIME=13.39:LEN=0.01:MODS=*1000 400% Cross: TIME=13.40:LEN=0.01:MODS=*1000 -50% Flip: TIME=13.41:LEN=0.01:MODS=*1000 400% Cross: TIME=13.42:LEN=0.01:MODS=*1000 -50% Flip: TIME=13.43:LEN=0.01:MODS=*1000 400% Cross: TIME=13.44:LEN=0.01:MODS=*1000 -50% Flip: TIME=13.45:LEN=0.01:MODS=*1000 400% Cross: TIME=13.46:LEN=0.01:MODS=*1000 -50% Flip: TIME=13.47:LEN=0.01:MODS=*1000 400% Cross: TIME=13.48:LEN=0.01:MODS=*1000 -50% Flip: TIME=13.49:LEN=0.01:MODS=*1000 400% Cross: TIME=13.50:LEN=0.01:MODS=*1000 -50% Flip: TIME=13.51:LEN=0.01:MODS=*1000 400% Cross: TIME=13.52:LEN=0.01:MODS=*1000 -50% Flip: TIME=13.53:LEN=0.01:MODS=*1000 400% Cross: TIME=13.54:LEN=0.01:MODS=*1000 -50% Flip: TIME=13.55:LEN=0.01:MODS=*1000 400% Cross: TIME=13.56:LEN=0.01:MODS=*1000 -50% Flip: TIME=13.57:LEN=0.01:MODS=*1000 400% Cross: TIME=13.58:LEN=0.01:MODS=*1000 -50% Flip: TIME=13.59:LEN=0.01:MODS=*1000 400% Cross: TIME=13.60:LEN=0.01:MODS=*1000 -50% Flip: TIME=13.60:LEN=0.01:MODS=*1000 400% Cross: TIME=13.61:LEN=0.01:MODS=*1000 -50% Flip: TIME=13.62:LEN=0.01:MODS=*1000 400% Cross: TIME=13.63:LEN=0.01:MODS=*1000 -50% Flip: TIME=13.64:LEN=0.01:MODS=*1000 400% Cross: TIME=13.65:LEN=0.01:MODS=*1000 -50% Flip: TIME=13.66:LEN=0.01:MODS=*1000 400% Cross: TIME=13.67:LEN=0.01:MODS=*1000 -50% Flip: TIME=13.68:LEN=0.01:MODS=*1000 400% Cross: TIME=13.69:LEN=0.01:MODS=*1000 -50% Flip: TIME=13.70:LEN=0.01:MODS=*1000 400% Cross: TIME=13.71:LEN=0.01:MODS=*1000 -50% Flip: TIME=13.72:LEN=0.01:MODS=*1000 400% Cross: TIME=13.73:LEN=0.01:MODS=*1000 -50% Flip: TIME=13.74:LEN=0.01:MODS=*1000 400% Cross: TIME=13.75:LEN=0.01:MODS=*1000 -50% Flip: TIME=13.76:LEN=0.01:MODS=*1000 400% Cross: TIME=13.77:LEN=0.01:MODS=*1000 -50% Flip: TIME=13.78:LEN=0.01:MODS=*1000 400% Cross: TIME=13.79:LEN=0.01:MODS=*1000 -50% Flip: TIME=13.80:LEN=0.01:MODS=*1000 400% Cross: TIME=13.81:LEN=0.01:MODS=*1000 -50% Flip: TIME=13.82:LEN=0.01:MODS=*1000 400% Cross: TIME=13.83:LEN=1.00:MODS=*0.5 No Flip, *1000 No Cross: TIME=15.00:LEN=0.01:MODS=*1000 -50% Flip: TIME=15.01:LEN=0.01:MODS=*1000 400% Cross: TIME=15.02:LEN=0.01:MODS=*1000 -50% Flip: TIME=15.03:LEN=0.01:MODS=*1000 400% Cross: TIME=15.04:LEN=0.01:MODS=*1000 -50% Flip: TIME=15.05:LEN=0.01:MODS=*1000 400% Cross: TIME=15.06:LEN=0.01:MODS=*1000 -50% Flip: TIME=15.07:LEN=0.01:MODS=*1000 400% Cross: TIME=15.08:LEN=0.01:MODS=*1000 -50% Flip: TIME=15.09:LEN=0.01:MODS=*1000 400% Cross: TIME=15.10:LEN=0.01:MODS=*1000 -50% Flip: TIME=15.11:LEN=0.01:MODS=*1000 400% Cross: TIME=15.12:LEN=0.01:MODS=*1000 -50% Flip: TIME=15.13:LEN=0.01:MODS=*1000 400% Cross: TIME=15.14:LEN=0.01:MODS=*1000 -50% Flip: TIME=15.15:LEN=0.01:MODS=*1000 400% Cross: TIME=15.16:LEN=0.01:MODS=*1000 -50% Flip: TIME=15.17:LEN=0.01:MODS=*1000 400% Cross: TIME=15.18:LEN=0.01:MODS=*1000 -50% Flip: TIME=15.19:LEN=0.01:MODS=*1000 400% Cross: TIME=15.20:LEN=0.01:MODS=*1000 -50% Flip: TIME=15.21:LEN=0.01:MODS=*1000 400% Cross: TIME=15.21:LEN=0.01:MODS=*1000 -50% Flip: TIME=15.22:LEN=0.01:MODS=*1000 400% Cross: TIME=15.23:LEN=0.01:MODS=*1000 -50% Flip: TIME=15.24:LEN=0.01:MODS=*1000 400% Cross: TIME=15.25:LEN=0.01:MODS=*1000 -50% Flip: TIME=15.26:LEN=0.01:MODS=*1000 400% Cross: TIME=15.27:LEN=0.01:MODS=*1000 -50% Flip: TIME=15.28:LEN=0.01:MODS=*1000 400% Cross: TIME=15.29:LEN=0.01:MODS=*1000 -50% Flip: TIME=15.30:LEN=0.01:MODS=*1000 400% Cross: TIME=15.31:LEN=0.01:MODS=*1000 -50% Flip: TIME=15.32:LEN=0.01:MODS=*1000 400% Cross: TIME=15.33:LEN=0.01:MODS=*1000 -50% Flip: TIME=15.34:LEN=0.01:MODS=*1000 400% Cross: TIME=15.35:LEN=0.01:MODS=*1000 -50% Flip: TIME=15.36:LEN=0.01:MODS=*1000 400% Cross: TIME=15.37:LEN=0.01:MODS=*1000 -50% Flip: TIME=15.38:LEN=0.01:MODS=*1000 400% Cross: TIME=15.39:LEN=0.01:MODS=*1000 -50% Flip: TIME=15.40:LEN=0.01:MODS=*1000 400% Cross: TIME=15.41:LEN=0.01:MODS=*1000 -50% Flip: TIME=15.42:LEN=0.01:MODS=*1000 400% Cross: TIME=15.43:LEN=0.01:MODS=*1000 -50% Flip: TIME=15.44:LEN=0.01:MODS=*1000 400% Cross: TIME=15.45:LEN=0.01:MODS=*1000 -50% Flip: TIME=15.46:LEN=0.01:MODS=*1000 400% Cross: TIME=15.47:LEN=0.01:MODS=*1000 -50% Flip: TIME=15.48:LEN=0.01:MODS=*1000 400% Cross: TIME=15.49:LEN=0.01:MODS=*1000 -50% Flip: TIME=15.50:LEN=0.01:MODS=*1000 400% Cross: TIME=15.51:LEN=0.01:MODS=*1000 -50% Flip: TIME=15.52:LEN=0.01:MODS=*1000 400% Cross: TIME=15.53:LEN=0.01:MODS=*1000 -50% Flip: TIME=15.54:LEN=0.01:MODS=*1000 400% Cross: TIME=15.55:LEN=0.01:MODS=*1000 -50% Flip: TIME=15.56:LEN=0.01:MODS=*1000 400% Cross: TIME=15.57:LEN=0.01:MODS=*1000 -50% Flip: TIME=15.58:LEN=0.01:MODS=*1000 400% Cross: TIME=15.59:LEN=0.01:MODS=*1000 -50% Flip: TIME=15.60:LEN=0.01:MODS=*1000 400% Cross: TIME=15.61:LEN=0.01:MODS=*1000 -50% Flip: TIME=15.62:LEN=0.01:MODS=*1000 400% Cross: TIME=15.63:LEN=0.01:MODS=*1000 -50% Flip: TIME=15.64:LEN=0.01:MODS=*1000 400% Cross: TIME=15.64:LEN=0.01:MODS=*1000 -50% Flip: TIME=15.65:LEN=0.01:MODS=*1000 400% Cross: TIME=15.66:LEN=0.01:MODS=*1000 -50% Flip: TIME=15.67:LEN=0.01:MODS=*1000 400% Cross: TIME=15.68:LEN=0.01:MODS=*1000 -50% Flip: TIME=15.69:LEN=0.01:MODS=*1000 400% Cross: TIME=15.70:LEN=0.01:MODS=*1000 -50% Flip: TIME=15.71:LEN=0.01:MODS=*1000 400% Cross: TIME=15.72:LEN=0.01:MODS=*1000 -50% Flip: TIME=15.73:LEN=0.01:MODS=*1000 400% Cross: TIME=15.74:LEN=0.01:MODS=*1000 -50% Flip: TIME=15.75:LEN=0.01:MODS=*1000 400% Cross: TIME=15.76:LEN=0.01:MODS=*1000 -50% Flip: TIME=15.77:LEN=0.01:MODS=*1000 400% Cross: TIME=15.78:LEN=0.01:MODS=*1000 -50% Flip: TIME=15.79:LEN=0.01:MODS=*1000 400% Cross: TIME=15.80:LEN=0.01:MODS=*1000 -50% Flip: TIME=15.81:LEN=0.01:MODS=*1000 400% Cross: TIME=15.82:LEN=0.01:MODS=*1000 -50% Flip: TIME=15.83:LEN=0.01:MODS=*1000 400% Cross: TIME=15.84:LEN=0.01:MODS=*1000 -50% Flip: TIME=15.85:LEN=0.01:MODS=*1000 400% Cross: TIME=15.86:LEN=0.01:MODS=*1000 -50% Flip: TIME=15.87:LEN=0.01:MODS=*1000 400% Cross: TIME=15.88:LEN=0.01:MODS=*1000 -50% Flip: TIME=15.89:LEN=0.01:MODS=*1000 400% Cross: TIME=15.90:LEN=0.01:MODS=*1000 -50% Flip: TIME=15.91:LEN=0.01:MODS=*1000 400% Cross: TIME=15.92:LEN=0.01:MODS=*1000 -50% Flip: TIME=15.93:LEN=0.01:MODS=*1000 400% Cross: TIME=15.94:LEN=0.01:MODS=*1000 -50% Flip: TIME=15.95:LEN=0.01:MODS=*1000 400% Cross: TIME=15.96:LEN=0.01:MODS=*1000 -50% Flip: TIME=15.97:LEN=0.01:MODS=*1000 400% Cross: TIME=15.98:LEN=0.01:MODS=*1000 -50% Flip: TIME=15.99:LEN=0.01:MODS=*1000 400% Cross: TIME=16.00:LEN=0.01:MODS=*1000 -50% Flip: TIME=16.01:LEN=0.01:MODS=*1000 400% Cross: TIME=16.02:LEN=0.01:MODS=*1000 -50% Flip: TIME=16.03:LEN=0.01:MODS=*1000 400% Cross: TIME=16.04:LEN=0.01:MODS=*1000 -50% Flip: TIME=16.05:LEN=0.01:MODS=*1000 400% Cross: TIME=16.06:LEN=0.01:MODS=*1000 -50% Flip: TIME=16.07:LEN=0.01:MODS=*1000 400% Cross: TIME=16.07:LEN=0.01:MODS=*1000 -50% Flip: TIME=16.08:LEN=0.01:MODS=*1000 400% Cross: TIME=16.09:LEN=0.01:MODS=*1000 -50% Flip: TIME=16.10:LEN=0.01:MODS=*1000 400% Cross: TIME=16.11:LEN=0.01:MODS=*1000 -50% Flip: TIME=16.12:LEN=0.01:MODS=*1000 400% Cross: TIME=16.13:LEN=0.01:MODS=*1000 -50% Flip: TIME=16.14:LEN=0.01:MODS=*1000 400% Cross: TIME=16.15:LEN=0.01:MODS=*1000 -50% Flip: TIME=16.16:LEN=0.01:MODS=*1000 400% Cross: TIME=16.17:LEN=0.01:MODS=*1000 -50% Flip: TIME=16.18:LEN=0.01:MODS=*1000 400% Cross: TIME=16.19:LEN=0.01:MODS=*1000 -50% Flip: TIME=16.20:LEN=0.01:MODS=*1000 400% Cross: TIME=16.21:LEN=0.01:MODS=*1000 -50% Flip: TIME=16.22:LEN=0.01:MODS=*1000 400% Cross: TIME=16.23:LEN=0.01:MODS=*1000 -50% Flip: TIME=16.24:LEN=0.01:MODS=*1000 400% Cross: TIME=16.25:LEN=0.01:MODS=*1000 -50% Flip: TIME=16.26:LEN=0.01:MODS=*1000 400% Cross: TIME=16.27:LEN=0.01:MODS=*1000 -50% Flip: TIME=16.28:LEN=0.01:MODS=*1000 400% Cross: TIME=16.29:LEN=0.01:MODS=*1000 -50% Flip: TIME=16.30:LEN=0.01:MODS=*1000 400% Cross: TIME=16.31:LEN=0.01:MODS=*1000 -50% Flip: TIME=16.32:LEN=0.01:MODS=*1000 400% Cross: TIME=16.33:LEN=0.01:MODS=*1000 -50% Flip: TIME=16.34:LEN=0.01:MODS=*1000 400% Cross: TIME=16.35:LEN=0.01:MODS=*1000 -50% Flip: TIME=16.36:LEN=0.01:MODS=*1000 400% Cross: TIME=16.37:LEN=0.01:MODS=*1000 -50% Flip: TIME=16.38:LEN=0.01:MODS=*1000 400% Cross: TIME=16.39:LEN=0.01:MODS=*1000 -50% Flip: TIME=16.40:LEN=0.01:MODS=*1000 400% Cross: TIME=16.41:LEN=0.01:MODS=*1000 -50% Flip: TIME=16.42:LEN=0.01:MODS=*1000 400% Cross: TIME=16.43:LEN=0.01:MODS=*1000 -50% Flip: TIME=16.44:LEN=0.01:MODS=*1000 400% Cross: TIME=16.45:LEN=0.01:MODS=*1000 -50% Flip: TIME=16.46:LEN=0.01:MODS=*1000 400% Cross: TIME=16.47:LEN=0.01:MODS=*1000 -50% Flip: TIME=16.48:LEN=0.01:MODS=*1000 400% Cross: TIME=16.49:LEN=0.01:MODS=*1000 -50% Flip: TIME=16.49:LEN=0.01:MODS=*1000 400% Cross: TIME=16.50:LEN=0.01:MODS=*1000 -50% Flip: TIME=16.51:LEN=0.01:MODS=*1000 400% Cross: TIME=16.52:LEN=0.01:MODS=*1000 -50% Flip: TIME=16.53:LEN=0.01:MODS=*1000 400% Cross: TIME=16.54:LEN=0.01:MODS=*1000 -50% Flip: TIME=16.55:LEN=0.01:MODS=*1000 400% Cross: TIME=16.56:LEN=0.01:MODS=*1000 -50% Flip: TIME=16.57:LEN=0.01:MODS=*1000 400% Cross: TIME=16.58:LEN=0.01:MODS=*1000 -50% Flip: TIME=16.59:LEN=0.01:MODS=*1000 400% Cross: TIME=16.60:LEN=0.01:MODS=*1000 -50% Flip: TIME=16.61:LEN=0.01:MODS=*1000 400% Cross: TIME=16.62:LEN=0.01:MODS=*1000 -50% Flip: TIME=16.63:LEN=0.01:MODS=*1000 400% Cross: TIME=16.64:LEN=0.01:MODS=*1000 -50% Flip: TIME=16.65:LEN=0.01:MODS=*1000 400% Cross: TIME=16.66:LEN=0.01:MODS=*1000 -50% Flip: TIME=16.67:LEN=0.01:MODS=*1000 400% Cross: TIME=16.68:LEN=0.01:MODS=*1000 -50% Flip: TIME=16.69:LEN=0.01:MODS=*1000 400% Cross: TIME=16.70:LEN=0.01:MODS=*1000 -50% Flip: TIME=16.71:LEN=0.01:MODS=*1000 400% Cross: TIME=16.72:LEN=0.01:MODS=*1000 -50% Flip: TIME=16.73:LEN=0.01:MODS=*1000 400% Cross: TIME=16.74:LEN=0.01:MODS=*1000 -50% Flip: TIME=16.75:LEN=0.01:MODS=*1000 400% Cross: TIME=16.76:LEN=0.01:MODS=*1000 -50% Flip: TIME=16.77:LEN=0.01:MODS=*1000 400% Cross: TIME=16.78:LEN=0.01:MODS=*1000 -50% Flip: TIME=16.79:LEN=0.01:MODS=*1000 400% Cross: TIME=16.80:LEN=0.01:MODS=*1000 -50% Flip: TIME=16.81:LEN=0.01:MODS=*1000 400% Cross: TIME=16.82:LEN=0.01:MODS=*1000 -50% Flip: TIME=16.83:LEN=0.01:MODS=*1000 400% Cross: TIME=16.84:LEN=0.01:MODS=*1000 -50% Flip: TIME=16.85:LEN=0.01:MODS=*1000 400% Cross: TIME=16.86:LEN=0.01:MODS=*1000 -50% Flip: TIME=16.87:LEN=0.01:MODS=*1000 400% Cross: TIME=16.88:LEN=0.01:MODS=*1000 -50% Flip: TIME=16.89:LEN=0.01:MODS=*1000 400% Cross: TIME=16.90:LEN=0.01:MODS=*1000 -50% Flip: TIME=16.91:LEN=0.01:MODS=*1000 400% Cross: TIME=16.92:LEN=0.01:MODS=*1000 -50% Flip: TIME=16.92:LEN=0.01:MODS=*1000 400% Cross: TIME=16.93:LEN=0.01:MODS=*1000 -50% Flip: TIME=16.94:LEN=0.01:MODS=*1000 400% Cross: TIME=16.95:LEN=0.01:MODS=*1000 -50% Flip: TIME=16.96:LEN=0.01:MODS=*1000 400% Cross: TIME=16.97:LEN=0.01:MODS=*1000 -50% Flip: TIME=16.98:LEN=0.01:MODS=*1000 400% Cross: TIME=16.99:LEN=0.01:MODS=*1000 -50% Flip: TIME=17.00:LEN=0.01:MODS=*1000 400% Cross: TIME=17.01:LEN=0.01:MODS=*1000 -50% Flip: TIME=17.02:LEN=0.01:MODS=*1000 400% Cross: TIME=17.03:LEN=0.01:MODS=*1000 -50% Flip: TIME=17.04:LEN=0.01:MODS=*1000 400% Cross: TIME=17.05:LEN=0.01:MODS=*1000 -50% Flip: TIME=17.06:LEN=0.01:MODS=*1000 400% Cross: TIME=17.07:LEN=0.01:MODS=*1000 -50% Flip: TIME=17.08:LEN=0.01:MODS=*1000 400% Cross: TIME=17.09:LEN=0.01:MODS=*1000 -50% Flip: TIME=17.10:LEN=0.01:MODS=*1000 400% Cross: TIME=17.11:LEN=0.01:MODS=*1000 -50% Flip: TIME=17.12:LEN=0.01:MODS=*1000 400% Cross: TIME=17.13:LEN=0.01:MODS=*1000 -50% Flip: TIME=17.14:LEN=0.01:MODS=*1000 400% Cross: TIME=17.15:LEN=0.01:MODS=*1000 -50% Flip: TIME=17.16:LEN=0.01:MODS=*1000 400% Cross: TIME=17.17:LEN=0.01:MODS=*1000 -50% Flip: TIME=17.18:LEN=0.01:MODS=*1000 400% Cross: TIME=17.19:LEN=0.01:MODS=*1000 -50% Flip: TIME=17.20:LEN=0.01:MODS=*1000 400% Cross: TIME=17.21:LEN=0.01:MODS=*1000 -50% Flip: TIME=17.22:LEN=0.01:MODS=*1000 400% Cross: TIME=17.23:LEN=0.01:MODS=*1000 -50% Flip: TIME=17.24:LEN=0.01:MODS=*1000 400% Cross: TIME=17.25:LEN=0.01:MODS=*1000 -50% Flip: TIME=17.26:LEN=0.01:MODS=*1000 400% Cross: TIME=17.27:LEN=0.01:MODS=*1000 -50% Flip: TIME=17.28:LEN=0.01:MODS=*1000 400% Cross: TIME=17.29:LEN=0.01:MODS=*1000 -50% Flip: TIME=17.30:LEN=0.01:MODS=*1000 400% Cross: TIME=17.31:LEN=0.01:MODS=*1000 -50% Flip: TIME=17.32:LEN=0.01:MODS=*1000 400% Cross: TIME=17.33:LEN=0.01:MODS=*1000 -50% Flip: TIME=17.34:LEN=0.01:MODS=*1000 400% Cross: TIME=17.34:LEN=0.01:MODS=*1000 -50% Flip: TIME=17.35:LEN=0.01:MODS=*1000 400% Cross: TIME=17.36:LEN=0.01:MODS=*1000 -50% Flip: TIME=17.37:LEN=0.01:MODS=*1000 400% Cross: TIME=17.38:LEN=0.01:MODS=*1000 -50% Flip: TIME=17.39:LEN=0.01:MODS=*1000 400% Cross: TIME=17.40:LEN=0.01:MODS=*1000 -50% Flip: TIME=17.41:LEN=0.01:MODS=*1000 400% Cross: TIME=17.42:LEN=0.01:MODS=*1000 -50% Flip: TIME=17.43:LEN=0.01:MODS=*1000 400% Cross: TIME=17.44:LEN=0.01:MODS=*1000 -50% Flip: TIME=17.45:LEN=0.01:MODS=*1000 400% Cross: TIME=17.46:LEN=0.01:MODS=*1000 -50% Flip: TIME=17.47:LEN=0.01:MODS=*1000 400% Cross: TIME=17.48:LEN=0.01:MODS=*1000 -50% Flip: TIME=17.49:LEN=0.01:MODS=*1000 400% Cross: TIME=17.50:LEN=0.01:MODS=*1000 -50% Flip: TIME=17.51:LEN=0.01:MODS=*1000 400% Cross: TIME=17.52:LEN=0.01:MODS=*1000 -50% Flip: TIME=17.53:LEN=0.01:MODS=*1000 400% Cross: TIME=17.54:LEN=0.01:MODS=*1000 -50% Flip: TIME=17.55:LEN=0.01:MODS=*1000 400% Cross: TIME=17.56:LEN=0.01:MODS=*1000 -50% Flip: TIME=17.57:LEN=0.01:MODS=*1000 400% Cross: TIME=17.58:LEN=0.01:MODS=*1000 -50% Flip: TIME=17.59:LEN=0.01:MODS=*1000 400% Cross: TIME=17.60:LEN=0.01:MODS=*1000 -50% Flip: TIME=17.61:LEN=0.01:MODS=*1000 400% Cross: TIME=17.62:LEN=0.01:MODS=*1000 -50% Flip: TIME=17.63:LEN=0.01:MODS=*1000 400% Cross: TIME=17.64:LEN=0.01:MODS=*1000 -50% Flip: TIME=17.65:LEN=0.01:MODS=*1000 400% Cross: TIME=17.66:LEN=0.01:MODS=*1000 -50% Flip: TIME=17.67:LEN=0.01:MODS=*1000 400% Cross: TIME=17.68:LEN=0.01:MODS=*1000 -50% Flip: TIME=17.69:LEN=0.01:MODS=*1000 400% Cross: TIME=17.70:LEN=0.01:MODS=*1000 -50% Flip: TIME=17.71:LEN=0.01:MODS=*1000 400% Cross: TIME=17.72:LEN=0.01:MODS=*1000 -50% Flip: TIME=17.73:LEN=0.01:MODS=*1000 400% Cross: TIME=17.74:LEN=0.01:MODS=*1000 -50% Flip: TIME=17.75:LEN=0.01:MODS=*1000 400% Cross: TIME=17.76:LEN=0.01:MODS=*1000 -50% Flip: TIME=17.77:LEN=0.01:MODS=*1000 400% Cross: TIME=17.77:LEN=0.01:MODS=*1000 -50% Flip: TIME=17.78:LEN=0.01:MODS=*1000 400% Cross: TIME=17.79:LEN=0.01:MODS=*1000 -50% Flip: TIME=17.80:LEN=0.01:MODS=*1000 400% Cross: TIME=17.81:LEN=1.00:MODS=*0.5 No Flip, *1000 No Cross: TIME=18.75:LEN=0.01:MODS=*1000 -50% Flip: TIME=18.76:LEN=0.01:MODS=*1000 400% Cross: TIME=18.77:LEN=0.01:MODS=*1000 -50% Flip: TIME=18.78:LEN=0.01:MODS=*1000 400% Cross: TIME=18.79:LEN=0.01:MODS=*1000 -50% Flip: TIME=18.80:LEN=0.01:MODS=*1000 400% Cross: TIME=18.81:LEN=0.01:MODS=*1000 -50% Flip: TIME=18.82:LEN=0.01:MODS=*1000 400% Cross: TIME=18.83:LEN=0.01:MODS=*1000 -50% Flip: TIME=18.84:LEN=0.01:MODS=*1000 400% Cross: TIME=18.85:LEN=0.01:MODS=*1000 -50% Flip: TIME=18.86:LEN=0.01:MODS=*1000 400% Cross: TIME=18.87:LEN=0.01:MODS=*1000 -50% Flip: TIME=18.88:LEN=0.01:MODS=*1000 400% Cross: TIME=18.89:LEN=0.01:MODS=*1000 -50% Flip: TIME=18.90:LEN=0.01:MODS=*1000 400% Cross: TIME=18.91:LEN=0.01:MODS=*1000 -50% Flip: TIME=18.92:LEN=0.01:MODS=*1000 400% Cross: TIME=18.93:LEN=0.01:MODS=*1000 -50% Flip: TIME=18.94:LEN=0.01:MODS=*1000 400% Cross: TIME=18.95:LEN=0.01:MODS=*1000 -50% Flip: TIME=18.96:LEN=0.01:MODS=*1000 400% Cross: TIME=18.96:LEN=0.01:MODS=*1000 -50% Flip: TIME=18.97:LEN=0.01:MODS=*1000 400% Cross: TIME=18.98:LEN=0.01:MODS=*1000 -50% Flip: TIME=18.99:LEN=0.01:MODS=*1000 400% Cross: TIME=19.00:LEN=0.01:MODS=*1000 -50% Flip: TIME=19.01:LEN=0.01:MODS=*1000 400% Cross: TIME=19.02:LEN=0.01:MODS=*1000 -50% Flip: TIME=19.03:LEN=0.01:MODS=*1000 400% Cross: TIME=19.04:LEN=0.01:MODS=*1000 -50% Flip: TIME=19.05:LEN=0.01:MODS=*1000 400% Cross: TIME=19.06:LEN=0.01:MODS=*1000 -50% Flip: TIME=19.07:LEN=0.01:MODS=*1000 400% Cross: TIME=19.08:LEN=0.01:MODS=*1000 -50% Flip: TIME=19.09:LEN=0.01:MODS=*1000 400% Cross: TIME=19.10:LEN=0.01:MODS=*1000 -50% Flip: TIME=19.11:LEN=0.01:MODS=*1000 400% Cross: TIME=19.12:LEN=0.01:MODS=*1000 -50% Flip: TIME=19.13:LEN=0.01:MODS=*1000 400% Cross: TIME=19.14:LEN=0.01:MODS=*1000 -50% Flip: TIME=19.15:LEN=0.01:MODS=*1000 400% Cross: TIME=19.16:LEN=0.01:MODS=*1000 -50% Flip: TIME=19.17:LEN=0.01:MODS=*1000 400% Cross: TIME=19.18:LEN=0.01:MODS=*1000 -50% Flip: TIME=19.19:LEN=0.01:MODS=*1000 400% Cross: TIME=19.20:LEN=0.01:MODS=*1000 -50% Flip: TIME=19.21:LEN=0.01:MODS=*1000 400% Cross: TIME=19.22:LEN=0.01:MODS=*1000 -50% Flip: TIME=19.23:LEN=0.01:MODS=*1000 400% Cross: TIME=19.24:LEN=0.01:MODS=*1000 -50% Flip: TIME=19.25:LEN=0.01:MODS=*1000 400% Cross: TIME=19.26:LEN=0.01:MODS=*1000 -50% Flip: TIME=19.27:LEN=0.01:MODS=*1000 400% Cross: TIME=19.28:LEN=0.01:MODS=*1000 -50% Flip: TIME=19.29:LEN=0.01:MODS=*1000 400% Cross: TIME=19.30:LEN=0.01:MODS=*1000 -50% Flip: TIME=19.31:LEN=0.01:MODS=*1000 400% Cross: TIME=19.32:LEN=0.01:MODS=*1000 -50% Flip: TIME=19.33:LEN=0.01:MODS=*1000 400% Cross: TIME=19.34:LEN=0.01:MODS=*1000 -50% Flip: TIME=19.35:LEN=0.01:MODS=*1000 400% Cross: TIME=19.36:LEN=0.01:MODS=*1000 -50% Flip: TIME=19.37:LEN=0.01:MODS=*1000 400% Cross: TIME=19.38:LEN=0.01:MODS=*1000 -50% Flip: TIME=19.39:LEN=0.01:MODS=*1000 400% Cross: TIME=19.39:LEN=0.01:MODS=*1000 -50% Flip: TIME=19.40:LEN=0.01:MODS=*1000 400% Cross: TIME=19.41:LEN=0.01:MODS=*1000 -50% Flip: TIME=19.42:LEN=0.01:MODS=*1000 400% Cross: TIME=19.43:LEN=0.01:MODS=*1000 -50% Flip: TIME=19.44:LEN=0.01:MODS=*1000 400% Cross: TIME=19.45:LEN=0.01:MODS=*1000 -50% Flip: TIME=19.46:LEN=0.01:MODS=*1000 400% Cross: TIME=19.47:LEN=0.01:MODS=*1000 -50% Flip: TIME=19.48:LEN=0.01:MODS=*1000 400% Cross: TIME=19.49:LEN=0.01:MODS=*1000 -50% Flip: TIME=19.50:LEN=0.01:MODS=*1000 400% Cross: TIME=19.51:LEN=0.01:MODS=*1000 -50% Flip: TIME=19.52:LEN=0.01:MODS=*1000 400% Cross: TIME=19.53:LEN=0.01:MODS=*1000 -50% Flip: TIME=19.54:LEN=0.01:MODS=*1000 400% Cross: TIME=19.55:LEN=0.01:MODS=*1000 -50% Flip: TIME=19.56:LEN=0.01:MODS=*1000 400% Cross: TIME=19.57:LEN=0.01:MODS=*1000 -50% Flip: TIME=19.58:LEN=0.01:MODS=*1000 400% Cross: TIME=19.59:LEN=0.01:MODS=*1000 -50% Flip: TIME=19.60:LEN=0.01:MODS=*1000 400% Cross: TIME=19.61:LEN=0.01:MODS=*1000 -50% Flip: TIME=19.62:LEN=0.01:MODS=*1000 400% Cross: TIME=19.63:LEN=0.01:MODS=*1000 -50% Flip: TIME=19.64:LEN=0.01:MODS=*1000 400% Cross: TIME=19.65:LEN=0.01:MODS=*1000 -50% Flip: TIME=19.66:LEN=0.01:MODS=*1000 400% Cross: TIME=19.67:LEN=0.01:MODS=*1000 -50% Flip: TIME=19.68:LEN=0.01:MODS=*1000 400% Cross: TIME=19.69:LEN=0.01:MODS=*1000 -50% Flip: TIME=19.70:LEN=0.01:MODS=*1000 400% Cross: TIME=19.71:LEN=0.01:MODS=*1000 -50% Flip: TIME=19.72:LEN=0.01:MODS=*1000 400% Cross: TIME=19.73:LEN=0.01:MODS=*1000 -50% Flip: TIME=19.74:LEN=0.01:MODS=*1000 400% Cross: TIME=19.75:LEN=0.01:MODS=*1000 -50% Flip: TIME=19.76:LEN=0.01:MODS=*1000 400% Cross: TIME=19.77:LEN=0.01:MODS=*1000 -50% Flip: TIME=19.78:LEN=0.01:MODS=*1000 400% Cross: TIME=19.79:LEN=0.01:MODS=*1000 -50% Flip: TIME=19.80:LEN=0.01:MODS=*1000 400% Cross: TIME=19.81:LEN=0.01:MODS=*1000 -50% Flip: TIME=19.82:LEN=0.01:MODS=*1000 400% Cross: TIME=19.82:LEN=0.01:MODS=*1000 -50% Flip: TIME=19.83:LEN=0.01:MODS=*1000 400% Cross: TIME=19.84:LEN=0.01:MODS=*1000 -50% Flip: TIME=19.85:LEN=0.01:MODS=*1000 400% Cross: TIME=19.86:LEN=0.01:MODS=*1000 -50% Flip: TIME=19.87:LEN=0.01:MODS=*1000 400% Cross: TIME=19.88:LEN=0.01:MODS=*1000 -50% Flip: TIME=19.89:LEN=0.01:MODS=*1000 400% Cross: TIME=19.90:LEN=0.01:MODS=*1000 -50% Flip: TIME=19.91:LEN=0.01:MODS=*1000 400% Cross: TIME=19.92:LEN=0.01:MODS=*1000 -50% Flip: TIME=19.93:LEN=0.01:MODS=*1000 400% Cross: TIME=19.94:LEN=0.01:MODS=*1000 -50% Flip: TIME=19.95:LEN=0.01:MODS=*1000 400% Cross: TIME=19.96:LEN=0.01:MODS=*1000 -50% Flip: TIME=19.97:LEN=0.01:MODS=*1000 400% Cross: TIME=19.98:LEN=0.01:MODS=*1000 -50% Flip: TIME=19.99:LEN=0.01:MODS=*1000 400% Cross: TIME=20.00:LEN=0.01:MODS=*1000 -50% Flip: TIME=20.01:LEN=0.01:MODS=*1000 400% Cross: TIME=20.02:LEN=0.01:MODS=*1000 -50% Flip: TIME=20.03:LEN=0.01:MODS=*1000 400% Cross: TIME=20.04:LEN=0.01:MODS=*1000 -50% Flip: TIME=20.05:LEN=0.01:MODS=*1000 400% Cross: TIME=20.06:LEN=0.01:MODS=*1000 -50% Flip: TIME=20.07:LEN=0.01:MODS=*1000 400% Cross: TIME=20.08:LEN=0.01:MODS=*1000 -50% Flip: TIME=20.09:LEN=0.01:MODS=*1000 400% Cross: TIME=20.10:LEN=0.01:MODS=*1000 -50% Flip: TIME=20.11:LEN=0.01:MODS=*1000 400% Cross: TIME=20.12:LEN=0.01:MODS=*1000 -50% Flip: TIME=20.13:LEN=0.01:MODS=*1000 400% Cross: TIME=20.14:LEN=0.01:MODS=*1000 -50% Flip: TIME=20.15:LEN=0.01:MODS=*1000 400% Cross: TIME=20.16:LEN=0.01:MODS=*1000 -50% Flip: TIME=20.17:LEN=0.01:MODS=*1000 400% Cross: TIME=20.18:LEN=0.01:MODS=*1000 -50% Flip: TIME=20.19:LEN=0.01:MODS=*1000 400% Cross: TIME=20.20:LEN=0.01:MODS=*1000 -50% Flip: TIME=20.21:LEN=0.01:MODS=*1000 400% Cross: TIME=20.22:LEN=0.01:MODS=*1000 -50% Flip: TIME=20.23:LEN=0.01:MODS=*1000 400% Cross: TIME=20.24:LEN=0.01:MODS=*1000 -50% Flip: TIME=20.24:LEN=0.01:MODS=*1000 400% Cross: TIME=20.25:LEN=0.01:MODS=*1000 -50% Flip: TIME=20.26:LEN=0.01:MODS=*1000 400% Cross: TIME=20.27:LEN=0.01:MODS=*1000 -50% Flip: TIME=20.28:LEN=0.01:MODS=*1000 400% Cross: TIME=20.29:LEN=0.01:MODS=*1000 -50% Flip: TIME=20.30:LEN=0.01:MODS=*1000 400% Cross: TIME=20.31:LEN=0.01:MODS=*1000 -50% Flip: TIME=20.32:LEN=0.01:MODS=*1000 400% Cross: TIME=20.33:LEN=0.01:MODS=*1000 -50% Flip: TIME=20.34:LEN=0.01:MODS=*1000 400% Cross: TIME=20.35:LEN=0.01:MODS=*1000 -50% Flip: TIME=20.36:LEN=0.01:MODS=*1000 400% Cross: TIME=20.37:LEN=0.01:MODS=*1000 -50% Flip: TIME=20.38:LEN=0.01:MODS=*1000 400% Cross: TIME=20.39:LEN=0.01:MODS=*1000 -50% Flip: TIME=20.40:LEN=0.01:MODS=*1000 400% Cross: TIME=20.41:LEN=0.01:MODS=*1000 -50% Flip: TIME=20.42:LEN=0.01:MODS=*1000 400% Cross: TIME=20.43:LEN=0.01:MODS=*1000 -50% Flip: TIME=20.44:LEN=0.01:MODS=*1000 400% Cross: TIME=20.45:LEN=0.01:MODS=*1000 -50% Flip: TIME=20.46:LEN=0.01:MODS=*1000 400% Cross: TIME=20.47:LEN=0.01:MODS=*1000 -50% Flip: TIME=20.48:LEN=0.01:MODS=*1000 400% Cross: TIME=20.49:LEN=0.01:MODS=*1000 -50% Flip: TIME=20.50:LEN=0.01:MODS=*1000 400% Cross: TIME=20.51:LEN=0.01:MODS=*1000 -50% Flip: TIME=20.52:LEN=0.01:MODS=*1000 400% Cross: TIME=20.53:LEN=0.01:MODS=*1000 -50% Flip: TIME=20.54:LEN=0.01:MODS=*1000 400% Cross: TIME=20.55:LEN=0.01:MODS=*1000 -50% Flip: TIME=20.56:LEN=0.01:MODS=*1000 400% Cross: TIME=20.57:LEN=0.01:MODS=*1000 -50% Flip: TIME=20.58:LEN=0.01:MODS=*1000 400% Cross: TIME=20.59:LEN=0.01:MODS=*1000 -50% Flip: TIME=20.60:LEN=0.01:MODS=*1000 400% Cross: TIME=20.61:LEN=0.01:MODS=*1000 -50% Flip: TIME=20.62:LEN=0.01:MODS=*1000 400% Cross: TIME=20.63:LEN=0.01:MODS=*1000 -50% Flip: TIME=20.64:LEN=0.01:MODS=*1000 400% Cross: TIME=20.65:LEN=0.01:MODS=*1000 -50% Flip: TIME=20.66:LEN=0.01:MODS=*1000 400% Cross: TIME=20.67:LEN=0.01:MODS=*1000 -50% Flip: TIME=20.67:LEN=0.01:MODS=*1000 400% Cross: TIME=20.68:LEN=0.01:MODS=*1000 -50% Flip: TIME=20.69:LEN=0.01:MODS=*1000 400% Cross: TIME=20.70:LEN=0.01:MODS=*1000 -50% Flip: TIME=20.71:LEN=0.01:MODS=*1000 400% Cross: TIME=20.72:LEN=0.01:MODS=*1000 -50% Flip: TIME=20.73:LEN=0.01:MODS=*1000 400% Cross: TIME=20.74:LEN=0.01:MODS=*1000 -50% Flip: TIME=20.75:LEN=0.01:MODS=*1000 400% Cross: TIME=20.76:LEN=0.01:MODS=*1000 -50% Flip: TIME=20.77:LEN=0.01:MODS=*1000 400% Cross: TIME=20.78:LEN=0.01:MODS=*1000 -50% Flip: TIME=20.79:LEN=0.01:MODS=*1000 400% Cross: TIME=20.80:LEN=0.01:MODS=*1000 -50% Flip: TIME=20.81:LEN=0.01:MODS=*1000 400% Cross: TIME=20.82:LEN=0.01:MODS=*1000 -50% Flip: TIME=20.83:LEN=0.01:MODS=*1000 400% Cross: TIME=20.84:LEN=0.01:MODS=*1000 -50% Flip: TIME=20.85:LEN=0.01:MODS=*1000 400% Cross: TIME=20.86:LEN=0.01:MODS=*1000 -50% Flip: TIME=20.87:LEN=0.01:MODS=*1000 400% Cross: TIME=20.88:LEN=0.01:MODS=*1000 -50% Flip: TIME=20.89:LEN=0.01:MODS=*1000 400% Cross: TIME=20.90:LEN=0.01:MODS=*1000 -50% Flip: TIME=20.91:LEN=0.01:MODS=*1000 400% Cross: TIME=20.92:LEN=0.01:MODS=*1000 -50% Flip: TIME=20.93:LEN=0.01:MODS=*1000 400% Cross: TIME=20.94:LEN=0.01:MODS=*1000 -50% Flip: TIME=20.95:LEN=0.01:MODS=*1000 400% Cross: TIME=20.96:LEN=0.01:MODS=*1000 -50% Flip: TIME=20.97:LEN=0.01:MODS=*1000 400% Cross: TIME=20.98:LEN=0.01:MODS=*1000 -50% Flip: TIME=20.99:LEN=0.01:MODS=*1000 400% Cross: TIME=21.00:LEN=0.01:MODS=*1000 -50% Flip: TIME=21.01:LEN=0.01:MODS=*1000 400% Cross: TIME=21.02:LEN=0.01:MODS=*1000 -50% Flip: TIME=21.03:LEN=0.01:MODS=*1000 400% Cross: TIME=21.04:LEN=0.01:MODS=*1000 -50% Flip: TIME=21.05:LEN=0.01:MODS=*1000 400% Cross: TIME=21.06:LEN=0.01:MODS=*1000 -50% Flip: TIME=21.07:LEN=0.01:MODS=*1000 400% Cross: TIME=21.08:LEN=0.01:MODS=*1000 -50% Flip: TIME=21.09:LEN=0.01:MODS=*1000 400% Cross: TIME=21.09:LEN=0.01:MODS=*1000 -50% Flip: TIME=21.10:LEN=0.01:MODS=*1000 400% Cross: TIME=21.11:LEN=0.01:MODS=*1000 -50% Flip: TIME=21.12:LEN=0.01:MODS=*1000 400% Cross: TIME=21.13:LEN=0.01:MODS=*1000 -50% Flip: TIME=21.14:LEN=0.01:MODS=*1000 400% Cross: TIME=21.15:LEN=0.01:MODS=*1000 -50% Flip: TIME=21.16:LEN=0.01:MODS=*1000 400% Cross: TIME=21.17:LEN=0.01:MODS=*1000 -50% Flip: TIME=21.18:LEN=0.01:MODS=*1000 400% Cross: TIME=21.19:LEN=0.01:MODS=*1000 -50% Flip: TIME=21.20:LEN=0.01:MODS=*1000 400% Cross: TIME=21.21:LEN=0.01:MODS=*1000 -50% Flip: TIME=21.22:LEN=0.01:MODS=*1000 400% Cross: TIME=21.23:LEN=0.01:MODS=*1000 -50% Flip: TIME=21.24:LEN=0.01:MODS=*1000 400% Cross: TIME=21.25:LEN=0.01:MODS=*1000 -50% Flip: TIME=21.26:LEN=0.01:MODS=*1000 400% Cross: TIME=21.27:LEN=0.01:MODS=*1000 -50% Flip: TIME=21.28:LEN=0.01:MODS=*1000 400% Cross: TIME=21.29:LEN=0.01:MODS=*1000 -50% Flip: TIME=21.30:LEN=0.01:MODS=*1000 400% Cross: TIME=21.31:LEN=0.01:MODS=*1000 -50% Flip: TIME=21.32:LEN=0.01:MODS=*1000 400% Cross: TIME=21.33:LEN=0.01:MODS=*1000 -50% Flip: TIME=21.34:LEN=0.01:MODS=*1000 400% Cross: TIME=21.35:LEN=0.01:MODS=*1000 -50% Flip: TIME=21.36:LEN=0.01:MODS=*1000 400% Cross: TIME=21.37:LEN=0.01:MODS=*1000 -50% Flip: TIME=21.38:LEN=0.01:MODS=*1000 400% Cross: TIME=21.39:LEN=0.01:MODS=*1000 -50% Flip: TIME=21.40:LEN=0.01:MODS=*1000 400% Cross: TIME=21.41:LEN=0.01:MODS=*1000 -50% Flip: TIME=21.42:LEN=0.01:MODS=*1000 400% Cross: TIME=21.43:LEN=0.01:MODS=*1000 -50% Flip: TIME=21.44:LEN=0.01:MODS=*1000 400% Cross: TIME=21.45:LEN=0.01:MODS=*1000 -50% Flip: TIME=21.46:LEN=0.01:MODS=*1000 400% Cross: TIME=21.47:LEN=0.01:MODS=*1000 -50% Flip: TIME=21.48:LEN=0.01:MODS=*1000 400% Cross: TIME=21.49:LEN=0.01:MODS=*1000 -50% Flip: TIME=21.50:LEN=0.01:MODS=*1000 400% Cross: TIME=21.51:LEN=0.01:MODS=*1000 -50% Flip: TIME=21.52:LEN=0.01:MODS=*1000 400% Cross: TIME=21.52:LEN=0.01:MODS=*1000 -50% Flip: TIME=21.53:LEN=0.01:MODS=*1000 400% Cross: TIME=21.54:LEN=0.01:MODS=*1000 -50% Flip: TIME=21.55:LEN=0.01:MODS=*1000 400% Cross: TIME=21.56:LEN=1.00:MODS=*0.5 No Flip, *1000 No Cross: TIME=22.50:LEN=180.00:MODS=*1000 100% Beat: TIME=22.73:LEN=0.94:MODS=*1000 12.5% Split, *1000 -12.5% Cross, *1000 12.5% Alternate: TIME=23.67:LEN=0.94:MODS=*1000 25% Split, *1000 No Cross, *1000 No Alternate: TIME=24.61:LEN=0.94:MODS=*1000 12.5% Split, *1000 12.5% Cross, *1000 12.5% Alternate: TIME=25.55:LEN=0.71:MODS=*1000 25% Reverse, *1000 No Cross, *1000 No Alternate, *1000 No Split: TIME=26.25:LEN=0.71:MODS=*1000 No Reverse: TIME=26.72:LEN=0.01:MODS=*1000 0% Mini: TIME=26.73:LEN=0.01:MODS=*1000 1.39876718824088% Mini: TIME=26.74:LEN=0.01:MODS=*1000 2.79753437648175% Mini: TIME=26.75:LEN=0.01:MODS=*1000 4.19630156472263% Mini: TIME=26.76:LEN=0.01:MODS=*1000 5.59506875296351% Mini: TIME=26.77:LEN=0.01:MODS=*1000 6.99383594120439% Mini: TIME=26.78:LEN=0.01:MODS=*1000 8.39260312944526% Mini: TIME=26.79:LEN=0.01:MODS=*1000 9.79137031768614% Mini: TIME=26.80:LEN=0.01:MODS=*1000 11.190137505927% Mini: TIME=26.81:LEN=0.01:MODS=*1000 12.5889046941679% Mini: TIME=26.82:LEN=0.01:MODS=*1000 13.9876718824088% Mini: TIME=26.83:LEN=0.01:MODS=*1000 15.3864390706497% Mini: TIME=26.84:LEN=0.01:MODS=*1000 16.7852062588905% Mini: TIME=26.85:LEN=0.01:MODS=*1000 18.1839734471314% Mini: TIME=26.86:LEN=0.01:MODS=*1000 19.5827406353723% Mini: TIME=26.87:LEN=0.01:MODS=*1000 20.9815078236132% Mini: TIME=26.88:LEN=0.01:MODS=*1000 22.380275011854% Mini: TIME=26.89:LEN=0.01:MODS=*1000 23.7790422000949% Mini: TIME=26.90:LEN=0.01:MODS=*1000 25.1778093883358% Mini: TIME=26.91:LEN=0.01:MODS=*1000 26.5765765765767% Mini: TIME=26.92:LEN=0.01:MODS=*1000 27.9753437648176% Mini: TIME=26.93:LEN=0.01:MODS=*1000 29.3741109530584% Mini: TIME=26.94:LEN=0.01:MODS=*1000 30.7728781412993% Mini: TIME=26.95:LEN=0.01:MODS=*1000 32.1716453295402% Mini: TIME=26.95:LEN=0.01:MODS=*1000 33.5704125177811% Mini: TIME=26.96:LEN=0.01:MODS=*1000 34.9691797060219% Mini: TIME=26.97:LEN=0.01:MODS=*1000 36.3679468942628% Mini: TIME=26.98:LEN=0.01:MODS=*1000 37.7667140825037% Mini: TIME=26.99:LEN=0.01:MODS=*1000 39.1654812707446% Mini: TIME=27.00:LEN=0.01:MODS=*1000 40.5642484589854% Mini: TIME=27.01:LEN=0.01:MODS=*1000 41.9630156472263% Mini: TIME=27.02:LEN=0.01:MODS=*1000 43.3617828354672% Mini: TIME=27.03:LEN=0.01:MODS=*1000 44.7605500237081% Mini: TIME=27.04:LEN=0.01:MODS=*1000 46.1593172119489% Mini: TIME=27.05:LEN=0.01:MODS=*1000 47.5580844001898% Mini: TIME=27.06:LEN=0.01:MODS=*1000 48.9568515884307% Mini: TIME=27.07:LEN=0.01:MODS=*1000 50.3556187766716% Mini: TIME=27.08:LEN=0.01:MODS=*1000 51.7543859649124% Mini: TIME=27.09:LEN=0.01:MODS=*1000 53.1531531531533% Mini: TIME=27.10:LEN=0.01:MODS=*1000 54.5519203413942% Mini: TIME=27.11:LEN=0.01:MODS=*1000 55.9506875296351% Mini: TIME=27.12:LEN=0.01:MODS=*1000 57.3494547178759% Mini: TIME=27.13:LEN=0.01:MODS=*1000 58.7482219061168% Mini: TIME=27.14:LEN=0.01:MODS=*1000 60.1469890943577% Mini: TIME=27.15:LEN=0.01:MODS=*1000 61.5457562825986% Mini: TIME=27.16:LEN=0.01:MODS=*1000 62.9445234708394% Mini: TIME=27.17:LEN=0.01:MODS=*1000 64.3432906590803% Mini: TIME=27.18:LEN=0.01:MODS=*1000 65.7420578473212% Mini: TIME=27.19:LEN=0.01:MODS=*1000 67.1408250355621% Mini: TIME=27.20:LEN=0.01:MODS=*1000 68.539592223803% Mini: TIME=27.21:LEN=0.01:MODS=*1000 69.9383594120438% Mini: TIME=27.22:LEN=0.01:MODS=*1000 71.3371266002847% Mini: TIME=27.23:LEN=0.01:MODS=*1000 72.7358937885256% Mini: TIME=27.24:LEN=0.01:MODS=*1000 74.1346609767665% Mini: TIME=27.25:LEN=0.01:MODS=*1000 75.5334281650074% Mini: TIME=27.26:LEN=0.01:MODS=*1000 76.9321953532482% Mini: TIME=27.27:LEN=0.01:MODS=*1000 78.3309625414891% Mini: TIME=27.28:LEN=0.01:MODS=*1000 79.72972972973% Mini: TIME=27.29:LEN=0.01:MODS=*1000 81.1284969179709% Mini: TIME=27.30:LEN=0.01:MODS=*1000 82.5272641062118% Mini: TIME=27.31:LEN=0.01:MODS=*1000 83.9260312944527% Mini: TIME=27.32:LEN=0.01:MODS=*1000 85.3247984826935% Mini: TIME=27.33:LEN=0.01:MODS=*1000 86.7235656709344% Mini: TIME=27.34:LEN=0.01:MODS=*1000 88.1223328591753% Mini: TIME=27.35:LEN=0.01:MODS=*1000 89.5211000474162% Mini: TIME=27.36:LEN=0.01:MODS=*1000 90.9198672356571% Mini: TIME=27.37:LEN=0.01:MODS=*1000 92.3186344238979% Mini: TIME=27.38:LEN=0.01:MODS=*1000 93.7174016121388% Mini: TIME=27.39:LEN=0.01:MODS=*1000 95.1161688003797% Mini: TIME=27.40:LEN=0.01:MODS=*1000 96.5149359886206% Mini: TIME=27.41:LEN=0.01:MODS=*1000 97.9137031768615% Mini: TIME=27.42:LEN=0.01:MODS=*1000 99.3124703651024% Mini: TIME=27.43:LEN=0.01:MODS=*1000 100.711237553343% Mini: TIME=27.44:LEN=0.01:MODS=*1000 102.110004741584% Mini: TIME=27.45:LEN=0.01:MODS=*1000 103.508771929825% Mini: TIME=27.46:LEN=0.01:MODS=*1000 104.907539118066% Mini: TIME=27.47:LEN=0.01:MODS=*1000 106.306306306307% Mini: TIME=27.48:LEN=0.01:MODS=*1000 107.705073494548% Mini: TIME=27.49:LEN=0.01:MODS=*1000 109.103840682789% Mini: TIME=27.50:LEN=0.01:MODS=*1000 110.502607871029% Mini: TIME=27.51:LEN=0.01:MODS=*1000 111.90137505927% Mini: TIME=27.52:LEN=0.01:MODS=*1000 113.300142247511% Mini: TIME=27.53:LEN=0.01:MODS=*1000 114.698909435752% Mini: TIME=27.54:LEN=0.01:MODS=*1000 116.097676623993% Mini: TIME=27.55:LEN=0.01:MODS=*1000 117.496443812234% Mini: TIME=27.55:LEN=0.01:MODS=*1000 118.895211000475% Mini: TIME=27.56:LEN=0.01:MODS=*1000 120.293978188716% Mini: TIME=27.57:LEN=0.01:MODS=*1000 121.692745376956% Mini: TIME=27.58:LEN=0.01:MODS=*1000 123.091512565197% Mini: TIME=27.59:LEN=0.01:MODS=*1000 124.490279753438% Mini: TIME=27.60:LEN=0.01:MODS=*1000 125.889046941679% Mini: TIME=27.61:LEN=0.01:MODS=*1000 127.28781412992% Mini: TIME=27.62:LEN=0.01:MODS=*1000 128.686581318161% Mini: TIME=27.63:LEN=0.01:MODS=*1000 130.085348506402% Mini: TIME=27.64:LEN=0.01:MODS=*1000 131.484115694643% Mini: TIME=27.65:LEN=0.01:MODS=*1000 132.882882882883% Mini: TIME=27.66:LEN=0.01:MODS=*1000 134.281650071124% Mini: TIME=27.67:LEN=0.01:MODS=*1000 135.680417259365% Mini: TIME=27.68:LEN=0.01:MODS=*1000 137.079184447606% Mini: TIME=27.69:LEN=0.01:MODS=*1000 138.477951635847% Mini: TIME=27.70:LEN=0.01:MODS=*1000 139.876718824088% Mini: TIME=27.71:LEN=0.01:MODS=*1000 141.275486012329% Mini: TIME=27.72:LEN=0.01:MODS=*1000 142.67425320057% Mini: TIME=27.73:LEN=0.01:MODS=*1000 144.07302038881% Mini: TIME=27.74:LEN=0.01:MODS=*1000 145.471787577051% Mini: TIME=27.75:LEN=0.01:MODS=*1000 146.870554765292% Mini: TIME=27.76:LEN=0.01:MODS=*1000 148.269321953533% Mini: TIME=27.77:LEN=0.01:MODS=*1000 149.668089141774% Mini: TIME=27.78:LEN=0.01:MODS=*1000 151.066856330015% Mini: TIME=27.79:LEN=0.01:MODS=*1000 152.465623518256% Mini: TIME=27.80:LEN=0.01:MODS=*1000 153.864390706496% Mini: TIME=27.81:LEN=0.01:MODS=*1000 155.263157894737% Mini: TIME=27.82:LEN=0.01:MODS=*1000 156.661925082978% Mini: TIME=27.83:LEN=0.01:MODS=*1000 158.060692271219% Mini: TIME=27.84:LEN=0.01:MODS=*1000 159.45945945946% Mini: TIME=27.85:LEN=0.01:MODS=*1000 160.858226647701% Mini: TIME=27.86:LEN=0.01:MODS=*1000 162.256993835942% Mini: TIME=27.87:LEN=0.01:MODS=*1000 163.655761024183% Mini: TIME=27.88:LEN=0.01:MODS=*1000 165.054528212423% Mini: TIME=27.89:LEN=0.01:MODS=*1000 166.453295400664% Mini: TIME=27.90:LEN=0.01:MODS=*1000 167.852062588905% Mini: TIME=27.91:LEN=0.01:MODS=*1000 169.250829777146% Mini: TIME=27.92:LEN=0.01:MODS=*1000 170.649596965387% Mini: TIME=27.93:LEN=0.01:MODS=*1000 172.048364153628% Mini: TIME=27.94:LEN=0.01:MODS=*1000 173.447131341869% Mini: TIME=27.95:LEN=0.01:MODS=*1000 174.84589853011% Mini: TIME=27.96:LEN=0.01:MODS=*1000 176.24466571835% Mini: TIME=27.97:LEN=0.01:MODS=*1000 177.643432906591% Mini: TIME=27.98:LEN=0.01:MODS=*1000 179.042200094832% Mini: TIME=27.99:LEN=0.01:MODS=*1000 180.440967283073% Mini: TIME=28.00:LEN=0.01:MODS=*1000 181.839734471314% Mini: TIME=28.01:LEN=0.01:MODS=*1000 183.238501659555% Mini: TIME=28.02:LEN=0.01:MODS=*1000 184.637268847796% Mini: TIME=28.03:LEN=0.01:MODS=*1000 186.036036036036% Mini: TIME=28.04:LEN=0.01:MODS=*1000 187.434803224277% Mini: TIME=28.05:LEN=0.01:MODS=*1000 188.833570412518% Mini: TIME=28.06:LEN=0.01:MODS=*1000 190.232337600759% Mini: TIME=28.07:LEN=0.01:MODS=*1000 191.631104789% Mini: TIME=28.08:LEN=0.01:MODS=*1000 193.029871977241% Mini: TIME=28.09:LEN=0.01:MODS=*1000 194.428639165482% Mini: TIME=28.10:LEN=0.01:MODS=*1000 195.827406353723% Mini: TIME=28.11:LEN=0.01:MODS=*1000 197.226173541963% Mini: TIME=28.12:LEN=0.01:MODS=*1000 198.624940730204% Mini: TIME=28.12:LEN=0.01:MODS=*1000 200% Mini: TIME=28.13:LEN=0.01:MODS=*1000 197.901102810388% Mini: TIME=28.14:LEN=0.01:MODS=*1000 195.802205620776% Mini: TIME=28.15:LEN=0.01:MODS=*1000 193.703308431163% Mini: TIME=28.16:LEN=0.01:MODS=*1000 191.604411241551% Mini: TIME=28.17:LEN=0.01:MODS=*1000 189.505514051939% Mini: TIME=28.18:LEN=0.01:MODS=*1000 187.406616862327% Mini: TIME=28.19:LEN=0.01:MODS=*1000 185.307719672714% Mini: TIME=28.20:LEN=0.01:MODS=*1000 183.208822483102% Mini: TIME=28.21:LEN=0.01:MODS=*1000 181.10992529349% Mini: TIME=28.22:LEN=0.01:MODS=*1000 179.011028103878% Mini: TIME=28.23:LEN=0.01:MODS=*1000 176.912130914265% Mini: TIME=28.24:LEN=0.01:MODS=*1000 174.813233724653% Mini: TIME=28.25:LEN=0.01:MODS=*1000 172.714336535041% Mini: TIME=28.26:LEN=0.01:MODS=*1000 170.615439345429% Mini: TIME=28.27:LEN=0.01:MODS=*1000 168.516542155816% Mini: TIME=28.28:LEN=0.01:MODS=*1000 166.417644966204% Mini: TIME=28.29:LEN=0.01:MODS=*1000 164.318747776592% Mini: TIME=28.30:LEN=0.01:MODS=*1000 162.21985058698% Mini: TIME=28.31:LEN=0.01:MODS=*1000 160.120953397367% Mini: TIME=28.32:LEN=0.01:MODS=*1000 158.022056207755% Mini: TIME=28.33:LEN=0.01:MODS=*1000 155.923159018143% Mini: TIME=28.34:LEN=0.01:MODS=*1000 153.824261828531% Mini: TIME=28.35:LEN=0.01:MODS=*1000 151.725364638918% Mini: TIME=28.36:LEN=0.01:MODS=*1000 149.626467449306% Mini: TIME=28.37:LEN=0.01:MODS=*1000 147.527570259694% Mini: TIME=28.38:LEN=0.01:MODS=*1000 145.428673070082% Mini: TIME=28.39:LEN=0.01:MODS=*1000 143.329775880469% Mini: TIME=28.40:LEN=0.01:MODS=*1000 141.230878690857% Mini: TIME=28.41:LEN=0.01:MODS=*1000 139.131981501245% Mini: TIME=28.42:LEN=0.01:MODS=*1000 137.033084311633% Mini: TIME=28.43:LEN=0.01:MODS=*1000 134.93418712202% Mini: TIME=28.44:LEN=0.01:MODS=*1000 132.835289932408% Mini: TIME=28.45:LEN=0.01:MODS=*1000 130.736392742796% Mini: TIME=28.46:LEN=0.01:MODS=*1000 128.637495553184% Mini: TIME=28.47:LEN=0.01:MODS=*1000 126.538598363571% Mini: TIME=28.48:LEN=0.01:MODS=*1000 124.439701173959% Mini: TIME=28.49:LEN=0.01:MODS=*1000 122.340803984347% Mini: TIME=28.50:LEN=0.01:MODS=*1000 120.241906794735% Mini: TIME=28.51:LEN=0.01:MODS=*1000 118.143009605122% Mini: TIME=28.52:LEN=0.01:MODS=*1000 116.04411241551% Mini: TIME=28.53:LEN=0.01:MODS=*1000 113.945215225898% Mini: TIME=28.54:LEN=0.01:MODS=*1000 111.846318036286% Mini: TIME=28.55:LEN=0.01:MODS=*1000 109.747420846673% Mini: TIME=28.56:LEN=0.01:MODS=*1000 107.648523657061% Mini: TIME=28.57:LEN=0.01:MODS=*1000 105.549626467449% Mini: TIME=28.58:LEN=0.01:MODS=*1000 103.450729277837% Mini: TIME=28.59:LEN=0.01:MODS=*1000 101.351832088224% Mini: TIME=28.60:LEN=0.01:MODS=*1000 99.2529348986122% Mini: TIME=28.61:LEN=0.01:MODS=*1000 97.154037709% Mini: TIME=28.62:LEN=0.01:MODS=*1000 95.0551405193877% Mini: TIME=28.63:LEN=0.01:MODS=*1000 92.9562433297755% Mini: TIME=28.64:LEN=0.01:MODS=*1000 90.8573461401633% Mini: TIME=28.65:LEN=0.01:MODS=*1000 88.758448950551% Mini: TIME=28.66:LEN=0.01:MODS=*1000 86.6595517609388% Mini: TIME=28.67:LEN=0.01:MODS=*1000 84.5606545713265% Mini: TIME=28.68:LEN=0.01:MODS=*1000 82.4617573817143% Mini: TIME=28.69:LEN=0.01:MODS=*1000 80.362860192102% Mini: TIME=28.70:LEN=0.01:MODS=*1000 78.2639630024898% Mini: TIME=28.71:LEN=0.01:MODS=*1000 76.1650658128775% Mini: TIME=28.72:LEN=0.01:MODS=*1000 74.0661686232653% Mini: TIME=28.72:LEN=0.01:MODS=*1000 71.9672714336531% Mini: TIME=28.73:LEN=0.01:MODS=*1000 69.8683742440408% Mini: TIME=28.74:LEN=0.01:MODS=*1000 67.7694770544286% Mini: TIME=28.75:LEN=0.01:MODS=*1000 65.6705798648163% Mini: TIME=28.76:LEN=0.01:MODS=*1000 63.5716826752041% Mini: TIME=28.77:LEN=0.01:MODS=*1000 61.4727854855918% Mini: TIME=28.78:LEN=0.01:MODS=*1000 59.3738882959796% Mini: TIME=28.79:LEN=0.01:MODS=*1000 57.2749911063673% Mini: TIME=28.80:LEN=0.01:MODS=*1000 55.1760939167551% Mini: TIME=28.81:LEN=0.01:MODS=*1000 53.0771967271428% Mini: TIME=28.82:LEN=0.01:MODS=*1000 50.9782995375306% Mini: TIME=28.83:LEN=0.01:MODS=*1000 48.8794023479184% Mini: TIME=28.84:LEN=0.01:MODS=*1000 46.7805051583061% Mini: TIME=28.85:LEN=0.01:MODS=*1000 44.6816079686939% Mini: TIME=28.86:LEN=0.01:MODS=*1000 42.5827107790816% Mini: TIME=28.87:LEN=0.01:MODS=*1000 40.4838135894694% Mini: TIME=28.88:LEN=0.01:MODS=*1000 38.3849163998571% Mini: TIME=28.89:LEN=0.01:MODS=*1000 36.2860192102449% Mini: TIME=28.90:LEN=0.01:MODS=*1000 34.1871220206326% Mini: TIME=28.91:LEN=0.01:MODS=*1000 32.0882248310204% Mini: TIME=28.92:LEN=0.01:MODS=*1000 29.9893276414081% Mini: TIME=28.93:LEN=0.01:MODS=*1000 27.8904304517959% Mini: TIME=28.94:LEN=0.01:MODS=*1000 25.7915332621837% Mini: TIME=28.95:LEN=0.01:MODS=*1000 23.6926360725714% Mini: TIME=28.96:LEN=0.01:MODS=*1000 21.5937388829592% Mini: TIME=28.97:LEN=0.01:MODS=*1000 19.4948416933469% Mini: TIME=28.98:LEN=0.01:MODS=*1000 17.3959445037347% Mini: TIME=28.99:LEN=0.01:MODS=*1000 15.2970473141224% Mini: TIME=29.00:LEN=0.01:MODS=*1000 13.1981501245102% Mini: TIME=29.01:LEN=0.01:MODS=*1000 11.0992529348979% Mini: TIME=29.02:LEN=0.01:MODS=*1000 9.00035574528566% Mini: TIME=29.03:LEN=0.01:MODS=*1000 6.90145855567341% Mini: TIME=29.04:LEN=0.01:MODS=*1000 4.80256136606117% Mini: TIME=29.05:LEN=0.01:MODS=*1000 2.70366417644892% Mini: TIME=29.06:LEN=0.01:MODS=*1000 0% Mini: TIME=29.06:LEN=0.47:MODS=*1000 100% Flip: TIME=29.30:LEN=0.23:MODS=*1000 -100% Invert: TIME=29.53:LEN=0.20:MODS=*1000 No Flip, *1000 No Invert: TIME=29.53:LEN=0.01:MODS=*1000 200% Flip: TIME=29.54:LEN=0.01:MODS=*1000 200% Cross: TIME=29.55:LEN=0.01:MODS=*1000 200% Flip: TIME=29.56:LEN=0.01:MODS=*1000 200% Cross: TIME=29.57:LEN=0.01:MODS=*1000 200% Flip: TIME=29.58:LEN=0.01:MODS=*1000 200% Cross: TIME=29.59:LEN=0.01:MODS=*1000 200% Flip: TIME=29.60:LEN=0.01:MODS=*1000 200% Cross: TIME=29.61:LEN=0.01:MODS=*1000 200% Flip: TIME=29.62:LEN=0.01:MODS=*1000 200% Cross: TIME=29.63:LEN=0.01:MODS=*1000 200% Flip: TIME=29.64:LEN=0.01:MODS=*1000 200% Cross: TIME=29.65:LEN=0.01:MODS=*1000 200% Flip: TIME=29.66:LEN=0.01:MODS=*1000 200% Cross: TIME=29.67:LEN=0.01:MODS=*1000 200% Flip: TIME=29.68:LEN=0.01:MODS=*1000 200% Cross: TIME=29.69:LEN=0.01:MODS=*1000 200% Flip: TIME=29.70:LEN=0.01:MODS=*1000 200% Cross: TIME=29.71:LEN=0.01:MODS=*1000 200% Flip: TIME=29.72:LEN=0.01:MODS=*1000 200% Cross: TIME=29.73:LEN=0.01:MODS=*1000 200% Flip: TIME=29.74:LEN=0.01:MODS=*1000 200% Cross: TIME=29.75:LEN=0.01:MODS=*1000 200% Flip: TIME=29.76:LEN=0.01:MODS=*1000 200% Cross: TIME=29.77:LEN=0.01:MODS=*1000 200% Flip: TIME=29.78:LEN=0.01:MODS=*1000 200% Cross: TIME=29.79:LEN=0.01:MODS=*1000 200% Flip: TIME=29.79:LEN=0.01:MODS=*1000 200% Cross: TIME=29.80:LEN=0.01:MODS=*1000 200% Flip: TIME=29.81:LEN=0.01:MODS=*1000 200% Cross: TIME=29.82:LEN=0.01:MODS=*1000 200% Flip: TIME=29.83:LEN=0.01:MODS=*1000 200% Cross: TIME=29.84:LEN=0.01:MODS=*1000 200% Flip: TIME=29.85:LEN=0.01:MODS=*1000 200% Cross: TIME=29.86:LEN=0.01:MODS=*1000 200% Flip: TIME=29.87:LEN=0.01:MODS=*1000 200% Cross: TIME=29.88:LEN=0.01:MODS=*1000 200% Flip: TIME=29.89:LEN=0.01:MODS=*1000 200% Cross: TIME=29.90:LEN=0.01:MODS=*1000 200% Flip: TIME=29.91:LEN=0.01:MODS=*1000 200% Cross: TIME=29.92:LEN=0.01:MODS=*1000 200% Flip: TIME=29.93:LEN=0.01:MODS=*1000 200% Cross: TIME=29.94:LEN=0.01:MODS=*1000 200% Flip: TIME=29.95:LEN=0.01:MODS=*1000 200% Cross: TIME=29.96:LEN=0.01:MODS=*1000 200% Flip: TIME=29.97:LEN=0.01:MODS=*1000 200% Cross: TIME=29.98:LEN=0.01:MODS=*1000 200% Flip: TIME=29.99:LEN=0.01:MODS=*1000 200% Cross: TIME=30.00:LEN=10.00:MODS=*1000 No Flip, *1000 No Cross, *1000 No Mini: TIME=30.47:LEN=0.23:MODS=*1000 10% Distant: TIME=30.70:LEN=0.23:MODS=*1000 52.9635901778156% Distant: TIME=30.94:LEN=0.23:MODS=*1000 95.9271803556313% Distant: TIME=31.17:LEN=0.23:MODS=*1000 138.890770533447% Distant: TIME=31.41:LEN=0.23:MODS=*1000 181.854360711263% Distant: TIME=31.64:LEN=1.18:MODS=*1000 224.817950889078% Distant: TIME=32.81:LEN=0.02:MODS=*1000 No Mini, *1000 No Stealth: TIME=32.81:LEN=0.47:MODS=*1000 200% Drunk, *1000 0.5x: TIME=33.28:LEN=0.47:MODS=*1000 -200% Drunk, *1000 0.5x: TIME=33.75:LEN=0.02:MODS=*1000 No Drunk, *1000 No Dizzy: TIME=34.22:LEN=0.01:MODS=*1000 0% Mini: TIME=34.23:LEN=0.01:MODS=*1000 1.39876718824088% Mini: TIME=34.24:LEN=0.01:MODS=*1000 2.79753437648175% Mini: TIME=34.25:LEN=0.01:MODS=*1000 4.19630156472263% Mini: TIME=34.26:LEN=0.01:MODS=*1000 5.59506875296351% Mini: TIME=34.27:LEN=0.01:MODS=*1000 6.99383594120439% Mini: TIME=34.28:LEN=0.01:MODS=*1000 8.39260312944526% Mini: TIME=34.29:LEN=0.01:MODS=*1000 9.79137031768614% Mini: TIME=34.30:LEN=0.01:MODS=*1000 11.190137505927% Mini: TIME=34.31:LEN=0.01:MODS=*1000 12.5889046941679% Mini: TIME=34.32:LEN=0.01:MODS=*1000 13.9876718824088% Mini: TIME=34.33:LEN=0.01:MODS=*1000 15.3864390706497% Mini: TIME=34.34:LEN=0.01:MODS=*1000 16.7852062588905% Mini: TIME=34.35:LEN=0.01:MODS=*1000 18.1839734471314% Mini: TIME=34.36:LEN=0.01:MODS=*1000 19.5827406353723% Mini: TIME=34.37:LEN=0.01:MODS=*1000 20.9815078236132% Mini: TIME=34.38:LEN=0.01:MODS=*1000 22.380275011854% Mini: TIME=34.39:LEN=0.01:MODS=*1000 23.7790422000949% Mini: TIME=34.40:LEN=0.01:MODS=*1000 25.1778093883358% Mini: TIME=34.41:LEN=0.01:MODS=*1000 26.5765765765767% Mini: TIME=34.42:LEN=0.01:MODS=*1000 27.9753437648176% Mini: TIME=34.43:LEN=0.01:MODS=*1000 29.3741109530584% Mini: TIME=34.44:LEN=0.01:MODS=*1000 30.7728781412993% Mini: TIME=34.45:LEN=0.01:MODS=*1000 32.1716453295402% Mini: TIME=34.46:LEN=0.01:MODS=*1000 33.5704125177811% Mini: TIME=34.46:LEN=0.01:MODS=*1000 34.9691797060219% Mini: TIME=34.47:LEN=0.01:MODS=*1000 36.3679468942628% Mini: TIME=34.48:LEN=0.01:MODS=*1000 37.7667140825037% Mini: TIME=34.49:LEN=0.01:MODS=*1000 39.1654812707446% Mini: TIME=34.50:LEN=0.01:MODS=*1000 40.5642484589854% Mini: TIME=34.51:LEN=0.01:MODS=*1000 41.9630156472263% Mini: TIME=34.52:LEN=0.01:MODS=*1000 43.3617828354672% Mini: TIME=34.53:LEN=0.01:MODS=*1000 44.7605500237081% Mini: TIME=34.54:LEN=0.01:MODS=*1000 46.1593172119489% Mini: TIME=34.55:LEN=0.01:MODS=*1000 47.5580844001898% Mini: TIME=34.56:LEN=0.01:MODS=*1000 48.9568515884307% Mini: TIME=34.57:LEN=0.01:MODS=*1000 50.3556187766716% Mini: TIME=34.58:LEN=0.01:MODS=*1000 51.7543859649124% Mini: TIME=34.59:LEN=0.01:MODS=*1000 53.1531531531533% Mini: TIME=34.60:LEN=0.01:MODS=*1000 54.5519203413942% Mini: TIME=34.61:LEN=0.01:MODS=*1000 55.9506875296351% Mini: TIME=34.62:LEN=0.01:MODS=*1000 57.3494547178759% Mini: TIME=34.63:LEN=0.01:MODS=*1000 58.7482219061168% Mini: TIME=34.64:LEN=0.01:MODS=*1000 60.1469890943577% Mini: TIME=34.65:LEN=0.01:MODS=*1000 61.5457562825986% Mini: TIME=34.66:LEN=0.01:MODS=*1000 62.9445234708394% Mini: TIME=34.67:LEN=0.01:MODS=*1000 64.3432906590803% Mini: TIME=34.68:LEN=0.01:MODS=*1000 65.7420578473212% Mini: TIME=34.69:LEN=0.01:MODS=*1000 67.1408250355621% Mini: TIME=34.70:LEN=0.01:MODS=*1000 68.539592223803% Mini: TIME=34.71:LEN=0.01:MODS=*1000 69.9383594120438% Mini: TIME=34.72:LEN=0.01:MODS=*1000 71.3371266002847% Mini: TIME=34.73:LEN=0.01:MODS=*1000 72.7358937885256% Mini: TIME=34.74:LEN=0.01:MODS=*1000 74.1346609767665% Mini: TIME=34.75:LEN=0.01:MODS=*1000 75.5334281650074% Mini: TIME=34.76:LEN=0.01:MODS=*1000 76.9321953532482% Mini: TIME=34.77:LEN=0.01:MODS=*1000 78.3309625414891% Mini: TIME=34.78:LEN=0.01:MODS=*1000 79.72972972973% Mini: TIME=34.79:LEN=0.01:MODS=*1000 81.1284969179709% Mini: TIME=34.80:LEN=0.01:MODS=*1000 82.5272641062118% Mini: TIME=34.81:LEN=0.01:MODS=*1000 83.9260312944527% Mini: TIME=34.82:LEN=0.01:MODS=*1000 85.3247984826935% Mini: TIME=34.83:LEN=0.01:MODS=*1000 86.7235656709344% Mini: TIME=34.84:LEN=0.01:MODS=*1000 88.1223328591753% Mini: TIME=34.85:LEN=0.01:MODS=*1000 89.5211000474162% Mini: TIME=34.86:LEN=0.01:MODS=*1000 90.9198672356571% Mini: TIME=34.87:LEN=0.01:MODS=*1000 92.3186344238979% Mini: TIME=34.88:LEN=0.01:MODS=*1000 93.7174016121388% Mini: TIME=34.89:LEN=0.01:MODS=*1000 95.1161688003797% Mini: TIME=34.90:LEN=0.01:MODS=*1000 96.5149359886206% Mini: TIME=34.91:LEN=0.01:MODS=*1000 97.9137031768615% Mini: TIME=34.92:LEN=0.01:MODS=*1000 99.3124703651024% Mini: TIME=34.93:LEN=0.01:MODS=*1000 100.711237553343% Mini: TIME=34.94:LEN=0.01:MODS=*1000 102.110004741584% Mini: TIME=34.95:LEN=0.01:MODS=*1000 103.508771929825% Mini: TIME=34.96:LEN=0.01:MODS=*1000 104.907539118066% Mini: TIME=34.97:LEN=0.01:MODS=*1000 106.306306306307% Mini: TIME=34.98:LEN=0.01:MODS=*1000 107.705073494548% Mini: TIME=34.99:LEN=0.01:MODS=*1000 109.103840682789% Mini: TIME=35.00:LEN=0.01:MODS=*1000 110.502607871029% Mini: TIME=35.01:LEN=0.01:MODS=*1000 111.90137505927% Mini: TIME=35.02:LEN=0.01:MODS=*1000 113.300142247511% Mini: TIME=35.03:LEN=0.01:MODS=*1000 114.698909435752% Mini: TIME=35.04:LEN=0.01:MODS=*1000 116.097676623993% Mini: TIME=35.04:LEN=0.01:MODS=*1000 117.496443812234% Mini: TIME=35.05:LEN=0.01:MODS=*1000 118.895211000475% Mini: TIME=35.06:LEN=0.01:MODS=*1000 120.293978188716% Mini: TIME=35.07:LEN=0.01:MODS=*1000 121.692745376956% Mini: TIME=35.08:LEN=0.01:MODS=*1000 123.091512565197% Mini: TIME=35.09:LEN=0.01:MODS=*1000 124.490279753438% Mini: TIME=35.10:LEN=0.01:MODS=*1000 125.889046941679% Mini: TIME=35.11:LEN=0.01:MODS=*1000 127.28781412992% Mini: TIME=35.12:LEN=0.01:MODS=*1000 128.686581318161% Mini: TIME=35.13:LEN=0.01:MODS=*1000 130.085348506402% Mini: TIME=35.14:LEN=0.01:MODS=*1000 131.484115694643% Mini: TIME=35.15:LEN=0.01:MODS=*1000 132.882882882883% Mini: TIME=35.16:LEN=0.01:MODS=*1000 134.281650071124% Mini: TIME=35.17:LEN=0.01:MODS=*1000 135.680417259365% Mini: TIME=35.18:LEN=0.01:MODS=*1000 137.079184447606% Mini: TIME=35.19:LEN=0.01:MODS=*1000 138.477951635847% Mini: TIME=35.20:LEN=0.01:MODS=*1000 139.876718824088% Mini: TIME=35.21:LEN=0.01:MODS=*1000 141.275486012329% Mini: TIME=35.22:LEN=0.01:MODS=*1000 142.67425320057% Mini: TIME=35.23:LEN=0.01:MODS=*1000 144.07302038881% Mini: TIME=35.24:LEN=0.01:MODS=*1000 145.471787577051% Mini: TIME=35.25:LEN=0.01:MODS=*1000 146.870554765292% Mini: TIME=35.26:LEN=0.01:MODS=*1000 148.269321953533% Mini: TIME=35.27:LEN=0.01:MODS=*1000 149.668089141774% Mini: TIME=35.28:LEN=0.01:MODS=*1000 151.066856330015% Mini: TIME=35.29:LEN=0.01:MODS=*1000 152.465623518256% Mini: TIME=35.30:LEN=0.01:MODS=*1000 153.864390706496% Mini: TIME=35.31:LEN=0.01:MODS=*1000 155.263157894737% Mini: TIME=35.32:LEN=0.01:MODS=*1000 156.661925082978% Mini: TIME=35.33:LEN=0.01:MODS=*1000 158.060692271219% Mini: TIME=35.34:LEN=0.01:MODS=*1000 159.45945945946% Mini: TIME=35.35:LEN=0.01:MODS=*1000 160.858226647701% Mini: TIME=35.36:LEN=0.01:MODS=*1000 162.256993835942% Mini: TIME=35.37:LEN=0.01:MODS=*1000 163.655761024183% Mini: TIME=35.38:LEN=0.01:MODS=*1000 165.054528212423% Mini: TIME=35.39:LEN=0.01:MODS=*1000 166.453295400664% Mini: TIME=35.40:LEN=0.01:MODS=*1000 167.852062588905% Mini: TIME=35.41:LEN=0.01:MODS=*1000 169.250829777146% Mini: TIME=35.42:LEN=0.01:MODS=*1000 170.649596965387% Mini: TIME=35.43:LEN=0.01:MODS=*1000 172.048364153628% Mini: TIME=35.44:LEN=0.01:MODS=*1000 173.447131341869% Mini: TIME=35.45:LEN=0.01:MODS=*1000 174.84589853011% Mini: TIME=35.46:LEN=0.01:MODS=*1000 176.24466571835% Mini: TIME=35.47:LEN=0.01:MODS=*1000 177.643432906591% Mini: TIME=35.48:LEN=0.01:MODS=*1000 179.042200094832% Mini: TIME=35.49:LEN=0.01:MODS=*1000 180.440967283073% Mini: TIME=35.50:LEN=0.01:MODS=*1000 181.839734471314% Mini: TIME=35.51:LEN=0.01:MODS=*1000 183.238501659555% Mini: TIME=35.52:LEN=0.01:MODS=*1000 184.637268847796% Mini: TIME=35.53:LEN=0.01:MODS=*1000 186.036036036036% Mini: TIME=35.54:LEN=0.01:MODS=*1000 187.434803224277% Mini: TIME=35.55:LEN=0.01:MODS=*1000 188.833570412518% Mini: TIME=35.56:LEN=0.01:MODS=*1000 190.232337600759% Mini: TIME=35.57:LEN=0.01:MODS=*1000 191.631104789% Mini: TIME=35.58:LEN=0.01:MODS=*1000 193.029871977241% Mini: TIME=35.59:LEN=0.01:MODS=*1000 194.428639165482% Mini: TIME=35.60:LEN=0.01:MODS=*1000 195.827406353723% Mini: TIME=35.61:LEN=0.01:MODS=*1000 197.226173541963% Mini: TIME=35.62:LEN=0.01:MODS=*1000 198.624940730204% Mini: TIME=35.62:LEN=0.01:MODS=*1000 200% Mini: TIME=35.63:LEN=0.01:MODS=*1000 197.901102810388% Mini: TIME=35.64:LEN=0.01:MODS=*1000 195.802205620776% Mini: TIME=35.65:LEN=0.01:MODS=*1000 193.703308431163% Mini: TIME=35.66:LEN=0.01:MODS=*1000 191.604411241551% Mini: TIME=35.67:LEN=0.01:MODS=*1000 189.505514051939% Mini: TIME=35.68:LEN=0.01:MODS=*1000 187.406616862327% Mini: TIME=35.69:LEN=0.01:MODS=*1000 185.307719672714% Mini: TIME=35.70:LEN=0.01:MODS=*1000 183.208822483102% Mini: TIME=35.71:LEN=0.01:MODS=*1000 181.10992529349% Mini: TIME=35.72:LEN=0.01:MODS=*1000 179.011028103878% Mini: TIME=35.73:LEN=0.01:MODS=*1000 176.912130914265% Mini: TIME=35.74:LEN=0.01:MODS=*1000 174.813233724653% Mini: TIME=35.75:LEN=0.01:MODS=*1000 172.714336535041% Mini: TIME=35.76:LEN=0.01:MODS=*1000 170.615439345429% Mini: TIME=35.77:LEN=0.01:MODS=*1000 168.516542155816% Mini: TIME=35.78:LEN=0.01:MODS=*1000 166.417644966204% Mini: TIME=35.79:LEN=0.01:MODS=*1000 164.318747776592% Mini: TIME=35.80:LEN=0.01:MODS=*1000 162.21985058698% Mini: TIME=35.81:LEN=0.01:MODS=*1000 160.120953397367% Mini: TIME=35.82:LEN=0.01:MODS=*1000 158.022056207755% Mini: TIME=35.83:LEN=0.01:MODS=*1000 155.923159018143% Mini: TIME=35.84:LEN=0.01:MODS=*1000 153.824261828531% Mini: TIME=35.85:LEN=0.01:MODS=*1000 151.725364638918% Mini: TIME=35.86:LEN=0.01:MODS=*1000 149.626467449306% Mini: TIME=35.87:LEN=0.01:MODS=*1000 147.527570259694% Mini: TIME=35.88:LEN=0.01:MODS=*1000 145.428673070082% Mini: TIME=35.89:LEN=0.01:MODS=*1000 143.329775880469% Mini: TIME=35.90:LEN=0.01:MODS=*1000 141.230878690857% Mini: TIME=35.91:LEN=0.01:MODS=*1000 139.131981501245% Mini: TIME=35.92:LEN=0.01:MODS=*1000 137.033084311633% Mini: TIME=35.93:LEN=0.01:MODS=*1000 134.93418712202% Mini: TIME=35.94:LEN=0.01:MODS=*1000 132.835289932408% Mini: TIME=35.95:LEN=0.01:MODS=*1000 130.736392742796% Mini: TIME=35.96:LEN=0.01:MODS=*1000 128.637495553184% Mini: TIME=35.97:LEN=0.01:MODS=*1000 126.538598363571% Mini: TIME=35.98:LEN=0.01:MODS=*1000 124.439701173959% Mini: TIME=35.99:LEN=0.01:MODS=*1000 122.340803984347% Mini: TIME=36.00:LEN=0.01:MODS=*1000 120.241906794735% Mini: TIME=36.01:LEN=0.01:MODS=*1000 118.143009605122% Mini: TIME=36.02:LEN=0.01:MODS=*1000 116.04411241551% Mini: TIME=36.03:LEN=0.01:MODS=*1000 113.945215225898% Mini: TIME=36.04:LEN=0.01:MODS=*1000 111.846318036286% Mini: TIME=36.05:LEN=0.01:MODS=*1000 109.747420846673% Mini: TIME=36.06:LEN=0.01:MODS=*1000 107.648523657061% Mini: TIME=36.07:LEN=0.01:MODS=*1000 105.549626467449% Mini: TIME=36.08:LEN=0.01:MODS=*1000 103.450729277837% Mini: TIME=36.09:LEN=0.01:MODS=*1000 101.351832088224% Mini: TIME=36.10:LEN=0.01:MODS=*1000 99.2529348986122% Mini: TIME=36.11:LEN=0.01:MODS=*1000 97.154037709% Mini: TIME=36.12:LEN=0.01:MODS=*1000 95.0551405193877% Mini: TIME=36.13:LEN=0.01:MODS=*1000 92.9562433297755% Mini: TIME=36.14:LEN=0.01:MODS=*1000 90.8573461401633% Mini: TIME=36.15:LEN=0.01:MODS=*1000 88.758448950551% Mini: TIME=36.16:LEN=0.01:MODS=*1000 86.6595517609388% Mini: TIME=36.17:LEN=0.01:MODS=*1000 84.5606545713265% Mini: TIME=36.18:LEN=0.01:MODS=*1000 82.4617573817143% Mini: TIME=36.19:LEN=0.01:MODS=*1000 80.362860192102% Mini: TIME=36.20:LEN=0.01:MODS=*1000 78.2639630024898% Mini: TIME=36.21:LEN=0.01:MODS=*1000 76.1650658128775% Mini: TIME=36.22:LEN=0.01:MODS=*1000 74.0661686232653% Mini: TIME=36.22:LEN=0.01:MODS=*1000 71.9672714336531% Mini: TIME=36.23:LEN=0.01:MODS=*1000 69.8683742440408% Mini: TIME=36.24:LEN=0.01:MODS=*1000 67.7694770544286% Mini: TIME=36.25:LEN=0.01:MODS=*1000 65.6705798648163% Mini: TIME=36.26:LEN=0.01:MODS=*1000 63.5716826752041% Mini: TIME=36.27:LEN=0.01:MODS=*1000 61.4727854855918% Mini: TIME=36.28:LEN=0.01:MODS=*1000 59.3738882959796% Mini: TIME=36.29:LEN=0.01:MODS=*1000 57.2749911063673% Mini: TIME=36.30:LEN=0.01:MODS=*1000 55.1760939167551% Mini: TIME=36.31:LEN=0.01:MODS=*1000 53.0771967271428% Mini: TIME=36.32:LEN=0.01:MODS=*1000 50.9782995375306% Mini: TIME=36.33:LEN=0.01:MODS=*1000 48.8794023479184% Mini: TIME=36.34:LEN=0.01:MODS=*1000 46.7805051583061% Mini: TIME=36.35:LEN=0.01:MODS=*1000 44.6816079686939% Mini: TIME=36.36:LEN=0.01:MODS=*1000 42.5827107790816% Mini: TIME=36.37:LEN=0.01:MODS=*1000 40.4838135894694% Mini: TIME=36.38:LEN=0.01:MODS=*1000 38.3849163998571% Mini: TIME=36.39:LEN=0.01:MODS=*1000 36.2860192102449% Mini: TIME=36.40:LEN=0.01:MODS=*1000 34.1871220206326% Mini: TIME=36.41:LEN=0.01:MODS=*1000 32.0882248310204% Mini: TIME=36.42:LEN=0.01:MODS=*1000 29.9893276414081% Mini: TIME=36.43:LEN=0.01:MODS=*1000 27.8904304517959% Mini: TIME=36.44:LEN=0.01:MODS=*1000 25.7915332621837% Mini: TIME=36.45:LEN=0.01:MODS=*1000 23.6926360725714% Mini: TIME=36.46:LEN=0.01:MODS=*1000 21.5937388829592% Mini: TIME=36.47:LEN=0.01:MODS=*1000 19.4948416933469% Mini: TIME=36.48:LEN=0.01:MODS=*1000 17.3959445037347% Mini: TIME=36.49:LEN=0.01:MODS=*1000 15.2970473141224% Mini: TIME=36.50:LEN=0.01:MODS=*1000 13.1981501245102% Mini: TIME=36.51:LEN=0.01:MODS=*1000 11.0992529348979% Mini: TIME=36.52:LEN=0.01:MODS=*1000 9.00035574528566% Mini: TIME=36.53:LEN=0.01:MODS=*1000 6.90145855567341% Mini: TIME=36.54:LEN=0.01:MODS=*1000 4.80256136606117% Mini: TIME=36.55:LEN=0.01:MODS=*1000 2.70366417644892% Mini: TIME=36.56:LEN=0.01:MODS=*1000 0% Mini: TIME=37.27:LEN=0.23:MODS=*1000 1000% Dizzy: TIME=37.50:LEN=0.23:MODS=*1000 No Dizzy: TIME=37.97:LEN=0.23:MODS=*1000 10% Distant: TIME=38.20:LEN=0.23:MODS=*1000 63.75% Distant: TIME=38.44:LEN=0.23:MODS=*1000 117.5% Distant: TIME=38.67:LEN=0.23:MODS=*1000 171.25% Distant: TIME=38.91:LEN=2.34:MODS=*1000 225% Distant: TIME=38.91:LEN=10.00:MODS=*1000 -50% Flip: TIME=39.61:LEN=10.00:MODS=*1000 -37.5% Flip, *1000 -37.5% Invert: TIME=40.55:LEN=10.00:MODS=*1000 0% Flip, *1000 0% Invert: TIME=41.25:LEN=10.00:MODS=*1000 No Flip, *1000 No Invert, *1000 No Distant: TIME=41.72:LEN=0.01:MODS=*1000 0% Mini: TIME=41.73:LEN=0.01:MODS=*1000 1.39876718824088% Mini: TIME=41.74:LEN=0.01:MODS=*1000 2.79753437648175% Mini: TIME=41.75:LEN=0.01:MODS=*1000 4.19630156472263% Mini: TIME=41.76:LEN=0.01:MODS=*1000 5.59506875296351% Mini: TIME=41.77:LEN=0.01:MODS=*1000 6.99383594120439% Mini: TIME=41.78:LEN=0.01:MODS=*1000 8.39260312944526% Mini: TIME=41.79:LEN=0.01:MODS=*1000 9.79137031768614% Mini: TIME=41.80:LEN=0.01:MODS=*1000 11.190137505927% Mini: TIME=41.81:LEN=0.01:MODS=*1000 12.5889046941679% Mini: TIME=41.82:LEN=0.01:MODS=*1000 13.9876718824088% Mini: TIME=41.83:LEN=0.01:MODS=*1000 15.3864390706497% Mini: TIME=41.84:LEN=0.01:MODS=*1000 16.7852062588905% Mini: TIME=41.85:LEN=0.01:MODS=*1000 18.1839734471314% Mini: TIME=41.86:LEN=0.01:MODS=*1000 19.5827406353723% Mini: TIME=41.87:LEN=0.01:MODS=*1000 20.9815078236132% Mini: TIME=41.88:LEN=0.01:MODS=*1000 22.380275011854% Mini: TIME=41.89:LEN=0.01:MODS=*1000 23.7790422000949% Mini: TIME=41.90:LEN=0.01:MODS=*1000 25.1778093883358% Mini: TIME=41.91:LEN=0.01:MODS=*1000 26.5765765765767% Mini: TIME=41.92:LEN=0.01:MODS=*1000 27.9753437648176% Mini: TIME=41.93:LEN=0.01:MODS=*1000 29.3741109530584% Mini: TIME=41.94:LEN=0.01:MODS=*1000 30.7728781412993% Mini: TIME=41.95:LEN=0.01:MODS=*1000 32.1716453295402% Mini: TIME=41.96:LEN=0.01:MODS=*1000 33.5704125177811% Mini: TIME=41.96:LEN=0.01:MODS=*1000 34.9691797060219% Mini: TIME=41.97:LEN=0.01:MODS=*1000 36.3679468942628% Mini: TIME=41.98:LEN=0.01:MODS=*1000 37.7667140825037% Mini: TIME=41.99:LEN=0.01:MODS=*1000 39.1654812707446% Mini: TIME=42.00:LEN=0.01:MODS=*1000 40.5642484589854% Mini: TIME=42.01:LEN=0.01:MODS=*1000 41.9630156472263% Mini: TIME=42.02:LEN=0.01:MODS=*1000 43.3617828354672% Mini: TIME=42.03:LEN=0.01:MODS=*1000 44.7605500237081% Mini: TIME=42.04:LEN=0.01:MODS=*1000 46.1593172119489% Mini: TIME=42.05:LEN=0.01:MODS=*1000 47.5580844001898% Mini: TIME=42.06:LEN=0.01:MODS=*1000 48.9568515884307% Mini: TIME=42.07:LEN=0.01:MODS=*1000 50.3556187766716% Mini: TIME=42.08:LEN=0.01:MODS=*1000 51.7543859649124% Mini: TIME=42.09:LEN=0.01:MODS=*1000 53.1531531531533% Mini: TIME=42.10:LEN=0.01:MODS=*1000 54.5519203413942% Mini: TIME=42.11:LEN=0.01:MODS=*1000 55.9506875296351% Mini: TIME=42.12:LEN=0.01:MODS=*1000 57.3494547178759% Mini: TIME=42.13:LEN=0.01:MODS=*1000 58.7482219061168% Mini: TIME=42.14:LEN=0.01:MODS=*1000 60.1469890943577% Mini: TIME=42.15:LEN=0.01:MODS=*1000 61.5457562825986% Mini: TIME=42.16:LEN=0.01:MODS=*1000 62.9445234708394% Mini: TIME=42.17:LEN=0.01:MODS=*1000 64.3432906590803% Mini: TIME=42.18:LEN=0.01:MODS=*1000 65.7420578473212% Mini: TIME=42.19:LEN=0.01:MODS=*1000 67.1408250355621% Mini: TIME=42.20:LEN=0.01:MODS=*1000 68.539592223803% Mini: TIME=42.21:LEN=0.01:MODS=*1000 69.9383594120438% Mini: TIME=42.22:LEN=0.01:MODS=*1000 71.3371266002847% Mini: TIME=42.23:LEN=0.01:MODS=*1000 72.7358937885256% Mini: TIME=42.24:LEN=0.01:MODS=*1000 74.1346609767665% Mini: TIME=42.25:LEN=0.01:MODS=*1000 75.5334281650074% Mini: TIME=42.26:LEN=0.01:MODS=*1000 76.9321953532482% Mini: TIME=42.27:LEN=0.01:MODS=*1000 78.3309625414891% Mini: TIME=42.28:LEN=0.01:MODS=*1000 79.72972972973% Mini: TIME=42.29:LEN=0.01:MODS=*1000 81.1284969179709% Mini: TIME=42.30:LEN=0.01:MODS=*1000 82.5272641062118% Mini: TIME=42.31:LEN=0.01:MODS=*1000 83.9260312944527% Mini: TIME=42.32:LEN=0.01:MODS=*1000 85.3247984826935% Mini: TIME=42.33:LEN=0.01:MODS=*1000 86.7235656709344% Mini: TIME=42.34:LEN=0.01:MODS=*1000 88.1223328591753% Mini: TIME=42.35:LEN=0.01:MODS=*1000 89.5211000474162% Mini: TIME=42.36:LEN=0.01:MODS=*1000 90.9198672356571% Mini: TIME=42.37:LEN=0.01:MODS=*1000 92.3186344238979% Mini: TIME=42.38:LEN=0.01:MODS=*1000 93.7174016121388% Mini: TIME=42.39:LEN=0.01:MODS=*1000 95.1161688003797% Mini: TIME=42.40:LEN=0.01:MODS=*1000 96.5149359886206% Mini: TIME=42.41:LEN=0.01:MODS=*1000 97.9137031768615% Mini: TIME=42.42:LEN=0.01:MODS=*1000 99.3124703651024% Mini: TIME=42.43:LEN=0.01:MODS=*1000 100.711237553343% Mini: TIME=42.44:LEN=0.01:MODS=*1000 102.110004741584% Mini: TIME=42.45:LEN=0.01:MODS=*1000 103.508771929825% Mini: TIME=42.46:LEN=0.01:MODS=*1000 104.907539118066% Mini: TIME=42.47:LEN=0.01:MODS=*1000 106.306306306307% Mini: TIME=42.48:LEN=0.01:MODS=*1000 107.705073494548% Mini: TIME=42.49:LEN=0.01:MODS=*1000 109.103840682789% Mini: TIME=42.50:LEN=0.01:MODS=*1000 110.502607871029% Mini: TIME=42.51:LEN=0.01:MODS=*1000 111.90137505927% Mini: TIME=42.52:LEN=0.01:MODS=*1000 113.300142247511% Mini: TIME=42.53:LEN=0.01:MODS=*1000 114.698909435752% Mini: TIME=42.54:LEN=0.01:MODS=*1000 116.097676623993% Mini: TIME=42.54:LEN=0.01:MODS=*1000 117.496443812234% Mini: TIME=42.55:LEN=0.01:MODS=*1000 118.895211000475% Mini: TIME=42.56:LEN=0.01:MODS=*1000 120.293978188716% Mini: TIME=42.57:LEN=0.01:MODS=*1000 121.692745376956% Mini: TIME=42.58:LEN=0.01:MODS=*1000 123.091512565197% Mini: TIME=42.59:LEN=0.01:MODS=*1000 124.490279753438% Mini: TIME=42.60:LEN=0.01:MODS=*1000 125.889046941679% Mini: TIME=42.61:LEN=0.01:MODS=*1000 127.28781412992% Mini: TIME=42.62:LEN=0.01:MODS=*1000 128.686581318161% Mini: TIME=42.63:LEN=0.01:MODS=*1000 130.085348506402% Mini: TIME=42.64:LEN=0.01:MODS=*1000 131.484115694643% Mini: TIME=42.65:LEN=0.01:MODS=*1000 132.882882882883% Mini: TIME=42.66:LEN=0.01:MODS=*1000 134.281650071124% Mini: TIME=42.67:LEN=0.01:MODS=*1000 135.680417259365% Mini: TIME=42.68:LEN=0.01:MODS=*1000 137.079184447606% Mini: TIME=42.69:LEN=0.01:MODS=*1000 138.477951635847% Mini: TIME=42.70:LEN=0.01:MODS=*1000 139.876718824088% Mini: TIME=42.71:LEN=0.01:MODS=*1000 141.275486012329% Mini: TIME=42.72:LEN=0.01:MODS=*1000 142.67425320057% Mini: TIME=42.73:LEN=0.01:MODS=*1000 144.07302038881% Mini: TIME=42.74:LEN=0.01:MODS=*1000 145.471787577051% Mini: TIME=42.75:LEN=0.01:MODS=*1000 146.870554765292% Mini: TIME=42.76:LEN=0.01:MODS=*1000 148.269321953533% Mini: TIME=42.77:LEN=0.01:MODS=*1000 149.668089141774% Mini: TIME=42.78:LEN=0.01:MODS=*1000 151.066856330015% Mini: TIME=42.79:LEN=0.01:MODS=*1000 152.465623518256% Mini: TIME=42.80:LEN=0.01:MODS=*1000 153.864390706496% Mini: TIME=42.81:LEN=0.01:MODS=*1000 155.263157894737% Mini: TIME=42.82:LEN=0.01:MODS=*1000 156.661925082978% Mini: TIME=42.83:LEN=0.01:MODS=*1000 158.060692271219% Mini: TIME=42.84:LEN=0.01:MODS=*1000 159.45945945946% Mini: TIME=42.85:LEN=0.01:MODS=*1000 160.858226647701% Mini: TIME=42.86:LEN=0.01:MODS=*1000 162.256993835942% Mini: TIME=42.87:LEN=0.01:MODS=*1000 163.655761024183% Mini: TIME=42.88:LEN=0.01:MODS=*1000 165.054528212423% Mini: TIME=42.89:LEN=0.01:MODS=*1000 166.453295400664% Mini: TIME=42.90:LEN=0.01:MODS=*1000 167.852062588905% Mini: TIME=42.91:LEN=0.01:MODS=*1000 169.250829777146% Mini: TIME=42.92:LEN=0.01:MODS=*1000 170.649596965387% Mini: TIME=42.93:LEN=0.01:MODS=*1000 172.048364153628% Mini: TIME=42.94:LEN=0.01:MODS=*1000 173.447131341869% Mini: TIME=42.95:LEN=0.01:MODS=*1000 174.84589853011% Mini: TIME=42.96:LEN=0.01:MODS=*1000 176.24466571835% Mini: TIME=42.97:LEN=0.01:MODS=*1000 177.643432906591% Mini: TIME=42.98:LEN=0.01:MODS=*1000 179.042200094832% Mini: TIME=42.99:LEN=0.01:MODS=*1000 180.440967283073% Mini: TIME=43.00:LEN=0.01:MODS=*1000 181.839734471314% Mini: TIME=43.01:LEN=0.01:MODS=*1000 183.238501659555% Mini: TIME=43.02:LEN=0.01:MODS=*1000 184.637268847796% Mini: TIME=43.03:LEN=0.01:MODS=*1000 186.036036036036% Mini: TIME=43.04:LEN=0.01:MODS=*1000 187.434803224277% Mini: TIME=43.05:LEN=0.01:MODS=*1000 188.833570412518% Mini: TIME=43.06:LEN=0.01:MODS=*1000 190.232337600759% Mini: TIME=43.07:LEN=0.01:MODS=*1000 191.631104789% Mini: TIME=43.08:LEN=0.01:MODS=*1000 193.029871977241% Mini: TIME=43.09:LEN=0.01:MODS=*1000 194.428639165482% Mini: TIME=43.10:LEN=0.01:MODS=*1000 195.827406353723% Mini: TIME=43.11:LEN=0.01:MODS=*1000 197.226173541963% Mini: TIME=43.12:LEN=0.01:MODS=*1000 198.624940730204% Mini: TIME=43.12:LEN=0.01:MODS=*1000 200% Mini: TIME=43.13:LEN=0.01:MODS=*1000 197.901102810388% Mini: TIME=43.14:LEN=0.01:MODS=*1000 195.802205620776% Mini: TIME=43.15:LEN=0.01:MODS=*1000 193.703308431163% Mini: TIME=43.16:LEN=0.01:MODS=*1000 191.604411241551% Mini: TIME=43.17:LEN=0.01:MODS=*1000 189.505514051939% Mini: TIME=43.18:LEN=0.01:MODS=*1000 187.406616862327% Mini: TIME=43.19:LEN=0.01:MODS=*1000 185.307719672714% Mini: TIME=43.20:LEN=0.01:MODS=*1000 183.208822483102% Mini: TIME=43.21:LEN=0.01:MODS=*1000 181.10992529349% Mini: TIME=43.22:LEN=0.01:MODS=*1000 179.011028103878% Mini: TIME=43.23:LEN=0.01:MODS=*1000 176.912130914265% Mini: TIME=43.24:LEN=0.01:MODS=*1000 174.813233724653% Mini: TIME=43.25:LEN=0.01:MODS=*1000 172.714336535041% Mini: TIME=43.26:LEN=0.01:MODS=*1000 170.615439345429% Mini: TIME=43.27:LEN=0.01:MODS=*1000 168.516542155816% Mini: TIME=43.28:LEN=0.01:MODS=*1000 166.417644966204% Mini: TIME=43.29:LEN=0.01:MODS=*1000 164.318747776592% Mini: TIME=43.30:LEN=0.01:MODS=*1000 162.21985058698% Mini: TIME=43.31:LEN=0.01:MODS=*1000 160.120953397367% Mini: TIME=43.32:LEN=0.01:MODS=*1000 158.022056207755% Mini: TIME=43.33:LEN=0.01:MODS=*1000 155.923159018143% Mini: TIME=43.34:LEN=0.01:MODS=*1000 153.824261828531% Mini: TIME=43.35:LEN=0.01:MODS=*1000 151.725364638918% Mini: TIME=43.36:LEN=0.01:MODS=*1000 149.626467449306% Mini: TIME=43.37:LEN=0.01:MODS=*1000 147.527570259694% Mini: TIME=43.38:LEN=0.01:MODS=*1000 145.428673070082% Mini: TIME=43.39:LEN=0.01:MODS=*1000 143.329775880469% Mini: TIME=43.40:LEN=0.01:MODS=*1000 141.230878690857% Mini: TIME=43.41:LEN=0.01:MODS=*1000 139.131981501245% Mini: TIME=43.42:LEN=0.01:MODS=*1000 137.033084311633% Mini: TIME=43.43:LEN=0.01:MODS=*1000 134.93418712202% Mini: TIME=43.44:LEN=0.01:MODS=*1000 132.835289932408% Mini: TIME=43.45:LEN=0.01:MODS=*1000 130.736392742796% Mini: TIME=43.46:LEN=0.01:MODS=*1000 128.637495553184% Mini: TIME=43.47:LEN=0.01:MODS=*1000 126.538598363571% Mini: TIME=43.48:LEN=0.01:MODS=*1000 124.439701173959% Mini: TIME=43.49:LEN=0.01:MODS=*1000 122.340803984347% Mini: TIME=43.50:LEN=0.01:MODS=*1000 120.241906794735% Mini: TIME=43.51:LEN=0.01:MODS=*1000 118.143009605122% Mini: TIME=43.52:LEN=0.01:MODS=*1000 116.04411241551% Mini: TIME=43.53:LEN=0.01:MODS=*1000 113.945215225898% Mini: TIME=43.54:LEN=0.01:MODS=*1000 111.846318036286% Mini: TIME=43.55:LEN=0.01:MODS=*1000 109.747420846673% Mini: TIME=43.56:LEN=0.01:MODS=*1000 107.648523657061% Mini: TIME=43.57:LEN=0.01:MODS=*1000 105.549626467449% Mini: TIME=43.58:LEN=0.01:MODS=*1000 103.450729277837% Mini: TIME=43.59:LEN=0.01:MODS=*1000 101.351832088224% Mini: TIME=43.60:LEN=0.01:MODS=*1000 99.2529348986122% Mini: TIME=43.61:LEN=0.01:MODS=*1000 97.154037709% Mini: TIME=43.62:LEN=0.01:MODS=*1000 95.0551405193877% Mini: TIME=43.63:LEN=0.01:MODS=*1000 92.9562433297755% Mini: TIME=43.64:LEN=0.01:MODS=*1000 90.8573461401633% Mini: TIME=43.65:LEN=0.01:MODS=*1000 88.758448950551% Mini: TIME=43.66:LEN=0.01:MODS=*1000 86.6595517609388% Mini: TIME=43.67:LEN=0.01:MODS=*1000 84.5606545713265% Mini: TIME=43.68:LEN=0.01:MODS=*1000 82.4617573817143% Mini: TIME=43.69:LEN=0.01:MODS=*1000 80.362860192102% Mini: TIME=43.70:LEN=0.01:MODS=*1000 78.2639630024898% Mini: TIME=43.71:LEN=0.01:MODS=*1000 76.1650658128775% Mini: TIME=43.72:LEN=0.01:MODS=*1000 74.0661686232653% Mini: TIME=43.72:LEN=0.01:MODS=*1000 71.9672714336531% Mini: TIME=43.73:LEN=0.01:MODS=*1000 69.8683742440408% Mini: TIME=43.74:LEN=0.01:MODS=*1000 67.7694770544286% Mini: TIME=43.75:LEN=0.01:MODS=*1000 65.6705798648163% Mini: TIME=43.76:LEN=0.01:MODS=*1000 63.5716826752041% Mini: TIME=43.77:LEN=0.01:MODS=*1000 61.4727854855918% Mini: TIME=43.78:LEN=0.01:MODS=*1000 59.3738882959796% Mini: TIME=43.79:LEN=0.01:MODS=*1000 57.2749911063673% Mini: TIME=43.80:LEN=0.01:MODS=*1000 55.1760939167551% Mini: TIME=43.81:LEN=0.01:MODS=*1000 53.0771967271428% Mini: TIME=43.82:LEN=0.01:MODS=*1000 50.9782995375306% Mini: TIME=43.83:LEN=0.01:MODS=*1000 48.8794023479184% Mini: TIME=43.84:LEN=0.01:MODS=*1000 46.7805051583061% Mini: TIME=43.85:LEN=0.01:MODS=*1000 44.6816079686939% Mini: TIME=43.86:LEN=0.01:MODS=*1000 42.5827107790816% Mini: TIME=43.87:LEN=0.01:MODS=*1000 40.4838135894694% Mini: TIME=43.88:LEN=0.01:MODS=*1000 38.3849163998571% Mini: TIME=43.89:LEN=0.01:MODS=*1000 36.2860192102449% Mini: TIME=43.90:LEN=0.01:MODS=*1000 34.1871220206326% Mini: TIME=43.91:LEN=0.01:MODS=*1000 32.0882248310204% Mini: TIME=43.92:LEN=0.01:MODS=*1000 29.9893276414081% Mini: TIME=43.93:LEN=0.01:MODS=*1000 27.8904304517959% Mini: TIME=43.94:LEN=0.01:MODS=*1000 25.7915332621837% Mini: TIME=43.95:LEN=0.01:MODS=*1000 23.6926360725714% Mini: TIME=43.96:LEN=0.01:MODS=*1000 21.5937388829592% Mini: TIME=43.97:LEN=0.01:MODS=*1000 19.4948416933469% Mini: TIME=43.98:LEN=0.01:MODS=*1000 17.3959445037347% Mini: TIME=43.99:LEN=0.01:MODS=*1000 15.2970473141224% Mini: TIME=44.00:LEN=0.01:MODS=*1000 13.1981501245102% Mini: TIME=44.01:LEN=0.01:MODS=*1000 11.0992529348979% Mini: TIME=44.02:LEN=0.01:MODS=*1000 9.00035574528566% Mini: TIME=44.03:LEN=0.01:MODS=*1000 6.90145855567341% Mini: TIME=44.04:LEN=0.01:MODS=*1000 4.80256136606117% Mini: TIME=44.05:LEN=0.01:MODS=*1000 2.70366417644892% Mini: TIME=44.06:LEN=0.01:MODS=*1000 0.604766986836669% Mini: TIME=43.83:LEN=0.01:MODS=*1000 200% Flip: TIME=43.84:LEN=0.01:MODS=*1000 200% Cross: TIME=43.85:LEN=0.01:MODS=*1000 200% Flip: TIME=43.86:LEN=0.01:MODS=*1000 200% Cross: TIME=43.87:LEN=0.01:MODS=*1000 200% Flip: TIME=43.88:LEN=0.01:MODS=*1000 200% Cross: TIME=43.89:LEN=0.01:MODS=*1000 200% Flip: TIME=43.90:LEN=0.01:MODS=*1000 200% Cross: TIME=43.91:LEN=0.01:MODS=*1000 200% Flip: TIME=43.92:LEN=0.01:MODS=*1000 200% Cross: TIME=43.93:LEN=0.01:MODS=*1000 200% Flip: TIME=43.94:LEN=0.01:MODS=*1000 200% Cross: TIME=43.95:LEN=0.01:MODS=*1000 200% Flip: TIME=43.96:LEN=0.01:MODS=*1000 200% Cross: TIME=43.96:LEN=0.01:MODS=*1000 200% Flip: TIME=43.97:LEN=0.01:MODS=*1000 200% Cross: TIME=43.98:LEN=0.01:MODS=*1000 200% Flip: TIME=43.99:LEN=0.01:MODS=*1000 200% Cross: TIME=44.00:LEN=0.01:MODS=*1000 200% Flip: TIME=44.01:LEN=0.01:MODS=*1000 200% Cross: TIME=44.02:LEN=0.01:MODS=*1000 200% Flip: TIME=44.03:LEN=0.01:MODS=*1000 200% Cross: TIME=44.04:LEN=0.01:MODS=*1000 200% Flip: TIME=44.05:LEN=0.01:MODS=*1000 200% Cross: TIME=44.05:LEN=10.00:MODS=*1000 No Cross, *1000 No Flip: TIME=44.06:LEN=0.47:MODS=*1000 100% Flip: TIME=44.30:LEN=0.23:MODS=*1000 -100% Invert: TIME=44.53:LEN=0.20:MODS=*1000 No Flip, *1000 No Invert: TIME=44.53:LEN=0.01:MODS=*1000 25% Alternate: TIME=44.54:LEN=0.01:MODS=*1000 -50% Flip: TIME=44.55:LEN=0.01:MODS=*1000 25% Alternate: TIME=44.56:LEN=0.01:MODS=*1000 -50% Flip: TIME=44.57:LEN=0.01:MODS=*1000 25% Alternate: TIME=44.58:LEN=0.01:MODS=*1000 -50% Flip: TIME=44.59:LEN=0.01:MODS=*1000 25% Alternate: TIME=44.60:LEN=0.01:MODS=*1000 -50% Flip: TIME=44.61:LEN=0.01:MODS=*1000 25% Alternate: TIME=44.62:LEN=0.01:MODS=*1000 -50% Flip: TIME=44.63:LEN=0.01:MODS=*1000 25% Alternate: TIME=44.64:LEN=0.01:MODS=*1000 -50% Flip: TIME=44.65:LEN=0.01:MODS=*1000 25% Alternate: TIME=44.66:LEN=0.01:MODS=*1000 -50% Flip: TIME=44.67:LEN=0.01:MODS=*1000 25% Alternate: TIME=44.68:LEN=0.01:MODS=*1000 -50% Flip: TIME=44.69:LEN=0.01:MODS=*1000 25% Alternate: TIME=44.70:LEN=0.01:MODS=*1000 -50% Flip: TIME=44.71:LEN=0.01:MODS=*1000 25% Alternate: TIME=44.72:LEN=0.01:MODS=*1000 -50% Flip: TIME=44.73:LEN=0.01:MODS=*1000 25% Alternate: TIME=44.74:LEN=0.01:MODS=*1000 -50% Flip: TIME=44.75:LEN=0.01:MODS=*1000 25% Alternate: TIME=44.76:LEN=0.01:MODS=*1000 -50% Flip: TIME=44.77:LEN=0.01:MODS=*1000 25% Alternate: TIME=44.78:LEN=0.01:MODS=*1000 -50% Flip: TIME=44.79:LEN=0.01:MODS=*1000 25% Alternate: TIME=44.79:LEN=0.01:MODS=*1000 -50% Flip: TIME=44.80:LEN=0.01:MODS=*1000 25% Alternate: TIME=44.81:LEN=0.01:MODS=*1000 -50% Flip: TIME=44.82:LEN=0.01:MODS=*1000 25% Alternate: TIME=44.83:LEN=0.01:MODS=*1000 -50% Flip: TIME=44.84:LEN=0.01:MODS=*1000 25% Alternate: TIME=44.85:LEN=0.01:MODS=*1000 -50% Flip: TIME=44.86:LEN=0.01:MODS=*1000 25% Alternate: TIME=44.87:LEN=0.01:MODS=*1000 -50% Flip: TIME=44.88:LEN=0.01:MODS=*1000 25% Alternate: TIME=44.89:LEN=0.01:MODS=*1000 -50% Flip: TIME=44.90:LEN=0.01:MODS=*1000 25% Alternate: TIME=44.91:LEN=0.01:MODS=*1000 -50% Flip: TIME=44.92:LEN=0.01:MODS=*1000 25% Alternate: TIME=44.93:LEN=0.01:MODS=*1000 -50% Flip: TIME=44.94:LEN=0.01:MODS=*1000 25% Alternate: TIME=44.95:LEN=0.01:MODS=*1000 -50% Flip: TIME=44.96:LEN=0.01:MODS=*1000 25% Alternate: TIME=44.97:LEN=0.01:MODS=*1000 -50% Flip: TIME=44.98:LEN=0.01:MODS=*1000 25% Alternate: TIME=44.99:LEN=0.01:MODS=*1000 -50% Flip: TIME=45.00:LEN=0.01:MODS=*1000 25% Alternate: TIME=45.00:LEN=10.00:MODS=*1000 No Alternate, *1000 No Flip: TIME=45.47:LEN=0.23:MODS=*1000, *1000 6.25% Flip: TIME=45.70:LEN=0.23:MODS=*1000, *1000 12.5% Flip: TIME=45.94:LEN=0.71:MODS=*1000, *1000 18.75% Flip: TIME=46.06:LEN=0.12:MODS=*1000 25.00% Flip: TIME=46.17:LEN=0.12:MODS=*1000 31.25% Flip: TIME=46.29:LEN=0.12:MODS=*1000 37.25% Flip: TIME=46.41:LEN=0.23:MODS=*1000 43.75% Flip: TIME=46.64:LEN=0.23:MODS=*1000 50.00% Flip: TIME=46.88:LEN=0.01:MODS=*1000 50% Flip: TIME=46.88:LEN=0.01:MODS=*1000 49.4786108146567% Flip: TIME=46.89:LEN=0.01:MODS=*1000 48.9572216293134% Flip: TIME=46.90:LEN=0.01:MODS=*1000 48.4358324439701% Flip: TIME=46.91:LEN=0.01:MODS=*1000 47.9144432586268% Flip: TIME=46.92:LEN=0.01:MODS=*1000 47.3930540732835% Flip: TIME=46.93:LEN=0.01:MODS=*1000 46.8716648879402% Flip: TIME=46.94:LEN=0.01:MODS=*1000 46.3502757025969% Flip: TIME=46.95:LEN=0.01:MODS=*1000 45.8288865172536% Flip: TIME=46.96:LEN=0.01:MODS=*1000 45.3074973319103% Flip: TIME=46.97:LEN=0.01:MODS=*1000 44.786108146567% Flip: TIME=46.98:LEN=0.01:MODS=*1000 44.2647189612237% Flip: TIME=46.99:LEN=0.01:MODS=*1000 43.7433297758805% Flip: TIME=47.00:LEN=0.01:MODS=*1000 43.2219405905372% Flip: TIME=47.01:LEN=0.01:MODS=*1000 42.7005514051939% Flip: TIME=47.02:LEN=0.01:MODS=*1000 42.1791622198506% Flip: TIME=47.03:LEN=0.01:MODS=*1000 41.6577730345073% Flip: TIME=47.04:LEN=0.01:MODS=*1000 41.136383849164% Flip: TIME=47.05:LEN=0.01:MODS=*1000 40.6149946638207% Flip: TIME=47.06:LEN=0.01:MODS=*1000 40.0936054784774% Flip: TIME=47.07:LEN=0.01:MODS=*1000 39.5722162931341% Flip: TIME=47.08:LEN=0.01:MODS=*1000 39.0508271077908% Flip: TIME=47.09:LEN=0.01:MODS=*1000 38.5294379224475% Flip: TIME=47.10:LEN=0.01:MODS=*1000 38.0080487371042% Flip: TIME=47.11:LEN=0.01:MODS=*1000 37.4866595517609% Flip: TIME=47.12:LEN=0.01:MODS=*1000 36.9652703664176% Flip: TIME=47.13:LEN=0.01:MODS=*1000 36.4438811810743% Flip: TIME=47.14:LEN=0.01:MODS=*1000 35.922491995731% Flip: TIME=47.15:LEN=0.01:MODS=*1000 35.4011028103877% Flip: TIME=47.16:LEN=0.01:MODS=*1000 34.8797136250444% Flip: TIME=47.17:LEN=0.01:MODS=*1000 34.3583244397011% Flip: TIME=47.18:LEN=0.01:MODS=*1000 33.8369352543578% Flip: TIME=47.19:LEN=0.01:MODS=*1000 33.3155460690145% Flip: TIME=47.20:LEN=0.01:MODS=*1000 32.7941568836712% Flip: TIME=47.21:LEN=0.01:MODS=*1000 32.272767698328% Flip: TIME=47.22:LEN=0.01:MODS=*1000 31.7513785129847% Flip: TIME=47.23:LEN=0.01:MODS=*1000 31.2299893276414% Flip: TIME=47.24:LEN=0.01:MODS=*1000 30.7086001422981% Flip: TIME=47.25:LEN=0.01:MODS=*1000 30.1872109569548% Flip: TIME=47.26:LEN=0.01:MODS=*1000 29.6658217716115% Flip: TIME=47.27:LEN=0.01:MODS=*1000 29.1444325862682% Flip: TIME=47.28:LEN=0.01:MODS=*1000 28.6230434009249% Flip: TIME=47.29:LEN=0.01:MODS=*1000 28.1016542155816% Flip: TIME=47.30:LEN=0.01:MODS=*1000 27.5802650302383% Flip: TIME=47.30:LEN=0.01:MODS=*1000 27.058875844895% Flip: TIME=47.31:LEN=0.01:MODS=*1000 26.5374866595517% Flip: TIME=47.32:LEN=0.01:MODS=*1000 26.0160974742084% Flip: TIME=47.33:LEN=0.01:MODS=*1000 25.4947082888651% Flip: TIME=47.34:LEN=0.01:MODS=*1000 24.9733191035218% Flip: TIME=47.35:LEN=0.01:MODS=*1000 24.4519299181785% Flip: TIME=47.36:LEN=0.01:MODS=*1000 23.9305407328352% Flip: TIME=47.37:LEN=0.01:MODS=*1000 23.4091515474919% Flip: TIME=47.38:LEN=0.01:MODS=*1000 22.8877623621486% Flip: TIME=47.39:LEN=0.01:MODS=*1000 22.3663731768053% Flip: TIME=47.40:LEN=0.01:MODS=*1000 21.844983991462% Flip: TIME=47.41:LEN=0.01:MODS=*1000 21.3235948061187% Flip: TIME=47.42:LEN=0.01:MODS=*1000 20.8022056207755% Flip: TIME=47.43:LEN=0.01:MODS=*1000 20.2808164354322% Flip: TIME=47.44:LEN=0.01:MODS=*1000 19.7594272500889% Flip: TIME=47.45:LEN=0.01:MODS=*1000 19.2380380647456% Flip: TIME=47.46:LEN=0.01:MODS=*1000 18.7166488794023% Flip: TIME=47.47:LEN=0.01:MODS=*1000 18.195259694059% Flip: TIME=47.48:LEN=0.01:MODS=*1000 17.6738705087157% Flip: TIME=47.49:LEN=0.01:MODS=*1000 17.1524813233724% Flip: TIME=47.50:LEN=0.01:MODS=*1000 16.6310921380291% Flip: TIME=47.51:LEN=0.01:MODS=*1000 16.1097029526858% Flip: TIME=47.52:LEN=0.01:MODS=*1000 15.5883137673425% Flip: TIME=47.53:LEN=0.01:MODS=*1000 15.0669245819992% Flip: TIME=47.54:LEN=0.01:MODS=*1000 14.5455353966559% Flip: TIME=47.55:LEN=0.01:MODS=*1000 14.0241462113126% Flip: TIME=47.56:LEN=0.01:MODS=*1000 13.5027570259693% Flip: TIME=47.57:LEN=0.01:MODS=*1000 12.981367840626% Flip: TIME=47.58:LEN=0.01:MODS=*1000 12.4599786552827% Flip: TIME=47.59:LEN=0.01:MODS=*1000 11.9385894699394% Flip: TIME=47.60:LEN=0.01:MODS=*1000 11.4172002845961% Flip: TIME=47.61:LEN=0.01:MODS=*1000 10.8958110992528% Flip: TIME=47.62:LEN=0.01:MODS=*1000 10.3744219139095% Flip: TIME=47.63:LEN=0.01:MODS=*1000 9.85303272856623% Flip: TIME=47.64:LEN=0.01:MODS=*1000 9.33164354322293% Flip: TIME=47.65:LEN=0.01:MODS=*1000 8.81025435787963% Flip: TIME=47.66:LEN=0.01:MODS=*1000 8.28886517253633% Flip: TIME=47.67:LEN=0.01:MODS=*1000 7.76747598719304% Flip: TIME=47.68:LEN=0.01:MODS=*1000 7.24608680184974% Flip: TIME=47.69:LEN=0.01:MODS=*1000 6.72469761650644% Flip: TIME=47.70:LEN=0.01:MODS=*1000 6.20330843116315% Flip: TIME=47.71:LEN=0.01:MODS=*1000 5.68191924581985% Flip: TIME=47.72:LEN=0.01:MODS=*1000 5.16053006047655% Flip: TIME=47.73:LEN=0.01:MODS=*1000 4.63914087513325% Flip: TIME=47.73:LEN=0.01:MODS=*1000 4.11775168978996% Flip: TIME=47.74:LEN=0.01:MODS=*1000 3.59636250444666% Flip: TIME=47.75:LEN=0.01:MODS=*1000 3.07497331910336% Flip: TIME=47.76:LEN=0.01:MODS=*1000 2.55358413376007% Flip: TIME=47.77:LEN=0.01:MODS=*1000 2.03219494841677% Flip: TIME=47.78:LEN=0.01:MODS=*1000 1.51080576307347% Flip: TIME=47.79:LEN=0.01:MODS=*1000 0.989416577730176% Flip: TIME=47.80:LEN=0.01:MODS=*1000 0.468027392386879% Flip: TIME=47.81:LEN=0.47:MODS=*1000 200% Drunk, *1000 0.5x, *1000 No Distant: TIME=48.28:LEN=0.47:MODS=*1000 -200% Drunk, *1000 0.5x: TIME=48.75:LEN=0.02:MODS=*1000 No Drunk, *1000 No Dizzy: TIME=49.22:LEN=0.01:MODS=*1000 0% Mini: TIME=49.23:LEN=0.01:MODS=*1000 1.39876718824088% Mini: TIME=49.24:LEN=0.01:MODS=*1000 2.79753437648175% Mini: TIME=49.25:LEN=0.01:MODS=*1000 4.19630156472263% Mini: TIME=49.26:LEN=0.01:MODS=*1000 5.59506875296351% Mini: TIME=49.27:LEN=0.01:MODS=*1000 6.99383594120439% Mini: TIME=49.28:LEN=0.01:MODS=*1000 8.39260312944526% Mini: TIME=49.29:LEN=0.01:MODS=*1000 9.79137031768614% Mini: TIME=49.30:LEN=0.01:MODS=*1000 11.190137505927% Mini: TIME=49.31:LEN=0.01:MODS=*1000 12.5889046941679% Mini: TIME=49.32:LEN=0.01:MODS=*1000 13.9876718824088% Mini: TIME=49.33:LEN=0.01:MODS=*1000 15.3864390706497% Mini: TIME=49.34:LEN=0.01:MODS=*1000 16.7852062588905% Mini: TIME=49.35:LEN=0.01:MODS=*1000 18.1839734471314% Mini: TIME=49.36:LEN=0.01:MODS=*1000 19.5827406353723% Mini: TIME=49.37:LEN=0.01:MODS=*1000 20.9815078236132% Mini: TIME=49.38:LEN=0.01:MODS=*1000 22.380275011854% Mini: TIME=49.39:LEN=0.01:MODS=*1000 23.7790422000949% Mini: TIME=49.40:LEN=0.01:MODS=*1000 25.1778093883358% Mini: TIME=49.41:LEN=0.01:MODS=*1000 26.5765765765767% Mini: TIME=49.42:LEN=0.01:MODS=*1000 27.9753437648176% Mini: TIME=49.43:LEN=0.01:MODS=*1000 29.3741109530584% Mini: TIME=49.44:LEN=0.01:MODS=*1000 30.7728781412993% Mini: TIME=49.45:LEN=0.01:MODS=*1000 32.1716453295402% Mini: TIME=49.46:LEN=0.01:MODS=*1000 33.5704125177811% Mini: TIME=49.46:LEN=0.01:MODS=*1000 34.9691797060219% Mini: TIME=49.47:LEN=0.01:MODS=*1000 36.3679468942628% Mini: TIME=49.48:LEN=0.01:MODS=*1000 37.7667140825037% Mini: TIME=49.49:LEN=0.01:MODS=*1000 39.1654812707446% Mini: TIME=49.50:LEN=0.01:MODS=*1000 40.5642484589854% Mini: TIME=49.51:LEN=0.01:MODS=*1000 41.9630156472263% Mini: TIME=49.52:LEN=0.01:MODS=*1000 43.3617828354672% Mini: TIME=49.53:LEN=0.01:MODS=*1000 44.7605500237081% Mini: TIME=49.54:LEN=0.01:MODS=*1000 46.1593172119489% Mini: TIME=49.55:LEN=0.01:MODS=*1000 47.5580844001898% Mini: TIME=49.56:LEN=0.01:MODS=*1000 48.9568515884307% Mini: TIME=49.57:LEN=0.01:MODS=*1000 50.3556187766716% Mini: TIME=49.58:LEN=0.01:MODS=*1000 51.7543859649124% Mini: TIME=49.59:LEN=0.01:MODS=*1000 53.1531531531533% Mini: TIME=49.60:LEN=0.01:MODS=*1000 54.5519203413942% Mini: TIME=49.61:LEN=0.01:MODS=*1000 55.9506875296351% Mini: TIME=49.62:LEN=0.01:MODS=*1000 57.3494547178759% Mini: TIME=49.63:LEN=0.01:MODS=*1000 58.7482219061168% Mini: TIME=49.64:LEN=0.01:MODS=*1000 60.1469890943577% Mini: TIME=49.65:LEN=0.01:MODS=*1000 61.5457562825986% Mini: TIME=49.66:LEN=0.01:MODS=*1000 62.9445234708394% Mini: TIME=49.67:LEN=0.01:MODS=*1000 64.3432906590803% Mini: TIME=49.68:LEN=0.01:MODS=*1000 65.7420578473212% Mini: TIME=49.69:LEN=0.01:MODS=*1000 67.1408250355621% Mini: TIME=49.70:LEN=0.01:MODS=*1000 68.539592223803% Mini: TIME=49.71:LEN=0.01:MODS=*1000 69.9383594120438% Mini: TIME=49.72:LEN=0.01:MODS=*1000 71.3371266002847% Mini: TIME=49.73:LEN=0.01:MODS=*1000 72.7358937885256% Mini: TIME=49.74:LEN=0.01:MODS=*1000 74.1346609767665% Mini: TIME=49.75:LEN=0.01:MODS=*1000 75.5334281650074% Mini: TIME=49.76:LEN=0.01:MODS=*1000 76.9321953532482% Mini: TIME=49.77:LEN=0.01:MODS=*1000 78.3309625414891% Mini: TIME=49.78:LEN=0.01:MODS=*1000 79.72972972973% Mini: TIME=49.79:LEN=0.01:MODS=*1000 81.1284969179709% Mini: TIME=49.80:LEN=0.01:MODS=*1000 82.5272641062118% Mini: TIME=49.81:LEN=0.01:MODS=*1000 83.9260312944527% Mini: TIME=49.82:LEN=0.01:MODS=*1000 85.3247984826935% Mini: TIME=49.83:LEN=0.01:MODS=*1000 86.7235656709344% Mini: TIME=49.84:LEN=0.01:MODS=*1000 88.1223328591753% Mini: TIME=49.85:LEN=0.01:MODS=*1000 89.5211000474162% Mini: TIME=49.86:LEN=0.01:MODS=*1000 90.9198672356571% Mini: TIME=49.87:LEN=0.01:MODS=*1000 92.3186344238979% Mini: TIME=49.88:LEN=0.01:MODS=*1000 93.7174016121388% Mini: TIME=49.89:LEN=0.01:MODS=*1000 95.1161688003797% Mini: TIME=49.90:LEN=0.01:MODS=*1000 96.5149359886206% Mini: TIME=49.91:LEN=0.01:MODS=*1000 97.9137031768615% Mini: TIME=49.92:LEN=0.01:MODS=*1000 99.3124703651024% Mini: TIME=49.93:LEN=0.01:MODS=*1000 100.711237553343% Mini: TIME=49.94:LEN=0.01:MODS=*1000 102.110004741584% Mini: TIME=49.95:LEN=0.01:MODS=*1000 103.508771929825% Mini: TIME=49.96:LEN=0.01:MODS=*1000 104.907539118066% Mini: TIME=49.97:LEN=0.01:MODS=*1000 106.306306306307% Mini: TIME=49.98:LEN=0.01:MODS=*1000 107.705073494548% Mini: TIME=49.99:LEN=0.01:MODS=*1000 109.103840682789% Mini: TIME=50.00:LEN=0.01:MODS=*1000 110.502607871029% Mini: TIME=50.01:LEN=0.01:MODS=*1000 111.90137505927% Mini: TIME=50.02:LEN=0.01:MODS=*1000 113.300142247511% Mini: TIME=50.03:LEN=0.01:MODS=*1000 114.698909435752% Mini: TIME=50.04:LEN=0.01:MODS=*1000 116.097676623993% Mini: TIME=50.04:LEN=0.01:MODS=*1000 117.496443812234% Mini: TIME=50.05:LEN=0.01:MODS=*1000 118.895211000475% Mini: TIME=50.06:LEN=0.01:MODS=*1000 120.293978188716% Mini: TIME=50.07:LEN=0.01:MODS=*1000 121.692745376956% Mini: TIME=50.08:LEN=0.01:MODS=*1000 123.091512565197% Mini: TIME=50.09:LEN=0.01:MODS=*1000 124.490279753438% Mini: TIME=50.10:LEN=0.01:MODS=*1000 125.889046941679% Mini: TIME=50.11:LEN=0.01:MODS=*1000 127.28781412992% Mini: TIME=50.12:LEN=0.01:MODS=*1000 128.686581318161% Mini: TIME=50.13:LEN=0.01:MODS=*1000 130.085348506402% Mini: TIME=50.14:LEN=0.01:MODS=*1000 131.484115694643% Mini: TIME=50.15:LEN=0.01:MODS=*1000 132.882882882883% Mini: TIME=50.16:LEN=0.01:MODS=*1000 134.281650071124% Mini: TIME=50.17:LEN=0.01:MODS=*1000 135.680417259365% Mini: TIME=50.18:LEN=0.01:MODS=*1000 137.079184447606% Mini: TIME=50.19:LEN=0.01:MODS=*1000 138.477951635847% Mini: TIME=50.20:LEN=0.01:MODS=*1000 139.876718824088% Mini: TIME=50.21:LEN=0.01:MODS=*1000 141.275486012329% Mini: TIME=50.22:LEN=0.01:MODS=*1000 142.67425320057% Mini: TIME=50.23:LEN=0.01:MODS=*1000 144.07302038881% Mini: TIME=50.24:LEN=0.01:MODS=*1000 145.471787577051% Mini: TIME=50.25:LEN=0.01:MODS=*1000 146.870554765292% Mini: TIME=50.26:LEN=0.01:MODS=*1000 148.269321953533% Mini: TIME=50.27:LEN=0.01:MODS=*1000 149.668089141774% Mini: TIME=50.28:LEN=0.01:MODS=*1000 151.066856330015% Mini: TIME=50.29:LEN=0.01:MODS=*1000 152.465623518256% Mini: TIME=50.30:LEN=0.01:MODS=*1000 153.864390706496% Mini: TIME=50.31:LEN=0.01:MODS=*1000 155.263157894737% Mini: TIME=50.32:LEN=0.01:MODS=*1000 156.661925082978% Mini: TIME=50.33:LEN=0.01:MODS=*1000 158.060692271219% Mini: TIME=50.34:LEN=0.01:MODS=*1000 159.45945945946% Mini: TIME=50.35:LEN=0.01:MODS=*1000 160.858226647701% Mini: TIME=50.36:LEN=0.01:MODS=*1000 162.256993835942% Mini: TIME=50.37:LEN=0.01:MODS=*1000 163.655761024183% Mini: TIME=50.38:LEN=0.01:MODS=*1000 165.054528212423% Mini: TIME=50.39:LEN=0.01:MODS=*1000 166.453295400664% Mini: TIME=50.40:LEN=0.01:MODS=*1000 167.852062588905% Mini: TIME=50.41:LEN=0.01:MODS=*1000 169.250829777146% Mini: TIME=50.42:LEN=0.01:MODS=*1000 170.649596965387% Mini: TIME=50.43:LEN=0.01:MODS=*1000 172.048364153628% Mini: TIME=50.44:LEN=0.01:MODS=*1000 173.447131341869% Mini: TIME=50.45:LEN=0.01:MODS=*1000 174.84589853011% Mini: TIME=50.46:LEN=0.01:MODS=*1000 176.24466571835% Mini: TIME=50.47:LEN=0.01:MODS=*1000 177.643432906591% Mini: TIME=50.48:LEN=0.01:MODS=*1000 179.042200094832% Mini: TIME=50.49:LEN=0.01:MODS=*1000 180.440967283073% Mini: TIME=50.50:LEN=0.01:MODS=*1000 181.839734471314% Mini: TIME=50.51:LEN=0.01:MODS=*1000 183.238501659555% Mini: TIME=50.52:LEN=0.01:MODS=*1000 184.637268847796% Mini: TIME=50.53:LEN=0.01:MODS=*1000 186.036036036036% Mini: TIME=50.54:LEN=0.01:MODS=*1000 187.434803224277% Mini: TIME=50.55:LEN=0.01:MODS=*1000 188.833570412518% Mini: TIME=50.56:LEN=0.01:MODS=*1000 190.232337600759% Mini: TIME=50.57:LEN=0.01:MODS=*1000 191.631104789% Mini: TIME=50.58:LEN=0.01:MODS=*1000 193.029871977241% Mini: TIME=50.59:LEN=0.01:MODS=*1000 194.428639165482% Mini: TIME=50.60:LEN=0.01:MODS=*1000 195.827406353723% Mini: TIME=50.61:LEN=0.01:MODS=*1000 197.226173541963% Mini: TIME=50.62:LEN=0.01:MODS=*1000 198.624940730204% Mini: TIME=50.62:LEN=0.01:MODS=*1000 200% Mini: TIME=50.63:LEN=0.01:MODS=*1000 197.901102810388% Mini: TIME=50.64:LEN=0.01:MODS=*1000 195.802205620776% Mini: TIME=50.65:LEN=0.01:MODS=*1000 193.703308431163% Mini: TIME=50.66:LEN=0.01:MODS=*1000 191.604411241551% Mini: TIME=50.67:LEN=0.01:MODS=*1000 189.505514051939% Mini: TIME=50.68:LEN=0.01:MODS=*1000 187.406616862327% Mini: TIME=50.69:LEN=0.01:MODS=*1000 185.307719672714% Mini: TIME=50.70:LEN=0.01:MODS=*1000 183.208822483102% Mini: TIME=50.71:LEN=0.01:MODS=*1000 181.10992529349% Mini: TIME=50.72:LEN=0.01:MODS=*1000 179.011028103878% Mini: TIME=50.73:LEN=0.01:MODS=*1000 176.912130914265% Mini: TIME=50.74:LEN=0.01:MODS=*1000 174.813233724653% Mini: TIME=50.75:LEN=0.01:MODS=*1000 172.714336535041% Mini: TIME=50.76:LEN=0.01:MODS=*1000 170.615439345429% Mini: TIME=50.77:LEN=0.01:MODS=*1000 168.516542155816% Mini: TIME=50.78:LEN=0.01:MODS=*1000 166.417644966204% Mini: TIME=50.79:LEN=0.01:MODS=*1000 164.318747776592% Mini: TIME=50.80:LEN=0.01:MODS=*1000 162.21985058698% Mini: TIME=50.81:LEN=0.01:MODS=*1000 160.120953397367% Mini: TIME=50.82:LEN=0.01:MODS=*1000 158.022056207755% Mini: TIME=50.83:LEN=0.01:MODS=*1000 155.923159018143% Mini: TIME=50.84:LEN=0.01:MODS=*1000 153.824261828531% Mini: TIME=50.85:LEN=0.01:MODS=*1000 151.725364638918% Mini: TIME=50.86:LEN=0.01:MODS=*1000 149.626467449306% Mini: TIME=50.87:LEN=0.01:MODS=*1000 147.527570259694% Mini: TIME=50.88:LEN=0.01:MODS=*1000 145.428673070082% Mini: TIME=50.89:LEN=0.01:MODS=*1000 143.329775880469% Mini: TIME=50.90:LEN=0.01:MODS=*1000 141.230878690857% Mini: TIME=50.91:LEN=0.01:MODS=*1000 139.131981501245% Mini: TIME=50.92:LEN=0.01:MODS=*1000 137.033084311633% Mini: TIME=50.93:LEN=0.01:MODS=*1000 134.93418712202% Mini: TIME=50.94:LEN=0.01:MODS=*1000 132.835289932408% Mini: TIME=50.95:LEN=0.01:MODS=*1000 130.736392742796% Mini: TIME=50.96:LEN=0.01:MODS=*1000 128.637495553184% Mini: TIME=50.97:LEN=0.01:MODS=*1000 126.538598363571% Mini: TIME=50.98:LEN=0.01:MODS=*1000 124.439701173959% Mini: TIME=50.99:LEN=0.01:MODS=*1000 122.340803984347% Mini: TIME=51.00:LEN=0.01:MODS=*1000 120.241906794735% Mini: TIME=51.01:LEN=0.01:MODS=*1000 118.143009605122% Mini: TIME=51.02:LEN=0.01:MODS=*1000 116.04411241551% Mini: TIME=51.03:LEN=0.01:MODS=*1000 113.945215225898% Mini: TIME=51.04:LEN=0.01:MODS=*1000 111.846318036286% Mini: TIME=51.05:LEN=0.01:MODS=*1000 109.747420846673% Mini: TIME=51.06:LEN=0.01:MODS=*1000 107.648523657061% Mini: TIME=51.07:LEN=0.01:MODS=*1000 105.549626467449% Mini: TIME=51.08:LEN=0.01:MODS=*1000 103.450729277837% Mini: TIME=51.09:LEN=0.01:MODS=*1000 101.351832088224% Mini: TIME=51.10:LEN=0.01:MODS=*1000 99.2529348986122% Mini: TIME=51.11:LEN=0.01:MODS=*1000 97.154037709% Mini: TIME=51.12:LEN=0.01:MODS=*1000 95.0551405193877% Mini: TIME=51.13:LEN=0.01:MODS=*1000 92.9562433297755% Mini: TIME=51.14:LEN=0.01:MODS=*1000 90.8573461401633% Mini: TIME=51.15:LEN=0.01:MODS=*1000 88.758448950551% Mini: TIME=51.16:LEN=0.01:MODS=*1000 86.6595517609388% Mini: TIME=51.17:LEN=0.01:MODS=*1000 84.5606545713265% Mini: TIME=51.18:LEN=0.01:MODS=*1000 82.4617573817143% Mini: TIME=51.19:LEN=0.01:MODS=*1000 80.362860192102% Mini: TIME=51.20:LEN=0.01:MODS=*1000 78.2639630024898% Mini: TIME=51.21:LEN=0.01:MODS=*1000 76.1650658128775% Mini: TIME=51.22:LEN=0.01:MODS=*1000 74.0661686232653% Mini: TIME=51.22:LEN=0.01:MODS=*1000 71.9672714336531% Mini: TIME=51.23:LEN=0.01:MODS=*1000 69.8683742440408% Mini: TIME=51.24:LEN=0.01:MODS=*1000 67.7694770544286% Mini: TIME=51.25:LEN=0.01:MODS=*1000 65.6705798648163% Mini: TIME=51.26:LEN=0.01:MODS=*1000 63.5716826752041% Mini: TIME=51.27:LEN=0.01:MODS=*1000 61.4727854855918% Mini: TIME=51.28:LEN=0.01:MODS=*1000 59.3738882959796% Mini: TIME=51.29:LEN=0.01:MODS=*1000 57.2749911063673% Mini: TIME=51.30:LEN=0.01:MODS=*1000 55.1760939167551% Mini: TIME=51.31:LEN=0.01:MODS=*1000 53.0771967271428% Mini: TIME=51.32:LEN=0.01:MODS=*1000 50.9782995375306% Mini: TIME=51.33:LEN=0.01:MODS=*1000 48.8794023479184% Mini: TIME=51.34:LEN=0.01:MODS=*1000 46.7805051583061% Mini: TIME=51.35:LEN=0.01:MODS=*1000 44.6816079686939% Mini: TIME=51.36:LEN=0.01:MODS=*1000 42.5827107790816% Mini: TIME=51.37:LEN=0.01:MODS=*1000 40.4838135894694% Mini: TIME=51.38:LEN=0.01:MODS=*1000 38.3849163998571% Mini: TIME=51.39:LEN=0.01:MODS=*1000 36.2860192102449% Mini: TIME=51.40:LEN=0.01:MODS=*1000 34.1871220206326% Mini: TIME=51.41:LEN=0.01:MODS=*1000 32.0882248310204% Mini: TIME=51.42:LEN=0.01:MODS=*1000 29.9893276414081% Mini: TIME=51.43:LEN=0.01:MODS=*1000 27.8904304517959% Mini: TIME=51.44:LEN=0.01:MODS=*1000 25.7915332621837% Mini: TIME=51.45:LEN=0.01:MODS=*1000 23.6926360725714% Mini: TIME=51.46:LEN=0.01:MODS=*1000 21.5937388829592% Mini: TIME=51.47:LEN=0.01:MODS=*1000 19.4948416933469% Mini: TIME=51.48:LEN=0.01:MODS=*1000 17.3959445037347% Mini: TIME=51.49:LEN=0.01:MODS=*1000 15.2970473141224% Mini: TIME=51.50:LEN=0.01:MODS=*1000 13.1981501245102% Mini: TIME=51.51:LEN=0.01:MODS=*1000 11.0992529348979% Mini: TIME=51.52:LEN=0.01:MODS=*1000 9.00035574528566% Mini: TIME=51.53:LEN=0.01:MODS=*1000 6.90145855567341% Mini: TIME=51.54:LEN=0.01:MODS=*1000 4.80256136606117% Mini: TIME=51.55:LEN=0.01:MODS=*1000 2.70366417644892% Mini: TIME=51.56:LEN=0.01:MODS=*1000 0% Mini: TIME=51.09:LEN=0.47:MODS=*1000 100% Tipsy: TIME=52.27:LEN=0.23:MODS=*1000 1000% Dizzy: TIME=52.50:LEN=0.23:MODS=*1000 No Dizzy, *1000 No Tipsy: TIME=52.97:LEN=0.12:MODS=*1000 10% Flip: TIME=53.09:LEN=0.12:MODS=*1000 14.994708994709% Flip: TIME=53.20:LEN=0.12:MODS=*1000 19.989417989418% Flip: TIME=53.32:LEN=0.12:MODS=*1000 24.984126984127% Flip: TIME=53.44:LEN=0.12:MODS=*1000 29.978835978836% Flip: TIME=53.56:LEN=0.12:MODS=*1000 34.973544973545% Flip: TIME=53.67:LEN=0.12:MODS=*1000 39.968253968254% Flip: TIME=53.79:LEN=0.12:MODS=*1000 44.9629629629631% Flip: TIME=53.91:LEN=2.36:MODS=*1000 49.9576719576721% Flip: TIME=54.61:LEN=10.00:MODS=*1000 12.5% Flip, *1000 -37.5% Invert: TIME=55.55:LEN=10.00:MODS=*1000 No Flip, *1000 No Invert: TIME=56.25:LEN=180.00:MODS=*1000 No Beat: TIME=56.25:LEN=30.94:MODS=*1000 100% Reverse: TIME=56.25:LEN=30.00:MODS=*1000 1x: TIME=56.25:LEN=22.50:MODS=*1000 100% Cover: TIME=56.25:LEN=15.12:MODS=*1000 100% Dark: TIME=56.25:LEN=1.42:MODS=*1000 100% Stealth: TIME=56.25:LEN=0.47:MODS=*1000 -1000% Flip: TIME=56.25:LEN=0.02:MODS=*1000 100% Blind: TIME=56.25:LEN=30.72:MODS=*1000 No Flip: TIME=56.72:LEN=0.01:MODS=*1000 100% Stealth: TIME=56.73:LEN=0.01:MODS=*1000 99.7376378512985% Stealth: TIME=56.74:LEN=0.01:MODS=*1000 99.4752757025969% Stealth: TIME=56.75:LEN=0.01:MODS=*1000 99.2129135538954% Stealth: TIME=56.76:LEN=0.01:MODS=*1000 98.9505514051939% Stealth: TIME=56.77:LEN=0.01:MODS=*1000 98.6881892564924% Stealth: TIME=56.78:LEN=0.01:MODS=*1000 98.4258271077908% Stealth: TIME=56.79:LEN=0.01:MODS=*1000 98.1634649590893% Stealth: TIME=56.80:LEN=0.01:MODS=*1000 97.9011028103878% Stealth: TIME=56.81:LEN=0.01:MODS=*1000 97.6387406616863% Stealth: TIME=56.82:LEN=0.01:MODS=*1000 97.3763785129847% Stealth: TIME=56.83:LEN=0.01:MODS=*1000 97.1140163642832% Stealth: TIME=56.84:LEN=0.01:MODS=*1000 96.8516542155817% Stealth: TIME=56.85:LEN=0.01:MODS=*1000 96.5892920668801% Stealth: TIME=56.86:LEN=0.01:MODS=*1000 96.3269299181786% Stealth: TIME=56.87:LEN=0.01:MODS=*1000 96.0645677694771% Stealth: TIME=56.88:LEN=0.01:MODS=*1000 95.8022056207756% Stealth: TIME=56.89:LEN=0.01:MODS=*1000 95.539843472074% Stealth: TIME=56.90:LEN=0.01:MODS=*1000 95.2774813233725% Stealth: TIME=56.91:LEN=0.01:MODS=*1000 95.015119174671% Stealth: TIME=56.92:LEN=0.01:MODS=*1000 94.7527570259695% Stealth: TIME=56.93:LEN=0.01:MODS=*1000 94.4903948772679% Stealth: TIME=56.94:LEN=0.01:MODS=*1000 94.2280327285664% Stealth: TIME=56.95:LEN=0.01:MODS=*1000 93.9656705798649% Stealth: TIME=56.96:LEN=0.01:MODS=*1000 93.7033084311634% Stealth: TIME=56.96:LEN=0.01:MODS=*1000 93.4409462824618% Stealth: TIME=56.97:LEN=0.01:MODS=*1000 93.1785841337603% Stealth: TIME=56.98:LEN=0.01:MODS=*1000 92.9162219850588% Stealth: TIME=56.99:LEN=0.01:MODS=*1000 92.6538598363572% Stealth: TIME=57.00:LEN=0.01:MODS=*1000 92.3914976876557% Stealth: TIME=57.01:LEN=0.01:MODS=*1000 92.1291355389542% Stealth: TIME=57.02:LEN=0.01:MODS=*1000 91.8667733902527% Stealth: TIME=57.03:LEN=0.01:MODS=*1000 91.6044112415511% Stealth: TIME=57.04:LEN=0.01:MODS=*1000 91.3420490928496% Stealth: TIME=57.05:LEN=0.01:MODS=*1000 91.0796869441481% Stealth: TIME=57.06:LEN=0.01:MODS=*1000 90.8173247954466% Stealth: TIME=57.07:LEN=0.01:MODS=*1000 90.554962646745% Stealth: TIME=57.08:LEN=0.01:MODS=*1000 90.2926004980435% Stealth: TIME=57.09:LEN=0.01:MODS=*1000 90.030238349342% Stealth: TIME=57.10:LEN=0.01:MODS=*1000 89.7678762006404% Stealth: TIME=57.11:LEN=0.01:MODS=*1000 89.5055140519389% Stealth: TIME=57.12:LEN=0.01:MODS=*1000 89.2431519032374% Stealth: TIME=57.13:LEN=0.01:MODS=*1000 88.9807897545359% Stealth: TIME=57.14:LEN=0.01:MODS=*1000 88.7184276058343% Stealth: TIME=57.15:LEN=0.01:MODS=*1000 88.4560654571328% Stealth: TIME=57.16:LEN=0.01:MODS=*1000 88.1937033084313% Stealth: TIME=57.17:LEN=0.01:MODS=*1000 87.9313411597298% Stealth: TIME=57.18:LEN=0.01:MODS=*1000 87.6689790110282% Stealth: TIME=57.19:LEN=0.01:MODS=*1000 87.4066168623267% Stealth: TIME=57.20:LEN=0.01:MODS=*1000 87.1442547136252% Stealth: TIME=57.21:LEN=0.01:MODS=*1000 86.8818925649236% Stealth: TIME=57.22:LEN=0.01:MODS=*1000 86.6195304162221% Stealth: TIME=57.23:LEN=0.01:MODS=*1000 86.3571682675206% Stealth: TIME=57.24:LEN=0.01:MODS=*1000 86.0948061188191% Stealth: TIME=57.25:LEN=0.01:MODS=*1000 85.8324439701175% Stealth: TIME=57.26:LEN=0.01:MODS=*1000 85.570081821416% Stealth: TIME=57.27:LEN=0.01:MODS=*1000 85.3077196727145% Stealth: TIME=57.28:LEN=0.01:MODS=*1000 85.045357524013% Stealth: TIME=57.29:LEN=0.01:MODS=*1000 84.7829953753114% Stealth: TIME=57.30:LEN=0.01:MODS=*1000 84.5206332266099% Stealth: TIME=57.31:LEN=0.01:MODS=*1000 84.2582710779084% Stealth: TIME=57.32:LEN=0.01:MODS=*1000 83.9959089292068% Stealth: TIME=57.33:LEN=0.01:MODS=*1000 83.7335467805053% Stealth: TIME=57.34:LEN=0.01:MODS=*1000 83.4711846318038% Stealth: TIME=57.35:LEN=0.01:MODS=*1000 83.2088224831023% Stealth: TIME=57.36:LEN=0.01:MODS=*1000 82.9464603344007% Stealth: TIME=57.37:LEN=0.01:MODS=*1000 82.6840981856992% Stealth: TIME=57.38:LEN=0.01:MODS=*1000 82.4217360369977% Stealth: TIME=57.39:LEN=0.01:MODS=*1000 82.1593738882962% Stealth: TIME=57.40:LEN=0.01:MODS=*1000 81.8970117395946% Stealth: TIME=57.41:LEN=0.01:MODS=*1000 81.6346495908931% Stealth: TIME=57.42:LEN=0.01:MODS=*1000 81.3722874421916% Stealth: TIME=57.43:LEN=0.01:MODS=*1000 81.1099252934901% Stealth: TIME=57.44:LEN=0.01:MODS=*1000 80.8475631447885% Stealth: TIME=57.45:LEN=0.01:MODS=*1000 80.585200996087% Stealth: TIME=57.46:LEN=0.01:MODS=*1000 80.3228388473855% Stealth: TIME=57.47:LEN=0.01:MODS=*1000 80.0604766986839% Stealth: TIME=57.48:LEN=0.01:MODS=*1000 79.7981145499824% Stealth: TIME=57.49:LEN=0.01:MODS=*1000 79.5357524012809% Stealth: TIME=57.50:LEN=0.01:MODS=*1000 79.2733902525794% Stealth: TIME=57.51:LEN=0.01:MODS=*1000 79.0110281038778% Stealth: TIME=57.52:LEN=0.01:MODS=*1000 78.7486659551763% Stealth: TIME=57.53:LEN=0.01:MODS=*1000 78.4863038064748% Stealth: TIME=57.54:LEN=0.01:MODS=*1000 78.2239416577733% Stealth: TIME=57.54:LEN=0.01:MODS=*1000 77.9615795090717% Stealth: TIME=57.55:LEN=0.01:MODS=*1000 77.6992173603702% Stealth: TIME=57.56:LEN=0.01:MODS=*1000 77.4368552116687% Stealth: TIME=57.57:LEN=0.01:MODS=*1000 77.1744930629671% Stealth: TIME=57.58:LEN=0.01:MODS=*1000 76.9121309142656% Stealth: TIME=57.59:LEN=0.01:MODS=*1000 76.6497687655641% Stealth: TIME=57.60:LEN=0.01:MODS=*1000 76.3874066168626% Stealth: TIME=57.61:LEN=0.01:MODS=*1000 76.125044468161% Stealth: TIME=57.62:LEN=0.01:MODS=*1000 75.8626823194595% Stealth: TIME=57.63:LEN=0.01:MODS=*1000 75.600320170758% Stealth: TIME=57.64:LEN=0.01:MODS=*1000 75.3379580220565% Stealth: TIME=57.65:LEN=21.10:MODS=*1000 75% Stealth: TIME=71.25:LEN=36.38:MODS=*3 no dark: TIME=78.75:LEN=36.38:MODS=*3 no stealth, *3 no cover: TIME=86.25:LEN=0.23:MODS=*1000 No Stealth: TIME=86.25:LEN=0.47:MODS=*1000 200% Drunk, *1000 0.5x: TIME=86.72:LEN=0.47:MODS=*1000 -200% Drunk, *1000 0.5x: TIME=87.19:LEN=0.02:MODS=*1000 No Drunk, *1000 No Dizzy: TIME=87.19:LEN=0.23:MODS=*1000 90% Reverse: TIME=87.42:LEN=0.23:MODS=*1000 77.1584038694074% Reverse: TIME=87.66:LEN=0.23:MODS=*1000 64.3168077388149% Reverse: TIME=87.89:LEN=0.23:MODS=*1000 51.4752116082223% Reverse: TIME=88.12:LEN=0.23:MODS=*1000 38.6336154776297% Reverse: TIME=88.36:LEN=0.23:MODS=*1000 25.7920193470372% Reverse: TIME=88.59:LEN=0.23:MODS=*1000 12.9504232164446% Reverse: TIME=88.83:LEN=0.23:MODS=*1000 0% Reverse: TIME=89.77:LEN=0.23:MODS=*1000 1000% Dizzy: TIME=90.00:LEN=0.23:MODS=*1000 No Dizzy: TIME=90.94:LEN=0.23:MODS=*1000 10% Reverse: TIME=91.17:LEN=0.23:MODS=*1000 22.8493647912887% Reverse: TIME=91.41:LEN=0.23:MODS=*1000 35.6987295825773% Reverse: TIME=91.64:LEN=0.23:MODS=*1000 48.548094373866% Reverse: TIME=91.88:LEN=0.23:MODS=*1000 61.3974591651547% Reverse: TIME=92.11:LEN=0.23:MODS=*1000 74.2468239564433% Reverse: TIME=92.34:LEN=0.23:MODS=*1000 87.096188747732% Reverse: TIME=92.58:LEN=2.13:MODS=*1000 100% Reverse: TIME=93.75:LEN=0.47:MODS=*1000 200% Drunk, *1000 0.5x: TIME=94.22:LEN=0.47:MODS=*1000 -200% Drunk, *1000 0.5x: TIME=94.69:LEN=0.02:MODS=*1000 No Drunk, *1000 No Dizzy: TIME=94.69:LEN=0.23:MODS=*1000 90% Reverse: TIME=94.92:LEN=0.23:MODS=*1000 77.1584038694074% Reverse: TIME=95.16:LEN=0.23:MODS=*1000 64.3168077388149% Reverse: TIME=95.39:LEN=0.23:MODS=*1000 51.4752116082223% Reverse: TIME=95.62:LEN=0.23:MODS=*1000 38.6336154776297% Reverse: TIME=95.86:LEN=0.23:MODS=*1000 25.7920193470372% Reverse: TIME=96.09:LEN=0.23:MODS=*1000 12.9504232164446% Reverse: TIME=96.33:LEN=0.23:MODS=*1000 0% Reverse: TIME=97.27:LEN=0.23:MODS=*1000 1000% Dizzy: TIME=97.50:LEN=0.23:MODS=*1000 No Dizzy: TIME=98.44:LEN=0.12:MODS=*1000 10% Brake: TIME=98.55:LEN=0.12:MODS=*1000 33.7499999999999% Brake: TIME=98.67:LEN=0.12:MODS=*1000 57.4999999999998% Brake: TIME=98.79:LEN=0.12:MODS=*1000 81.2499999999997% Brake: TIME=98.91:LEN=0.12:MODS=*1000 105% Brake: TIME=99.02:LEN=0.12:MODS=*1000 128.75% Brake: TIME=99.14:LEN=0.12:MODS=*1000 152.499999999999% Brake: TIME=99.26:LEN=0.12:MODS=*1000 176.249999999999% Brake: TIME=99.38:LEN=0.12:MODS=*1000 200% Brake: TIME=99.38:LEN=1.42:MODS=*1000 0.5x: TIME=100.78:LEN=0.12:MODS=*1000 No Brake: TIME=101.25:LEN=0.47:MODS=*1000 200% Drunk, *1000 0.5x: TIME=101.72:LEN=0.47:MODS=*1000 -200% Drunk, *1000 0.5x: TIME=102.19:LEN=0.02:MODS=*1000 No Drunk, *1000 No Dizzy: TIME=102.19:LEN=0.23:MODS=*1000 -25% Split, *1000 -25% Cross, *1000 -25% Alternate, *1000 50% Reverse: TIME=102.42:LEN=0.23:MODS=*1000 -50% Split, *1000 -50% Cross, *1000 -50% Alternate, *1000 100% Reverse: TIME=102.66:LEN=0.23:MODS=*1000 -75% Split, *1000 -25% Cross, *1000 -25% Alternate, *1000 100% Reverse: TIME=102.89:LEN=0.23:MODS=*1000 -100% Split, *1000 No Cross, *1000 No Alternate, *1000 100% Reverse: TIME=103.12:LEN=0.23:MODS=*1000 -75% Split, *1000 25% Cross, *1000 -25% Alternate, *1000 100% Reverse: TIME=103.36:LEN=0.23:MODS=*1000 -50% Split, *1000 50% Cross, *1000 -50% Alternate, *1000 100% Reverse: TIME=103.59:LEN=0.23:MODS=*1000 -25% Split, *1000 25% Cross, *1000 -25% Alternate, *1000 100% Reverse: TIME=103.83:LEN=0.23:MODS=*1000 100% Reverse, *1000 No Split, *1000 No Cross, *1000 No Alternate: TIME=104.06:LEN=1.88:MODS=*1000 100% Reverse: TIME=104.77:LEN=0.23:MODS=*1000 1000% Dizzy: TIME=105.00:LEN=0.23:MODS=*1000 No Dizzy: TIME=105.94:LEN=0.23:MODS=*1000 -25% Split, *1000 25% Cross, *1000 -25% Alternate, *1000 100% Reverse: TIME=106.17:LEN=0.23:MODS=*1000 -50% Split, *1000 50% Cross, *1000 -50% Alternate, *1000 100% Reverse: TIME=106.41:LEN=0.23:MODS=*1000 -75% Split, *1000 25% Cross, *1000 -25% Alternate, *1000 100% Reverse: TIME=106.64:LEN=0.23:MODS=*1000 -100% Split, *1000 No Cross, *1000 No Alternate, *1000 100% Reverse: TIME=106.88:LEN=0.23:MODS=*1000 -75% Split, *1000 -25% Cross, *1000 -25% Alternate, *1000 100% Reverse: TIME=107.11:LEN=0.23:MODS=*1000 -50% Split, *1000 -50% Cross, *1000 -50% Alternate, *1000 100% Reverse: TIME=107.34:LEN=0.23:MODS=*1000 -25% Split, *1000 -25% Cross, *1000 -25% Alternate, *1000 50% Reverse: TIME=107.58:LEN=0.23:MODS=*1000 No Split, *1000 No Cross, *1000 No Alternate, *1000 No Reverse: TIME=108.75:LEN=0.47:MODS=*1000 200% Drunk, *1000% Dizzy, *1000 0.5x: TIME=109.22:LEN=0.47:MODS=*1000 -200% Drunk, *1000% Dizzy *1000 0.5x: TIME=109.69:LEN=0.02:MODS=*1000 No Drunk, *1000 No Dizzy: TIME=109.69:LEN=0.23:MODS=*1000 25% Split,*1000 -25% Cross,*1000 25% Alternate: TIME=109.92:LEN=0.23:MODS=*1000 50% Split, *1000 -50% Cross, *1000 50% Alternate: TIME=110.16:LEN=0.23:MODS=*1000 25% Split, *1000 -25% Cross, *1000 75% Alternate: TIME=110.39:LEN=0.23:MODS=*1000 100% Alternate, *1000 No Split, *1000 No Cross: TIME=110.62:LEN=0.23:MODS=*1000 25% Split, *1000 25% Cross, *1000 75% Alternate: TIME=110.86:LEN=0.23:MODS=*1000 50% Split, *1000 50% Cross, *1000 50% Alternate: TIME=111.09:LEN=0.23:MODS=*1000 25% Split, *1000 25% Cross, *1000 25% Alternate, *1000 50% Reverse: TIME=111.33:LEN=0.23:MODS=*1000 100% Reverse, *1000 No Cross, *1000 No Alternate, *1000 No Split: TIME=111.56:LEN=30.96:MODS=*1000 100% Reverse: TIME=112.27:LEN=0.23:MODS=*1000 1000% Dizzy: TIME=112.50:LEN=0.23:MODS=*1000 No Dizzy: TIME=114.38:LEN=0.06:MODS=*1000 10% Brake, *1000 1x: TIME=114.43:LEN=0.06:MODS=*1000 21.8876734258271% Brake, *1000 1x: TIME=114.49:LEN=0.06:MODS=*1000 33.7753468516542% Brake, *1000 1x: TIME=114.55:LEN=0.06:MODS=*1000 45.6630202774814% Brake, *1000 1x: TIME=114.61:LEN=0.06:MODS=*1000 57.5506937033085% Brake, *1000 1x: TIME=114.67:LEN=0.06:MODS=*1000 69.4383671291356% Brake, *1000 1x: TIME=114.73:LEN=0.06:MODS=*1000 81.3260405549628% Brake, *1000 1x: TIME=114.79:LEN=0.06:MODS=*1000 93.2137139807899% Brake, *1000 1x: TIME=114.84:LEN=0.06:MODS=*1000 105.101387406617% Brake, *1000 1x: TIME=114.90:LEN=0.06:MODS=*1000 116.989060832444% Brake, *1000 1x: TIME=114.96:LEN=0.06:MODS=*1000 128.876734258271% Brake, *1000 1x: TIME=115.02:LEN=0.06:MODS=*1000 140.764407684098% Brake, *1000 1x: TIME=115.08:LEN=0.06:MODS=*1000 152.652081109926% Brake, *1000 1x: TIME=115.14:LEN=0.06:MODS=*1000 164.539754535753% Brake, *1000 1x: TIME=115.20:LEN=0.06:MODS=*1000 176.42742796158% Brake, *1000 1x: TIME=115.25:LEN=0.06:MODS=*1000 188.315101387407% Brake, *1000 1x: TIME=115.31:LEN=10.00:MODS=*1000 200% Brake, *1000 1x: TIME=116.25:LEN=30.00:MODS=*1000 200% Brake, *1000 0.1x, *1000 100% Dark: TIME=116.25:LEN=0.23:MODS=*1000 100% Stealth: TIME=116.48:LEN=0.23:MODS=*1000 100% No Stealth: TIME=116.72:LEN=0.23:MODS=*1000 100% Stealth: TIME=116.95:LEN=0.23:MODS=*1000 100% No Stealth: TIME=117.19:LEN=0.23:MODS=*1000 100% Stealth: TIME=117.42:LEN=0.23:MODS=*1000 100% No Stealth: TIME=117.66:LEN=0.23:MODS=*1000 100% Stealth: TIME=117.89:LEN=0.23:MODS=*1000 100% No Stealth: TIME=118.13:LEN=0.23:MODS=*1000 100% Stealth: TIME=118.36:LEN=0.23:MODS=*1000 100% No Stealth: TIME=118.60:LEN=0.23:MODS=*1000 100% Stealth: TIME=118.83:LEN=0.23:MODS=*1000 100% No Stealth: TIME=119.06:LEN=0.23:MODS=*1000 100% Stealth: TIME=119.30:LEN=0.23:MODS=*1000 100% No Stealth: TIME=86.72:LEN=0.02:MODS=*1000 3x: TIME=87.66:LEN=0.02:MODS=*1000 3x: TIME=88.59:LEN=0.02:MODS=*1000 3x: TIME=89.53:LEN=0.02:MODS=*1000 3x: TIME=90.47:LEN=0.02:MODS=*1000 3x: TIME=91.41:LEN=0.02:MODS=*1000 3x: TIME=92.34:LEN=0.02:MODS=*1000 3x: TIME=93.28:LEN=0.02:MODS=*1000 3x: TIME=94.22:LEN=0.02:MODS=*1000 3x: TIME=95.16:LEN=0.02:MODS=*1000 3x: TIME=96.09:LEN=0.02:MODS=*1000 3x: TIME=97.03:LEN=0.02:MODS=*1000 3x: TIME=97.97:LEN=0.02:MODS=*1000 3x: TIME=98.91:LEN=0.02:MODS=*1000 3x: TIME=101.72:LEN=0.02:MODS=*1000 3x: TIME=102.66:LEN=0.02:MODS=*1000 3x: TIME=103.59:LEN=0.02:MODS=*1000 3x: TIME=104.53:LEN=0.02:MODS=*1000 3x: TIME=105.47:LEN=0.02:MODS=*1000 3x: TIME=106.41:LEN=0.02:MODS=*1000 3x: TIME=107.34:LEN=0.02:MODS=*1000 3x: TIME=108.28:LEN=0.02:MODS=*1000 3x: TIME=109.22:LEN=0.02:MODS=*1000 3x: TIME=110.16:LEN=0.02:MODS=*1000 3x: TIME=111.09:LEN=0.02:MODS=*1000 3x: TIME=112.03:LEN=0.02:MODS=*1000 3x: TIME=112.97:LEN=0.02:MODS=*1000 3x: TIME=113.91:LEN=0.02:MODS=*1000 3x;

//---------------dance-single - xMod Only----------------
#NOTEDATA:;
#CHARTNAME:;
#STEPSTYPE:dance-single;
#DESCRIPTION:xMod Only;
#CHARTSTYLE:;
#DIFFICULTY:Challenge;
#METER:13;
#RADARVALUES:0.446429,0.613333,0.100000,0.350000,0.312500,375.000000,363.000000,12.000000,42.000000,0.000000,0.000000,0.000000,0.000000,0.000000,0.446429,0.613333,0.100000,0.350000,0.312500,375.000000,363.000000,12.000000,42.000000,0.000000,0.000000,0.000000,0.000000,0.000000;
#CREDIT:pinklemonade;
#DISPLAYBPM:128.000000;
#NOTES:
// measure 0
0000
0000
0000
0000
,  // measure 1
0000
0000
0000
0000
,  // measure 2
0000
0000
0000
0000
,  // measure 3
0000
0000
0000
0000
,  // measure 4
1001
0000
0000
0000
0000
1000
0001
0000
0000
0000
0000
1000
0001
0000
0000
0000
,  // measure 5
0000
1000
0001
0000
0000
0000
0000
1000
0001
0100
0001
0100
0001
0100
0001
0100
,  // measure 6
0010
0000
0000
0000
0000
1000
0010
0000
0000
0000
0000
1000
0010
0000
0000
0000
,  // measure 7
0000
0000
0000
1000
0000
0000
0010
0000
0000
0000
0000
0000
0000
0000
0000
0000
0000
0000
0000
0000
1000
0000
0000
0000
0010
0000
0000
0100
0000
0000
0010
0000
0000
0100
0000
0000
0010
0000
0000
0100
0000
0000
0010
0000
0000
0100
0000
0000
,  // measure 8
0001
0000
0000
0000
0000
0010
0001
0000
0000
0000
0000
0010
0001
0000
0000
0000
,  // measure 9
0000
0010
0001
0000
0000
0000
0000
0010
0001
1000
0001
1000
0001
1000
0001
1000
,  // measure 10
0010
0000
0000
0000
0000
0100
0010
0000
0000
0000
0000
0100
0010
0000
0000
0000
,  // measure 11
0000
0100
0010
0000
0000
0000
0000
0000
1000
0000
0000
0000
1000
0000
0000
0000
,  // measure 12
1001
0000
0002
0003
1003
0000
1030
0000
0001
0000
0020
0030
0130
0000
0100
0000
,  // measure 13
1000
0000
0200
0300
0310
0000
0010
0000
0001
0000
2300
3000
3000
0000
0000
0000
,  // measure 14
1010
0020
0100
0001
,  // measure 15
1030
0010
0100
0000
0001
0001
2000
3003
,  // measure 16
1100
0000
1000
1000
1000
1000
1000
1000
,  // measure 17
0001
0100
0010
1000
0001
0100
0010
1000
0002
0000
0000
0000
2003
0000
0000
0000
,  // measure 18
3010
0200
0010
1000
,  // measure 19
0301
0000
1000
0000
0010
0000
0000
0000
0100
0000
0001
0000
1000
0000
0001
1000
,  // measure 20
0001
0000
0010
0010
0010
0010
0110
0000
,  // measure 21
1000
0000
0020
0030
1000
0000
0100
0000
1000
0000
0002
0003
1000
0000
0010
0000
,  // measure 22
0110
0020
0100
0001
,  // measure 23
1030
0000
1000
0000
0001
0000
1000
0001
0100
0000
0100
0000
0002
0000
0000
0003
,  // measure 24
0101
0000
0000
0000
1000
0000
1000
0000
0001
0100
0010
1000
0001
0000
0001
0000
,  // measure 25
1000
0100
0010
0001
1000
0100
0010
0001
2000
0000
0000
0000
3020
0000
0000
0000
,  // measure 26
0133
0200
0001
1000
,  // measure 27
0310
0000
0000
0000
2300
0000
0000
0000
3100
0000
0010
0000
0001
0000
0100
0010
,  // measure 28
1000
0000
0000
0000
0001
0100
0010
1000
0001
0100
0010
1000
0001
0000
0000
0000
,  // measure 29
1000
0000
0002
0003
1000
0000
0010
0000
1000
0000
0200
0300
1000
0000
0000
0000
,  // measure 30
1001
0000
0000
2000
,  // measure 31
3200
0000
0320
0000
,  // measure 32
0032
0000
0000
0000
,  // measure 33
0000
0000
0000
0013
0100
0001
0200
0000
,  // measure 34
2300
0000
0000
3020
,  // measure 35
0032
0000
2003
0000
,  // measure 36
3200
0000
0000
0000
,  // measure 37
0000
0000
0000
0301
0010
1000
0020
0000
,  // measure 38
0130
1000
0010
0100
,  // measure 39
0001
0000
0010
0000
0100
1000
0010
0001
,  // measure 40
0010
0100
0010
1000
,  // measure 41
0100
0000
0010
0000
0001
0100
1000
0100
,  // measure 42
0010
1000
0001
0010
,  // measure 43
0100
0000
1000
0000
0100
0010
1000
0010
,  // measure 44
0001
0100
0010
1000
,  // measure 45
0001
1000
0001
1000
0001
0100
0010
0100
0010
1000
0001
1000
0000
0000
0000
0000
,  // measure 46
2000
0000
3002
0000
1003
0100
0010
0001
,  // measure 47
1000
0000
0100
0000
0010
0000
0001
0000
1000
0000
0100
0000
1000
0000
1000
0001
,  // measure 48
0100
0010
0100
0010
1000
0000
0000
0000
0001
0000
0010
0000
0100
0000
1000
0000
,  // measure 49
0001
0010
0100
1000
0001
0000
1000
0000
,  // measure 50
0012
0000
0023
0000
3031
0100
0010
1000
,  // measure 51
0001
0000
0100
0000
0010
0000
1000
0000
0001
0000
1000
0000
0100
0000
0100
1000
,  // measure 52
0001
0010
0001
0010
0100
0000
0000
0000
1000
0100
0010
0001
1000
0001
0010
0100
,  // measure 53
2000
0000
0000
3103
,  // measure 54
2001
0000
3020
0000
1033
1000
0100
0100
,  // measure 55
0010
0000
0010
0000
0001
0000
0001
0000
1000
0000
0100
0000
1000
0000
1000
0010
,  // measure 56
0100
0001
0100
0001
1000
0000
0000
0000
0001
0000
0001
0000
0010
0000
0010
0000
,  // measure 57
0100
0100
1000
1000
0001
0000
0100
0000
,  // measure 58
0120
0000
0233
0000
3301
0001
0100
0100
,  // measure 59
0010
0000
0010
0000
1000
0000
1000
0000
0001
0000
0100
0000
0001
0000
0001
0010
,  // measure 60
0100
1000
0100
1000
0301
0000
0000
0000
1000
0000
0000
0000
0001
0000
0000
0000
,  // measure 61
0020
0000
0031
1000
,  // measure 62
2002
0000
0000
0000
,  // measure 63
0000
0000
0000
3003
,  // measure 64
3003
0000
0000
0000
;
