#TITLE:The Burned Tableau;
#SUBTITLE:;
#ARTIST:seatrus;
#TITLETRANSLIT:;
#SUBTITLETRANSLIT:;
#ARTISTTRANSLIT:;
#GENRE:BURNING ARTCORE;
#CREDIT:;
#BANNER:bn.png;
#BACKGROUND:bg.png;
#LYRICSPATH:;
#CDTITLE:cdtitle.png;
#MUSIC:The Burned Tableau.mp3;
#OFFSET:-0.051000;
#SAMPLESTART:37.945999;
#SAMPLELENGTH:19.263000;
#SELECTABLE:YES;
#DISPLAYBPM:190.000000;
#BPMS:0.000000=190.000000
,104.000000=380.000000
,105.000000=190.000000
,149.000000=95.000000
,150.000000=190.000000
,156.000000=95.000000
,157.000000=190.000000
,170.500000=95.000000
,171.000000=380.000000
,172.000000=190.000000
,297.000000=380.000000
,298.000000=190.000000
,334.500000=47.500000
,335.500000=190.000000
;
#STOPS:104.000000=0.158000,
143.500000=0.316000,
297.000000=0.158000,
304.500000=0.158000,
305.000000=0.158000,
305.500000=0.158000,
306.000000=0.158000,
335.500000=0.316000
;
#BGCHANGES:;
#KEYSOUNDS:;
#ATTACKS:;

//---------------dance-single - ----------------
#NOTES:
     dance-single:
     Beginner 6:
     Beginner:
     6:
     0.270386,0.373961,0.095943,0.191887,0.000000,217.000000,206.000000,11.000000,22.000000,0.000000,0.000000,0.270386,0.373961,0.095943,0.191887,0.000000,217.000000,206.000000,11.000000,22.000000,0.000000,0.000000:
0000
0000
0000
0000
,
0000
0000
0000
0000
,
0002
0000
0000
0000
,
0000
0000
0000
0000
,
0000
0000
0000
0000
,
0003
0000
0000
0000
,
2000
0000
0000
0000
,
3000
0000
0000
0000
,
0200
0000
0000
0320
,
0000
0000
0030
0000
,
0001
0000
0001
0000
,
1000
0000
1000
0000
,
0010
0100
0010
0100
,
0002
0000
0000
0000
,
0003
1000
0100
1000
,
0100
1000
0000
0001
,
1001
1000
0010
1000
,
0010
1000
0001
0000
,
0011
0000
0010
0010
,
0100
0100
0010
0010
,
1001
0001
0000
1001
,
1000
0000
0010
0100
,
0020
1030
0100
0010
,
0100
1000
0000
1001
,
0000
0101
0000
1010
,
0000
1001
0000
0011
,
0000
2000
3010
0010
,
0100
0100
0010
0010
,
0200
0000
0000
0000
,
0000
0000
0000
0000
,
0301
1000
0001
0000
,
1000
0100
0000
0100
,
0010
0001
0010
0100
,
1000
0100
0000
1000
,
0010
0100
0000
0100
,
0001
0010
0000
0110
,
1000
0001
1000
0010
,
0100
0002
0013
0010
,
0010
0100
0100
0100
,
0000
1000
1000
1000
,
0001
0001
0001
2000
,
0000
3010
0010
0010
,
1000
1000
1000
0000
,
0001
0010
0100
1000
,
0100
0010
0002
0000
,
0000
1003
0000
0000
,
0000
0100
0000
0000
,
0000
0010
0000
0000
,
0000
0001
0000
0000
,
0000
1000
0000
0000
,
0000
0010
0000
0000
,
0000
0100
0000
0000
,
0000
0002
0000
0000
,
0000
1003
0000
0000
,
1000
0001
0000
0000
,
0001
0100
0000
0000
,
0100
0010
0000
0000
,
0010
1000
0000
0000
,
1000
0100
0000
0000
,
0100
0010
0000
0010
,
0001
2000
0000
0000
,
0000
3010
0000
0010
,
0000
0100
0000
0100
,
0000
0001
1000
0001
,
1000
0200
0000
0000
,
0000
0310
0001
0010
,
0100
2000
0000
3002
,
0000
1003
0010
0100
,
0001
0100
0010
1000
,
0001
0010
0100
0010
,
0001
1000
0100
0010
,
0001
1000
0010
0100
,
0010
1000
0001
0100
,
0010
2000
0000
0000
,
0000
3000
0000
0001
,
0001
1000
0100
0010
,
0200
0000
0000
0310
,
0001
0010
0100
1000
,
0010
0100
0010
2000
,
0000
3002
0000
0013
,
0100
0010
0100
1000
,
1000
1000
0001
0001
,
0001
0100
0100
0100
,
0010
0010
0010
0000
,
2002
0000
0000
0000
,
0000
0000
0000
3003
;

//---------------dance-single - ----------------
#NOTES:
     dance-single:
     Light 13:
     Easy:
     13:
     0.640453,0.747922,0.139554,0.453550,0.126471,514.000000,498.000000,16.000000,52.000000,0.000000,0.000000,0.640453,0.747922,0.139554,0.453550,0.126471,514.000000,498.000000,16.000000,52.000000,0.000000,0.000000:
0000
0000
0000
0000
,
0000
0000
0000
0000
,
0001
0010
0001
0010
0000
0000
0100
1000
,
0100
1000
0000
1000
0001
0100
0001
0000
,
1000
0010
1000
0010
0000
0000
0100
0001
,
0100
0001
0000
0001
0010
0100
1000
0000
,
0001
0100
0001
0010
0000
0000
0100
1000
,
0010
1000
0000
0001
0100
0010
1000
0000
,
0001
0010
0100
2000
0000
0000
3100
0010
,
0001
0020
0000
0000
0000
0000
0000
0000
,
0130
1000
0001
0000
0100
0001
1000
0000
,
0001
0100
0010
1000
0001
0010
0001
0000
,
1000
0100
0010
0100
1000
0100
0010
0001
,
0200
0000
0000
0300
,
0110
0000
0001
0010
0100
1000
0001
0010
,
0100
1000
0100
0010
0000
0100
1000
0100
,
0021
0000
1030
0010
0001
0010
0100
1000
,
0100
0010
0100
1000
0010
0002
0000
0003
,
0110
0000
1001
0000
1000
1000
0001
0100
,
0001
0001
1000
0010
0100
1000
0001
0010
,
0200
0000
0301
0000
0000
1000
0001
0010
,
0000
0000
0000
0000
0000
0000
1000
0000
0110
0000
0001
0000
0000
0001
0000
0000
,
0110
0000
1000
0100
0010
0001
0010
0100
,
1000
0100
0010
0100
0000
0001
0100
1100
,
0000
0000
0101
0000
0001
1000
0001
0011
,
0000
0000
1010
0000
0000
0000
0000
0000
1000
0000
0000
1000
0000
0000
0220
0000
,
0000
0330
0000
0000
1001
0000
0000
0000
0001
0000
0001
0000
0010
0000
1000
0000
,
0010
0010
0100
1000
0001
0001
0100
1000
,
0200
0000
0000
0000
,
0302
0000
1000
1003
,
0001
0010
0100
1000
0100
0010
0100
0002
,
0000
0103
0020
0000
0031
0010
0100
1000
,
0001
0100
0010
1000
0010
0100
1000
0100
,
0000
0100
0001
0010
1000
0010
0100
1000
,
0001
0100
0010
1000
0001
1000
0010
0002
,
0000
0000
0013
0000
0100
0000
2000
0000
0000
0000
3100
0000
0010
0000
2002
3003
,
0100
0001
1000
0100
0001
0200
0000
0310
,
0001
0000
0100
0000
0010
1000
0001
0100
0010
0000
0010
0000
1000
0000
0100
0000
,
0100
0010
1000
0010
0001
0100
0100
0020
,
0100
0000
0130
0100
0001
0010
0010
0100
,
0001
0000
0000
0100
0000
0000
1000
0000
0000
0010
0000
0000
0010
0000
0000
0100
0000
0000
0001
0000
0000
0000
0001
0000
,
0010
0000
0000
0000
0010
0000
1000
0000
0000
1000
0000
0000
0010
0000
0000
0100
0000
0000
0100
0000
0000
1000
0000
0000
,
0010
0000
0001
0000
0010
0000
0100
0000
0100
0000
0001
0020
0000
0000
0000
0000
,
1030
0010
0001
0100
1000
0100
0001
1000
,
0010
0001
1000
0100
0010
0001
0010
0100
,
0001
1000
0001
1000
0200
0000
0000
0000
0000
0000
0000
0000
0000
0000
0000
0000
,
0000
0320
0000
0000
,
0000
0032
0000
0000
,
0000
2003
0000
0000
,
0000
3020
0000
0000
,
0000
0230
0000
0000
,
0000
0302
0000
0000
,
0000
2000
0000
0000
,
3003
0000
0000
0000
0001
0000
0100
0000
0010
0000
2000
0000
0000
0000
3000
0001
,
0000
0000
0001
0000
0010
0000
0100
0000
1000
0000
0002
0000
0000
0000
0003
1000
,
0000
1000
0010
0100
0001
0100
0010
1000
,
0010
0100
0001
0010
0000
0010
0100
0001
,
0100
1000
0010
0010
0000
0100
0001
0000
,
1000
0000
0100
0000
0000
0000
0001
0000
0100
0000
0010
0000
0001
0100
0001
0000
,
0010
0000
0100
1000
0100
0000
0010
0000
0001
0000
0010
0000
0100
0000
1000
0000
,
0010
0200
0002
0000
0000
0000
0000
0000
,
0303
0000
0001
1000
0010
1000
0100
1000
,
0001
0100
0001
0010
0001
1000
0001
0010
,
1000
0010
0001
0001
1000
2000
0002
0000
,
3003
0000
1001
0000
0000
0000
0002
0023
,
0230
2300
3010
0100
0010
0001
0010
0100
,
1000
0000
0100
0000
0001
0000
0000
0001
0010
0000
0200
0000
0000
0000
0301
0000
,
0100
1000
0100
0010
1000
0010
0001
0100
,
1000
0100
0010
0001
0010
0200
0000
0301
,
0010
0100
1001
0001
0010
0100
0001
0100
,
1000
0000
0001
0000
0100
0000
1000
0000
0001
0000
0010
0000
1000
0000
0001
0010
,
0001
0000
1000
0010
1000
0000
0100
0000
0010
0000
1000
0000
0010
0000
0100
0000
,
0001
0100
0010
0001
0100
0010
0001
0010
,
1000
0001
1000
0001
0020
0000
0000
0000
0000
0000
0000
0000
0000
0000
0000
0000
,
0000
0000
0000
0000
0000
0030
0000
0000
0100
0000
1000
0000
0000
0000
1000
0000
,
0010
0100
1000
0100
0001
1000
0010
0100
,
0010
0000
0002
0003
0020
0030
0200
0300
2000
3000
0100
0000
0002
0000
0010
0000
,
1003
0002
0100
2003
0010
3001
0100
0100
,
0001
0010
0000
0001
0100
0000
0000
0010
1000
0100
0000
0010
0002
0000
0000
0000
,
1003
0000
1000
0001
0000
0001
0100
0010
1000
0200
0000
0000
,
0300
0120
0000
0000
0000
0000
0031
0001
,
1000
0010
0010
0100
1000
0100
0010
1000
,
1000
0001
0010
0010
0100
0001
0100
1000
,
0001
0010
0001
0000
1000
0000
0001
0100
0001
0000
0020
0000
0000
0000
0000
0000
,
0200
0000
0000
0000
,
0000
0000
0000
0330
;

//---------------dance-single - ----------------
#NOTES:
     dance-single:
     Standard 16:
     Medium:
     16:
     0.852276,0.972299,0.357607,0.584382,0.497161,684.000000,643.000000,41.000000,67.000000,0.000000,1.000000,0.852276,0.972299,0.357607,0.584382,0.497161,684.000000,643.000000,41.000000,67.000000,0.000000,1.000000:
0000
0000
0000
0000
,
0000
0000
0000
0000
,
0001
0010
0100
1000
0000
0000
0001
0010
,
0100
0000
1000
0000
0000
0000
1000
0000
0100
0000
0010
0000
0001
0000
0010
0001
,
1000
0100
0010
0001
0000
0000
1000
0100
,
0010
0000
0001
0000
0000
0000
0001
0000
0010
0000
0100
0000
1000
0001
0100
0000
,
0001
0100
0010
1000
0000
0000
0001
0100
,
0010
0000
1000
0000
0000
0000
1000
0000
0010
0000
0100
0000
0001
0000
0010
0001
,
1000
0010
0100
0002
0000
0000
1003
0100
,
0010
0002
0000
0000
0000
0000
0000
0000
,
1003
0010
0110
0100
0001
0010
0011
0001
,
0100
0010
0110
0100
0001
1000
1001
0000
,
0001
0000
0010
0000
1000
0000
0010
0000
0001
0010
0001
0010
0100
1000
0100
1000
,
0002
0010
1003
0002
0100
1003
0001
1000
,
0200
0000
0310
0010
0001
0001
0010
0010
,
0100
0100
1000
0010
0000
1000
0001
0001
,
0200
0000
0310
0001
0010
1000
0100
0010
,
0001
0010
1000
0010
0001
0101
0000
0000
,
1010
0000
0000
0000
1010
0000
0000
0000
0001
0100
0001
0000
0010
0000
0100
0000
,
1000
0010
1000
0000
0100
0000
0010
0000
0001
0100
0001
0000
0010
0000
0100
0000
,
2000
0000
0000
0000
3010
0000
0100
0001
0100
0000
0020
0000
0130
0000
0002
0000
,
0010
0000
0013
0000
0100
0000
2000
0000
3010
0000
2010
0000
3000
1020
0000
0030
,
0201
0000
0310
0010
1000
1000
0010
0010
,
0100
0100
0001
0001
0000
0010
0010
0102
,
0000
1003
0012
0000
1003
0010
0100
0012
,
0000
0000
2103
0000
0000
0000
3001
0000
0011
0000
0000
0011
0000
0000
2200
0000
,
3000
0300
0000
0000
2001
0000
0000
0000
3001
0100
0001
0000
0010
0000
0100
0000
,
1000
0010
1000
0000
0100
0000
0010
0000
0001
0100
0001
0000
0010
0000
0100
0000
,
1000
0100
0010
0001
0000
1000
0100
0010
,
0001
0000
0000
0000
0001
0000
0100
0000
0010
1000
0010
1000
0001
0100
0001
0100
,
0010
1000
0100
1000
0010
0100
0001
0020
,
0000
1030
0020
0000
0130
1000
1000
0100
,
0010
0001
0001
2000
0000
3010
0100
0100
,
0001
1000
0010
0200
0001
0301
1000
0001
,
0010
0000
0100
0000
0010
0000
0001
0000
1000
0010
1000
0010
0100
0000
0200
0000
,
0000
0000
0301
0000
1000
0000
0100
0000
1000
0000
0001
0100
0001
0000
0202
0303
,
1000
0000
0010
0000
0001
0000
0010
0000
0100
0000
0002
0000
0000
0000
1003
0100
,
1000
0000
0001
0000
0010
0010
0100
0100
2001
0000
3010
0000
0000
0000
2010
0000
,
3100
0000
2100
3001
0000
2001
3010
0000
,
1000
0100
1000
0100
0010
0001
0010
0000
1002
0000
0000
0000
0013
0000
0000
0000
0000
0000
0000
0000
0012
0000
0000
0000
0103
0000
0000
0000
0000
0000
0000
0000
,
0102
0000
0000
1003
0000
0000
0000
0000
0000
1002
0000
0000
0013
0000
0000
0001
0000
0000
0100
0000
1000
0000
0100
0000
,
0010
0000
0000
0000
0001
0000
0000
0000
0010
0000
0000
0000
0100
0000
0000
0001
0000
0000
0010
0000
0000
0000
0000
0000
0010
0000
0000
0000
0000
0000
0001
0000
0000
0010
0000
0000
0100
0000
0000
0000
0000
0000
0100
0000
0000
0000
0000
0000
,
1000
0100
0010
0000
0010
0000
0100
1000
0010
0000
0010
2000
3000
0000
0000
0000
,
0001
0010
0100
0010
0001
0000
1000
0100
0010
0100
1000
0000
0100
0010
0001
0010
,
0100
0000
0010
0100
1000
0100
0010
0000
0001
0000
1000
0100
1000
0000
0010
0000
,
0100
0001
0000
1000
0001
0000
0100
0000
0010
0000
2000
0000
0000
0000
0000
0000
,
0000
0000
3010
0100
0001
0020
0000
0000
,
0000
0000
0031
0010
0100
2000
0000
0000
,
0000
0000
0000
0000
3001
0000
0100
0000
0001
0000
0010
0000
0100
1000
0100
0000
,
0010
0001
0010
0000
0100
0000
1000
0000
0010
0000
0200
0000
0000
0000
0000
0000
,
0000
0000
0310
0100
0001
0020
0000
0000
,
0000
0000
0130
1000
0100
0020
0000
0031
,
0010
0000
0100
0000
0020
0000
0000
0000
0000
0000
0031
0000
1000
0000
1000
0100
,
0010
0001
0000
0010
0100
0000
1000
0000
0100
0000
0010
0000
0010
0000
0000
0001
,
0000
0000
0100
0000
0001
0000
0010
0000
0100
0000
1000
0000
1000
0000
0000
0010
,
0000
0100
0100
0001
0010
0100
1000
0010
,
0100
0000
0000
0000
0010
0000
1000
0000
0000
0000
1000
0000
0100
0010
0001
0010
,
0100
0000
1000
0010
0100
0000
0001
0000
0010
0000
0001
0000
1000
0000
0000
0000
,
0010
0100
0000
0100
0001
0010
0100
0100
,
1000
0010
1000
0000
0001
0000
0001
0000
0010
0100
0010
0000
0001
1000
0010
0000
,
0100
0100
2002
0000
0000
0000
0000
0000
,
0000
3003
0001
0100
1000
0100
0001
0010
,
0001
0100
1000
0100
0001
0010
0100
1000
,
0200
0000
0000
0000
0310
0000
0010
0000
0001
0000
0001
0000
1000
0010
1000
0010
,
0100
0001
0100
0001
0020
0000
0000
0000
0000
0000
0000
0000
0130
0000
0100
0000
,
1000
0000
0001
0000
0100
0000
0010
1000
0010
0000
0100
0000
0001
0010
0001
0000
,
0100
0000
1000
0100
0002
0000
0003
0001
0010
0100
2000
0000
3000
0000
0001
0000
,
1000
0100
1000
0100
1000
0000
0010
0000
0100
0001
0100
0001
0100
0000
0001
0000
,
0010
0100
0010
0100
0010
0001
0000
0001
0100
0000
0200
0000
0000
0000
0310
0000
,
1000
0100
0010
0001
1000
0000
0010
0000
0010
0000
0100
0000
0001
0010
0000
0100
,
1000
0000
0001
0000
0001
0000
0100
0000
0010
1000
0000
0001
0100
0000
0010
1000
,
0100
1000
0100
0000
0010
0000
0001
0100
0001
0000
0010
0000
0100
1000
0100
0000
,
0010
0000
0010
0001
0100
0000
0010
0000
0010
1000
0100
0000
0010
0001
0010
0001
,
1000
0100
1000
0100
0020
0000
0000
0000
0000
0000
0000
0000
0000
0000
0000
0000
,
0000
0000
0000
0000
0000
0030
0000
0000
0102
0000
0010
0000
0000
0000
0013
0000
,
0001
0000
0010
0000
0100
0000
1000
0010
1000
0000
0100
0000
0010
0000
0001
0000
,
0100
0000
0200
0300
0020
0030
2002
3003
0220
0330
0001
0000
1000
0000
0100
0000
,
0010
1000
0010
0100
1000
2001
0000
0000
,
3010
1000
0010
1000
0100
0010
0001
0010
0001
0000
1000
0000
1200
0000
0000
0000
,
0310
0000
0000
0000
1000
0000
0000
0000
0010
0000
0000
0000
0100
0000
0000
0000
0001
0000
0000
0000
0100
0000
0000
0000
1000
0000
0000
0000
0010
0000
0000
0000
0100
0000
0000
0000
0001
0000
0000
0000
0000
0000
1000
0000
0000
0100
0000
0000
,
0000
0100
0010
0000
0010
0001
0000
0001
1000
0100
0010
0001
0200
0000
0010
0000
,
0301
0020
0100
0031
0200
1000
0310
2000
,
0100
3010
1010
1001
0001
0011
1001
1000
,
1100
0101
0001
0101
2100
0000
0000
0000
,
0002
0000
0000
0000
,
0000
0000
0000
3003
;

//---------------dance-single - ----------------
#NOTES:
     dance-single:
     Heavy 18:
     Hard:
     18:
     1.039178,1.234071,0.375051,0.959433,0.989961,834.000000,791.000000,43.000000,110.000000,0.000000,1.000000,1.039178,1.234071,0.375051,0.959433,0.989961,834.000000,791.000000,43.000000,110.000000,0.000000,1.000000:
// measure 0
0000
0000
0000
0000
,  // measure 1
0000
0000
0000
0000
,  // measure 2
0001
0010
0100
1000
0000
0000
0001
0010
,  // measure 3
0100
0000
1000
0000
0000
0000
0010
0000
0100
0000
1000
0000
0100
0000
0001
1000
,  // measure 4
0001
0010
0100
1000
0000
0000
0001
0010
,  // measure 5
0100
0000
1000
0000
0000
0000
1000
0000
0100
0000
0010
0000
0001
1000
0001
0000
,  // measure 6
0100
0010
1000
0001
0000
0000
0001
1000
,  // measure 7
0010
0000
0100
0000
0000
0000
0010
0000
0001
0000
0010
0000
1000
0000
0001
0010
,  // measure 8
0001
0100
0010
0100
0000
0000
1000
0100
,  // measure 9
0010
0002
0000
0000
0000
0000
0000
0000
,  // measure 10
0013
0000
1000
0000
0100
0010
0100
0000
1000
0000
0100
0000
0010
0000
0001
0000
,  // measure 11
1000
0010
1000
0000
0001
0000
0100
0000
0010
0000
1000
0100
1000
0000
0000
0000
,  // measure 12
0001
0000
0001
0000
0010
0000
0010
0000
0100
1000
0100
1000
0100
0010
0001
0010
,  // measure 13
0200
0010
1300
0020
0001
0130
0002
0013
,  // measure 14
2020
0030
3001
0010
0100
1000
0001
0010
,  // measure 15
0100
0001
0100
1000
0000
0010
0010
0100
,  // measure 16
0202
0300
2003
0100
3001
0200
0010
0302
,  // measure 17
0100
2003
0010
3001
0100
0202
0300
0003
,  // measure 18
2020
0000
0030
3000
0022
0000
0030
0003
1000
0100
0010
0001
0010
0100
1000
0000
,  // measure 19
0001
0010
0100
1000
0100
0010
0001
0000
1000
0100
0010
0001
0010
0100
0010
0000
,  // measure 20
0202
0000
0300
0000
1003
0000
0100
0010
0100
0000
2200
0000
0300
3000
0202
0000
,  // measure 21
0300
0003
1000
0010
1000
0000
0202
0000
0300
0003
2200
0300
3000
2020
0000
0030
,  // measure 22
3022
0030
1003
0100
0001
0100
1000
0010
,  // measure 23
0001
0010
0100
1000
0000
0100
0001
2002
,  // measure 24
0003
3000
0100
0000
2002
0000
3000
0003
0100
0000
0001
0000
0010
0000
0022
0000
,  // measure 25
0030
0003
2020
0030
0001
3000
0100
0000
0202
0300
0003
0220
0300
0030
2020
0030
,  // measure 26
0200
3300
0000
0000
0202
0000
0300
0000
0013
0001
0010
0100
1000
0100
0010
0000
,  // measure 27
0100
1000
0100
0010
0001
0010
0100
0000
1000
0010
1000
0100
0010
0001
0100
0000
,  // measure 28
0210
0302
0023
0230
1000
0320
0032
0023
,  // measure 29
0230
0000
1000
0000
0310
0000
0001
0000
1000
0010
1000
0100
0010
0001
0100
0001
,  // measure 30
1000
0000
0001
0010
0100
0000
0100
1000
0010
0000
1000
0010
0100
0001
0020
0000
,  // measure 31
0000
0000
0130
1000
0020
0000
0000
0000
0130
0000
0001
0010
0100
1000
0200
0000
,  // measure 32
0010
0000
1300
0100
0010
0001
0200
0000
0000
0000
0310
0000
1000
0001
0010
0000
,  // measure 33
0100
1000
0001
0000
1000
0010
0100
0000
0001
0100
0010
1000
0100
0000
0010
0000
,  // measure 34
0001
0000
1000
0010
1000
0000
0001
0100
0001
0010
0100
1000
0100
0000
0100
0020
,  // measure 35
0000
0000
0031
0010
0100
1000
0200
0000
0000
0000
1300
0001
0100
0000
0202
0303
,  // measure 36
0001
1000
0010
0000
1000
0001
0100
0001
0010
0100
2000
0000
0000
0000
3010
0100
,  // measure 37
0001
0000
0100
0000
2000
3200
0320
0032
0013
1000
0010
1000
0010
0000
0100
0001
,  // measure 38
0100
0001
0100
0000
0001
0010
0001
0010
0001
0000
1000
0100
1000
0100
1000
0000
,  // measure 39
0001
0010
0001
0010
0100
1000
0100
1000
0001
0000
0010
0000
0001
0000
0010
0000
0100
0000
0000
0000
1000
0000
0010
0000
1000
0000
0010
0000
0100
0000
0000
0000
,  // measure 40
0001
0000
0000
0100
0000
0000
0001
0000
0000
0100
0000
0000
0010
0000
0000
0000
0000
0000
1000
0000
0000
0100
0000
0000
1000
0000
0000
0100
0000
0000
0010
0000
0000
0000
0000
0000
0002
0000
0000
0000
0010
0000
0000
0000
2003
0000
0000
0000
,  // measure 41
0100
0000
0000
0000
3001
0000
0000
0000
0100
0000
0000
0000
0010
0000
0000
1000
0000
0000
0100
0000
0000
0010
0000
0000
0001
0000
0000
0000
0000
0000
0100
0000
0000
0001
0000
0000
0010
0000
0000
0100
0000
0000
1000
0000
0000
0000
0000
0000
,  // measure 42
0001
0010
0100
1000
0010
0000
1000
0001
0010
0100
2000
3001
0000
0000
0000
0000
,  // measure 43
1000
0100
0010
0001
0100
0010
1000
0100
0010
0001
0100
0010
1000
0100
0010
0001
,  // measure 44
0100
0010
1000
0100
0010
0001
0100
0010
1000
0100
0010
0100
1000
0100
0010
0001
,  // measure 45
0010
0100
0010
0001
0020
0000
0000
0000
0100
0000
0000
0000
0031
0000
1000
0010
,  // measure 46
1000
0010
0100
0001
0100
0000
0010
0000
1000
0000
0002
0000
0000
0000
0013
0000
,  // measure 47
0200
0010
1300
0000
0001
0010
0100
1000
,  // measure 48
0010
0000
0100
0000
0002
0000
0010
0000
0000
0000
1003
0000
1000
0100
0010
0001
,  // measure 49
1000
0100
0010
0001
2000
0000
0010
0000
3001
0000
0100
0000
0100
0000
0010
0000
,  // measure 50
1000
0000
2000
0000
0010
0000
3001
0000
1000
0000
0100
0020
0100
0000
0031
0000
,  // measure 51
1000
0010
0100
0001
0010
0002
0000
1003
,  // measure 52
0010
0000
1000
0000
0200
0000
0000
0000
0000
0000
0310
0000
0010
0001
1000
0100
,  // measure 53
0010
0001
1000
0100
0020
0000
0001
0000
0000
0000
0031
0100
0001
0000
0000
1000
,  // measure 54
0000
0000
1000
0000
0010
0000
0100
0000
0010
0000
0100
0001
1000
0000
0000
0100
,  // measure 55
0000
0000
0100
1000
0002
0000
0010
0000
0013
0000
0001
0000
1000
0000
0010
0000
,  // measure 56
0100
0000
0002
0000
0010
0000
1003
0000
0000
0000
0001
0000
0001
0010
0100
1000
,  // measure 57
0001
0010
0100
2000
0010
0000
0001
0000
3000
0000
1000
0000
0002
0000
0000
0000
,  // measure 58
0100
0000
2003
0000
0000
0000
3100
0000
0010
0000
0001
0000
1000
0100
0010
0001
,  // measure 59
1000
0100
1000
0100
0010
0001
0010
0100
1000
0010
1000
0010
0100
0001
0010
0100
,  // measure 60
1000
0100
0010
0002
2000
0000
0000
0000
0000
0000
0000
0000
0000
0000
0000
0000
,  // measure 61
0000
0000
3003
0000
0001
0000
0100
0010
0100
0000
1000
0000
0100
0000
0010
0000
,  // measure 62
1000
0000
0100
0010
0100
0000
0001
0000
0100
0000
1000
0000
0010
0000
0001
0010
,  // measure 63
0100
0000
0001
0000
1000
0000
0100
0000
0010
0000
0001
0000
1000
0100
0010
0001
,  // measure 64
1000
0100
0010
0001
0200
0000
0010
0000
0301
0000
0020
0000
0100
0000
0031
0000
,  // measure 65
1000
0000
1000
0000
0010
0000
1000
0001
1000
0000
0100
0000
0010
0001
0010
0000
,  // measure 66
0100
0000
1000
0001
0100
0000
0010
1000
0010
0000
0110
0000
0000
0000
0100
0000
,  // measure 67
0001
0100
0010
1000
0001
0000
0001
0000
1000
0100
0010
0001
0000
0000
0101
0000
,  // measure 68
0001
0100
0010
1000
0100
0010
0001
0100
0001
0010
0200
0000
0000
0000
1300
0000
,  // measure 69
1000
0100
0010
0001
1000
0001
0010
0100
1000
0001
0100
0000
0001
0100
0010
1000
,  // measure 70
0001
0000
1000
0010
0100
0001
1000
0000
0001
0010
0001
0010
0100
1000
0100
1000
,  // measure 71
0010
0100
0001
0000
1010
0000
1000
0001
0010
0000
0101
0000
0001
1000
0010
0000
,  // measure 72
1100
0000
1000
0001
0100
0000
0011
0000
0001
0010
0100
1000
0100
0010
0100
1000
,  // measure 73
0001
0010
0100
2000
0020
0000
0000
0000
0000
0000
0000
0000
0000
0000
0000
0000
,  // measure 74
0000
0000
0030
0000
0002
3003
0000
0000
0201
0000
0320
0000
0000
0000
1030
0000
,  // measure 75
0001
0100
0001
1000
0010
0000
1000
0001
0010
0000
0100
1000
0001
0000
0010
0001
,  // measure 76
1000
0000
2020
3030
0202
0303
0022
0033
2200
3300
1001
0000
0001
0000
0010
0000
,  // measure 77
1000
0001
0100
1000
0010
0120
1030
0001
,  // measure 78
0010
0100
0010
0001
1000
0100
0010
0001
0010
0100
1000
0100
0020
0000
0000
0000
,  // measure 79
0031
0000
0000
0000
0100
0000
0000
0000
1000
0000
0000
0000
0100
0000
0000
0000
0010
0000
0000
0000
0001
0000
0000
0000
0010
0000
0000
0000
1000
0000
0000
0000
1000
0000
0000
0000
0001
0000
0000
0010
0000
0000
0100
0000
0000
0010
0000
0000
,  // measure 80
0001
0010
0100
1000
0100
0010
0001
0010
0100
1000
0100
0010
0001
1000
0001
0000
,  // measure 81
0101
0000
0100
0010
0100
0000
0110
0000
0010
1000
0010
0000
1010
0000
1000
0100
,  // measure 82
1000
0000
1100
0000
0100
0010
0001
0000
0011
0000
0010
0100
1000
0000
1010
0000
,  // measure 83
0010
0100
0001
0000
0101
0000
0100
0010
1000
0000
0000
0000
0000
0000
0000
0000
,  // measure 84
2002
0000
0000
0000
,  // measure 85
0000
0000
0000
3003
;
