#VERSION:0.83;
#TITLE:Thank You Merry Christmas;
#SUBTITLE:;
#ARTIST:VENUS;
#TITLETRANSLIT:;
#SUBTITLETRANSLIT:;
#ARTISTTRANSLIT:;
#GENRE:;
#CREDIT:;
#MUSIC:Thank You Merry Christmas.ogg;
#BANNER:Thank You Merry Christmas.png;
#BACKGROUND:Thank You Merry Christmas-bg.png;
#CDTITLE:;
#SAMPLESTART:65.455;
#SAMPLELENGTH:15.000;
#SELECTABLE:YES;
#OFFSET:-1.091;
#BPMS:0.000=220.000;
#STOPS:;
#BGCHANGES:;
#FGCHANGES:;

//--------------- dance-single - ----------------
#NOTEDATA:;
#STEPSTYPE:dance-single;
#DESCRIPTION:;
#CREDIT:Kikoia;
#DIFFICULTY:Hard;
#METER:14;
#RADARVALUES:0,0,0,0,0;
#NOTES:
0000
0000
0000
0000
,
0000
0000
0000
0000
,
0000
0000
0000
0000
,
0000
0000
0000
0000
,
0000
0000
0000
0000
,
0000
0000
0000
0000
,
0000
0000
0000
0000
,
0000
0000
0000
0000
,
0020
0000
0000
0000
,
0000
0000
0000
0000
,
0200
0000
0000
0000
,
0330
0000
0000
0000
,
2001
0100
0000
0100
,
0000
3100
0000
1100
,
1002
0100
0000
0100
,
0000
0000
0000
0000
0000
0003
0100
0000
0000
0000
0100
0000
0010
0000
0000
0000
0000
0000
1001
0000
0000
0000
0000
0000
,
0001
0010
0001
0100
,
0010
1000
0100
1000
,
0001
0100
1000
0100
,
0010
1000
0001
1000
0000
0000
0110
0000
0000
1001
0000
0000
,
1000
0000
0001
0100
0000
0000
0001
0000
0000
1000
0000
0000
,
0200
0320
0032
0203
,
0301
0000
1000
0010
0000
0000
1000
0000
0000
0001
0000
0000
,
0020
0230
2300
3020
,
1030
0000
0100
0010
0000
0000
0001
0000
0000
0100
0000
0000
,
0002
0023
2030
3020
,
0031
0000
0100
0001
0000
0000
1000
0000
0000
0010
0000
0000
,
2000
3020
0032
0023
,
1030
0000
1000
0100
0000
0000
1001
0000
0000
1000
0000
0010
,
0000
0000
0010
0100
0000
0100
0001
0000
0001
0020
0000
0000
,
0130
0000
0000
0100
0000
1000
0000
0000
1000
0002
0000
0000
,
0203
0302
0023
0031
,
0101
1000
1100
0001
,
0011
1000
1010
0001
,
0020
0000
0230
0000
0302
0000
0203
0000
2300
0000
3002
0000
,
0103
0001
0100
0001
0100
0001
0100
0000
0000
0000
0000
0000
,
1002
0000
0000
0103
0000
0000
0010
0000
0000
1000
0000
0001
,
0000
0000
0011
0000
0000
0010
0100
0000
0000
1000
0000
0000
,
0200
0000
0000
0001
0000
0000
0010
0000
0000
1300
0000
0001
,
0000
0000
1010
0000
0000
0010
0100
0000
0000
0001
0000
0000
,
0100
1000
0100
0001
,
0010
0000
0000
0100
0000
0000
1000
0010
1000
0010
0000
0000
,
0100
0000
0001
0010
0000
0000
0010
0000
0001
1000
0000
0000
,
0001
0000
0001
0100
0000
0100
0010
0000
0010
1000
0000
0001
,
0010
0000
0000
0200
0000
0000
0000
0000
0001
0000
0000
0301
,
0100
1000
0010
1000
,
0100
0000
0000
0010
0000
0000
0001
0000
1000
0000
0000
1001
,
0000
0000
0000
0000
0000
0000
1000
0001
0100
0020
0000
0000
,
1030
0000
0001
0000
0000
1000
0001
0000
0000
1000
0000
0000
,
0001
0000
1000
0000
0000
0001
1000
0000
0000
0001
0000
0000
,
1000
0100
0001
0100
,
1000
0000
0010
0000
0000
0010
0100
0000
0000
0001
0000
0000
,
1000
0000
0000
0100
0000
0000
0000
0000
1100
0000
0000
0100
,
0010
0001
1000
0010
,
0001
0000
0000
0010
0000
0000
1000
0000
0001
0000
0000
0102
,
0000
0000
1000
0000
0000
0013
0001
1000
0001
1000
0000
0000
,
1000
0000
0100
0000
0000
0100
1000
0000
0000
0001
0000
0000
,
0100
0000
0010
0000
0000
0010
1000
0000
0000
0001
0000
0000
,
0011
0110
1100
1001
,
0220
0000
0000
0330
,
1001
0000
1000
0100
0000
0000
1000
0000
0000
0001
0000
0000
,
0200
0320
2030
3200
,
1300
0000
0001
0010
0000
0000
0001
0000
0000
1000
0000
0000
,
0020
0230
0302
0023
,
0031
0000
0100
0010
0000
0000
1000
0000
0000
0100
0000
0000
,
2000
3020
0032
0023
,
1030
0000
0100
1000
0000
0000
0001
0000
0000
0010
0000
0000
,
0002
0023
2030
3020
,
0031
0000
0001
1000
0000
0000
1001
0000
0000
0001
0000
0010
,
0000
0000
0010
0100
0000
0100
1000
0000
1000
0010
0000
0000
,
0100
0000
0000
0100
0000
0001
0000
0000
0001
1000
0000
0000
,
0100
1000
0010
1000
,
1100
0001
0101
1000
,
1010
0001
0011
1000
,
0020
0000
0230
0000
2300
0000
3200
0000
0302
0000
2003
0000
,
3100
1000
0100
1000
0100
1000
0001
0000
0000
0010
0000
0000
,
1002
0000
0000
0000
,
0200
0000
0303
0000
,
2001
0000
0000
3020
0000
0000
0130
0000
0100
0002
0000
0000
,
0023
0000
0000
0032
0000
0000
1003
0000
1000
0200
0000
0000
,
0320
0000
0000
0230
0000
0000
1300
0000
1000
0002
0000
0000
,
0203
0000
0000
0320
0000
0000
0130
0000
0100
0001
0000
0000
,
1002
0000
0000
0103
0000
0000
0010
0000
0010
0100
0000
0000
,
2001
0000
0000
3100
0000
0000
0010
0000
0010
0100
0000
0000
,
1100
0000
0000
0100
0000
0000
0010
0000
0001
1000
0000
0000
,
0101
0000
0000
0100
0000
0000
0010
0000
1000
0002
0000
0000
,
0023
0130
0200
1300
,
2000
3010
0020
0130
,
0200
0000
0000
1000
0000
0300
0200
0000
0000
0010
0000
0300
,
0200
0302
2003
3200
,
0320
0000
0000
0100
0000
0030
0020
0000
0000
1000
0000
0030
,
0020
0032
2003
3002
,
0203
0320
2030
3002
,
0013
0000
0010
0100
0000
0100
1000
0001
1000
0001
1000
0001
,
2000
0000
0000
0000
,
3000
0000
0000
0000
,
1000
0100
0001
0100
,
1000
0001
0000
0000
,
2000
3200
0302
0203
,
2300
0002
3003
0000
,
0002
0203
2300
3200
,
0302
2000
3003
0000
,
1000
0000
1000
0010
0000
0010
0100
0000
0100
0001
0000
0001
,
0010
0000
0000
0100
0000
0000
0110
0000
0000
1000
0000
0001
,
0000
0000
0001
1000
0000
1000
0100
0000
0100
1000
0000
1000
,
0010
0000
0000
1000
0000
0001
0000
0000
0001
0200
0000
0000
,
0010
1000
0010
0301
,
0001
0000
0100
0001
0000
0000
1000
0000
0100
1000
0000
0000
,
0001
0000
0010
0001
0000
0000
1000
0000
0010
1000
0000
0000
,
0012
0103
2010
3100
,
1000
0001
1000
0001
1000
0001
0200
0000
0300
0200
0000
0000
,
0320
0000
0000
0000
,
2000
0000
0000
0000
,
3030
0000
0000
0000
;

//--------------- dance-single - ----------------
#NOTEDATA:;
#STEPSTYPE:dance-single;
#DESCRIPTION:;
#CREDIT:Kikoia;
#DIFFICULTY:Challenge;
#METER:17;
#RADARVALUES:0,0,0,0,0;
#NOTES:
0000
0000
0000
0000
,
0000
0000
0000
0000
,
0000
0000
0000
0000
,
0000
0000
0001
0010
,
0200
0000
0000
0000
,
0000
0000
0000
0000
,
2300
0000
0000
0000
,
0010
0000
0001
0002
,
0000
0000
0000
0000
,
0000
0000
0000
0000
,
0000
0000
0000
0000
,
3003
0000
0000
0000
,
1002
0000
0000
0100
0000
0000
1003
0000
0000
0001
0000
0100
,
0000
0000
0001
0000
0000
0100
0001
0000
0000
0101
0000
0000
,
2001
0000
0000
0100
0000
0000
3001
0000
0000
1000
0000
0100
,
0000
0000
1000
0000
0000
0001
1000
0001
1000
0001
1000
0001
,
2000
3020
0230
0302
,
0023
0230
2300
3020
,
1030
0001
0010
0001
1000
0010
1000
0100
0010
0100
1000
0001
,
0010
0100
1000
0010
0000
0000
0110
0000
0000
1001
0000
0000
,
1000
0000
1000
0100
0000
0000
0010
0000
0001
1000
0000
0000
,
0001
0000
1000
0100
0000
0000
0010
0000
0001
1000
0000
0000
,
1001
0000
0001
0100
0000
0000
0010
0000
1000
0001
0000
0000
,
1000
0000
0001
0100
0000
0000
0010
0000
1000
0001
0000
0000
,
1001
0000
0001
0010
0000
0000
0100
0000
1000
0001
0000
0000
,
1000
0000
0001
0010
0000
0000
0100
0000
1000
0001
0000
0000
,
1001
0000
1000
0010
0000
0000
0100
0000
0001
1000
0000
0000
,
1010
0110
0101
1001
,
1100
0000
0000
0102
0000
0000
1000
0000
0000
0013
0000
0001
,
0000
0000
0001
1000
0000
1000
0010
0000
0010
1000
0000
1000
,
0200
0000
0000
1300
0000
0001
0000
0000
0001
0200
0000
0000
,
0000
0000
1300
0100
0000
0001
0100
0000
1000
0100
0000
0100
,
0001
0000
1000
1100
0000
0000
1000
0000
0001
0101
0000
1000
,
0010
0000
1000
0001
0000
1000
0100
0000
0000
1001
0000
0000
,
1000
0100
0010
0001
1000
0010
1000
0001
0010
0001
0100
0010
,
1000
0001
1000
0001
1000
0001
1000
0000
0000
0000
0000
0000
,
0110
0000
0000
1001
0000
0000
1010
0000
0001
0100
0000
0000
,
0011
0000
1000
0100
0000
0100
0010
0000
0001
2000
0000
0000
,
3200
0302
0023
2030
,
3001
0000
1001
0000
0000
0001
0100
0000
0000
0001
0000
0000
,
0010
0000
0100
1000
0000
0000
0010
0000
0100
0001
0000
0001
,
0010
0000
0001
1000
0000
1000
0001
0010
0100
1000
0010
0100
,
0001
0000
0100
0110
0000
0000
0001
0000
1000
1100
0000
0000
,
1001
0000
1000
0100
0000
0100
0010
0001
1000
0010
0100
0001
,
1000
0000
0000
1001
0000
0000
0000
0000
0011
0000
0000
0100
,
1000
0000
0000
1000
0000
0000
0001
0100
0001
0100
0000
0000
,
0101
0000
0000
1010
0000
0000
1000
0000
0001
0000
0000
1001
,
0000
0000
0000
1000
0100
0010
0001
0010
0100
1000
0000
0000
,
1000
0000
0001
0000
0000
0001
0100
0000
0000
0010
0000
0000
,
1000
0000
0100
0000
0000
0100
0010
0000
0000
0001
0000
0000
,
0011
0101
1100
1010
,
2001
0010
0100
3001
,
1002
0000
0000
0103
0000
0000
0010
0000
0010
1000
0000
1000
,
0001
0000
0001
1000
0000
0100
0002
0000
0000
0103
0000
0000
,
1000
0000
1000
0010
0000
0010
0100
0000
0100
0001
0000
0100
,
2000
0000
0000
3100
0000
0001
0100
0010
1000
0001
0000
0000
,
1000
0000
0001
0000
0000
0001
0010
0000
0000
0100
0000
0000
,
1000
0000
0010
0000
0000
0010
0100
0000
0000
0001
0000
0000
,
1001
0110
1100
1010
,
0001
0100
0001
1000
0100
1000
0001
0010
0100
1000
0010
0100
,
0001
0000
0001
0100
0000
0000
0010
0000
1000
0001
0000
0000
,
1000
0000
0001
0100
0000
0000
0010
0000
1000
0001
0000
0000
,
1001
0000
1000
0100
0000
0000
0010
0000
0001
1000
0000
0000
,
0001
0000
1000
0100
0000
0000
0010
0000
0001
1000
0000
0000
,
1001
0000
1000
0010
0000
0000
0100
0000
0001
1000
0000
0000
,
0001
0000
1000
0010
0000
0000
0100
0000
0001
1000
0000
0000
,
1001
0000
0001
0010
0000
0000
0100
0000
1000
0001
0000
0000
,
0011
0110
1100
1001
,
0101
0000
0000
2100
0000
0000
0001
0000
0000
3010
0000
1000
,
0000
0000
1000
0001
0000
0001
0010
0000
0010
0001
0000
0001
,
0200
0000
0000
0301
0000
1000
0000
0000
1000
0200
0000
0000
,
0000
0000
0301
0100
0000
1000
0100
0000
0001
0100
0000
0100
,
1000
0000
0001
0101
0000
0000
0001
0000
1000
1100
0000
0001
,
0010
0000
0001
1000
0000
0001
0100
0000
0000
1001
0000
0000
,
1000
0100
1000
0100
0010
0000
0001
1000
0001
1000
0010
0000
,
0100
0001
0100
0001
0100
0001
1000
0000
0000
1002
0000
0000
,
0023
0000
0000
0000
,
0200
0000
0000
0330
0000
0000
0010
0100
0010
0100
0000
0000
,
2001
3200
0302
0203
,
2300
3200
0302
0103
,
1002
0203
2300
3200
,
0302
0203
2300
3200
,
0302
0023
2030
3200
,
0302
2003
3200
0320
,
0031
0000
0000
0100
0000
0000
0001
0000
0100
0010
0000
0000
,
1000
0000
1000
0100
0000
0100
0010
0000
0010
0001
0000
0001
,
1000
0000
1000
0010
0000
0000
0001
0000
0001
0010
0000
0000
,
1000
0000
1000
0100
0000
0000
0001
0000
0001
0100
0000
0000
,
1001
0000
1000
0100
0000
0000
0110
0000
0001
0100
0000
0000
,
0110
0000
0010
1000
0000
0000
0100
0000
0010
0002
0000
0000
,
2003
3020
0032
0023
,
2030
3200
0302
0023
,
0130
0000
0000
1000
0000
0000
0001
0000
0001
0100
0000
0000
,
0010
0000
0010
1000
0000
1000
0100
0010
0001
1000
0010
0100
,
0001
0000
0000
0000
,
2001
0100
0000
3100
,
0001
0000
0001
0200
0000
0000
2300
0000
0000
3200
0000
0000
,
0302
2000
3003
0000
,
2000
3200
0302
0203
,
2300
0002
3003
0000
,
0002
0203
2300
3200
,
0302
2000
3003
0000
,
1000
0000
1000
0010
0000
0010
0100
0000
0100
0001
0000
0001
,
0010
0000
0000
0100
0000
0000
1100
0000
0000
0001
0000
0010
,
0000
0000
0010
0001
0000
0001
1000
0000
1000
0010
0000
0010
,
1000
0000
0000
0100
0000
0110
0000
0000
0001
1001
0000
0000
,
0000
0000
1000
0001
0000
0001
1000
0000
1000
0100
0000
0100
,
1000
0000
0100
0010
0000
0000
0001
0000
0100
0010
0000
0010
,
1000
0000
0010
1000
0000
0001
0010
0000
0000
0110
0000
0000
,
1001
0000
0001
0100
0000
0000
1001
0000
1000
0100
0000
0000
,
0001
0010
0100
1000
0010
0100
0001
0000
0000
1000
0000
0000
,
0002
0000
0000
0000
,
0200
0000
0000
0000
,
0303
0000
0000
0000
;
